Skip to content

Instantly share code, notes, and snippets.

Embed
What would you like to do?
This file has been truncated, but you can view the full file.
{
"frames": [
{
"media_type": "audio",
"stream_index": 1,
"key_frame": 1,
"pkt_pts": 0,
"pkt_pts_time": "0.000000",
"pkt_dts": 0,
"pkt_dts_time": "0.000000",
"best_effort_timestamp": 0,
"best_effort_timestamp_time": "0.000000",
"pkt_duration": 1024,
"pkt_duration_time": "0.021333",
"pkt_pos": "315",
"pkt_size": "341",
"sample_fmt": "fltp",
"nb_samples": 1024,
"channels": 2,
"channel_layout": "stereo"
},
{
"media_type": "audio",
"stream_index": 1,
"key_frame": 1,
"pkt_pts": 1024,
"pkt_pts_time": "0.021333",
"pkt_dts": 1024,
"pkt_dts_time": "0.021333",
"best_effort_timestamp": 1024,
"best_effort_timestamp_time": "0.021333",
"pkt_duration": 1024,
"pkt_duration_time": "0.021333",
"pkt_pos": "656",
"pkt_size": "304",
"sample_fmt": "fltp",
"nb_samples": 1024,
"channels": 2,
"channel_layout": "stereo"
},
{
"media_type": "video",
"stream_index": 0,
"key_frame": 1,
"pkt_pts": 990,
"pkt_pts_time": "0.033000",
"pkt_dts": 990,
"pkt_dts_time": "0.033000",
"best_effort_timestamp": 990,
"best_effort_timestamp_time": "0.033000",
"pkt_duration": 1001,
"pkt_duration_time": "0.033367",
"pkt_pos": "960",
"pkt_size": "70375",
"width": 3840,
"height": 2160,
"pix_fmt": "yuv444p10le",
"sample_aspect_ratio": "1:1",
"pict_type": "I",
"coded_picture_number": 0,
"display_picture_number": 0,
"interlaced_frame": 0,
"top_field_first": 0,
"repeat_pict": 0,
"color_range": "tv",
"logs": [
{
"context": "hevc",
"level": 48,
"category": 6,
"message": "[hevc @ 0x560891d96780] nal_unit_type: 39(SEI_PREFIX), nuh_layer_id: 0, temporal_id: 0"
},
{
"context": "hevc",
"level": 48,
"category": 6,
"message": "[hevc @ 0x560891d96780] nal_unit_type: 39(SEI_PREFIX), nuh_layer_id: 0, temporal_id: 0"
},
{
"context": "hevc",
"level": 48,
"category": 6,
"message": "[hevc @ 0x560891d96780] nal_unit_type: 19(IDR_W_RADL), nuh_layer_id: 0, temporal_id: 0"
},
{
"context": "hevc",
"level": 48,
"category": 6,
"message": "[hevc @ 0x560891d96780] Decoding SEI"
},
{
"context": "hevc",
"level": 48,
"category": 6,
"message": "[hevc @ 0x560891d96780] Skipped PREFIX SEI 0"
},
{
"context": "hevc",
"level": 48,
"category": 6,
"message": "[hevc @ 0x560891d96780] Decoding SEI"
},
{
"context": "hevc",
"level": 48,
"category": 6,
"message": "[hevc @ 0x560891d96780] Format yuv444p10le chosen by get_format()."
},
{
"context": "hevc",
"level": 48,
"category": 6,
"message": "[hevc @ 0x560891d96780] Output frame with POC 0."
},
{
"context": "hevc",
"level": 48,
"category": 6,
"message": "[hevc @ 0x560891d96780] Decoded frame with POC 0."
}
]
},
{
"media_type": "audio",
"stream_index": 1,
"key_frame": 1,
"pkt_pts": 2048,
"pkt_pts_time": "0.042667",
"pkt_dts": 2048,
"pkt_dts_time": "0.042667",
"best_effort_timestamp": 2048,
"best_effort_timestamp_time": "0.042667",
"pkt_duration": 1024,
"pkt_duration_time": "0.021333",
"pkt_pos": "71335",
"pkt_size": "331",
"sample_fmt": "fltp",
"nb_samples": 1024,
"channels": 2,
"channel_layout": "stereo"
},
{
"media_type": "audio",
"stream_index": 1,
"key_frame": 1,
"pkt_pts": 3072,
"pkt_pts_time": "0.064000",
"pkt_dts": 3072,
"pkt_dts_time": "0.064000",
"best_effort_timestamp": 3072,
"best_effort_timestamp_time": "0.064000",
"pkt_duration": 1024,
"pkt_duration_time": "0.021333",
"pkt_pos": "71666",
"pkt_size": "356",
"sample_fmt": "fltp",
"nb_samples": 1024,
"channels": 2,
"channel_layout": "stereo"
},
{
"media_type": "video",
"stream_index": 0,
"key_frame": 0,
"pkt_pts": 1991,
"pkt_pts_time": "0.066367",
"pkt_dts": 1991,
"pkt_dts_time": "0.066367",
"best_effort_timestamp": 1991,
"best_effort_timestamp_time": "0.066367",
"pkt_duration": 1001,
"pkt_duration_time": "0.033367",
"pkt_pos": "72022",
"pkt_size": "34358",
"width": 3840,
"height": 2160,
"pix_fmt": "yuv444p10le",
"sample_aspect_ratio": "1:1",
"pict_type": "P",
"coded_picture_number": 0,
"display_picture_number": 0,
"interlaced_frame": 0,
"top_field_first": 0,
"repeat_pict": 0,
"color_range": "tv",
"logs": [
{
"context": "hevc",
"level": 48,
"category": 6,
"message": "[hevc @ 0x560891d96780] nal_unit_type: 39(SEI_PREFIX), nuh_layer_id: 0, temporal_id: 0"
},
{
"context": "hevc",
"level": 48,
"category": 6,
"message": "[hevc @ 0x560891d96780] nal_unit_type: 1(TRAIL_R), nuh_layer_id: 0, temporal_id: 0"
},
{
"context": "hevc",
"level": 48,
"category": 6,
"message": "[hevc @ 0x560891d96780] Decoding SEI"
},
{
"context": "hevc",
"level": 48,
"category": 6,
"message": "[hevc @ 0x560891d96780] Output frame with POC 1."
},
{
"context": "hevc",
"level": 48,
"category": 6,
"message": "[hevc @ 0x560891d96780] Decoded frame with POC 1."
}
]
},
{
"media_type": "audio",
"stream_index": 1,
"key_frame": 1,
"pkt_pts": 4096,
"pkt_pts_time": "0.085333",
"pkt_dts": 4096,
"pkt_dts_time": "0.085333",
"best_effort_timestamp": 4096,
"best_effort_timestamp_time": "0.085333",
"pkt_duration": 1024,
"pkt_duration_time": "0.021333",
"pkt_pos": "106380",
"pkt_size": "336",
"sample_fmt": "fltp",
"nb_samples": 1024,
"channels": 2,
"channel_layout": "stereo"
},
{
"media_type": "video",
"stream_index": 0,
"key_frame": 0,
"pkt_pts": 2992,
"pkt_pts_time": "0.099733",
"pkt_dts": 2992,
"pkt_dts_time": "0.099733",
"best_effort_timestamp": 2992,
"best_effort_timestamp_time": "0.099733",
"pkt_duration": 1001,
"pkt_duration_time": "0.033367",
"pkt_pos": "106716",
"pkt_size": "27800",
"width": 3840,
"height": 2160,
"pix_fmt": "yuv444p10le",
"sample_aspect_ratio": "1:1",
"pict_type": "P",
"coded_picture_number": 0,
"display_picture_number": 0,
"interlaced_frame": 0,
"top_field_first": 0,
"repeat_pict": 0,
"color_range": "tv",
"logs": [
{
"context": "hevc",
"level": 48,
"category": 6,
"message": "[hevc @ 0x560891d96780] nal_unit_type: 39(SEI_PREFIX), nuh_layer_id: 0, temporal_id: 0"
},
{
"context": "hevc",
"level": 48,
"category": 6,
"message": "[hevc @ 0x560891d96780] nal_unit_type: 1(TRAIL_R), nuh_layer_id: 0, temporal_id: 0"
},
{
"context": "hevc",
"level": 48,
"category": 6,
"message": "[hevc @ 0x560891d96780] Decoding SEI"
},
{
"context": "hevc",
"level": 48,
"category": 6,
"message": "[hevc @ 0x560891d96780] Output frame with POC 2."
},
{
"context": "hevc",
"level": 48,
"category": 6,
"message": "[hevc @ 0x560891d96780] Decoded frame with POC 2."
}
]
},
{
"media_type": "audio",
"stream_index": 1,
"key_frame": 1,
"pkt_pts": 5120,
"pkt_pts_time": "0.106667",
"pkt_dts": 5120,
"pkt_dts_time": "0.106667",
"best_effort_timestamp": 5120,
"best_effort_timestamp_time": "0.106667",
"pkt_duration": 1024,
"pkt_duration_time": "0.021333",
"pkt_pos": "134516",
"pkt_size": "358",
"sample_fmt": "fltp",
"nb_samples": 1024,
"channels": 2,
"channel_layout": "stereo"
},
{
"media_type": "audio",
"stream_index": 1,
"key_frame": 1,
"pkt_pts": 6144,
"pkt_pts_time": "0.128000",
"pkt_dts": 6144,
"pkt_dts_time": "0.128000",
"best_effort_timestamp": 6144,
"best_effort_timestamp_time": "0.128000",
"pkt_duration": 1024,
"pkt_duration_time": "0.021333",
"pkt_pos": "134874",
"pkt_size": "324",
"sample_fmt": "fltp",
"nb_samples": 1024,
"channels": 2,
"channel_layout": "stereo"
},
{
"media_type": "video",
"stream_index": 0,
"key_frame": 0,
"pkt_pts": 3993,
"pkt_pts_time": "0.133100",
"pkt_dts": 3993,
"pkt_dts_time": "0.133100",
"best_effort_timestamp": 3993,
"best_effort_timestamp_time": "0.133100",
"pkt_duration": 1001,
"pkt_duration_time": "0.033367",
"pkt_pos": "135198",
"pkt_size": "23791",
"width": 3840,
"height": 2160,
"pix_fmt": "yuv444p10le",
"sample_aspect_ratio": "1:1",
"pict_type": "P",
"coded_picture_number": 0,
"display_picture_number": 0,
"interlaced_frame": 0,
"top_field_first": 0,
"repeat_pict": 0,
"color_range": "tv",
"logs": [
{
"context": "hevc",
"level": 48,
"category": 6,
"message": "[hevc @ 0x560891d96780] nal_unit_type: 39(SEI_PREFIX), nuh_layer_id: 0, temporal_id: 0"
},
{
"context": "hevc",
"level": 48,
"category": 6,
"message": "[hevc @ 0x560891d96780] nal_unit_type: 1(TRAIL_R), nuh_layer_id: 0, temporal_id: 0"
},
{
"context": "hevc",
"level": 48,
"category": 6,
"message": "[hevc @ 0x560891d96780] Decoding SEI"
},
{
"context": "hevc",
"level": 48,
"category": 6,
"message": "[hevc @ 0x560891d96780] Output frame with POC 3."
},
{
"context": "hevc",
"level": 48,
"category": 6,
"message": "[hevc @ 0x560891d96780] Decoded frame with POC 3."
}
]
},
{
"media_type": "audio",
"stream_index": 1,
"key_frame": 1,
"pkt_pts": 7168,
"pkt_pts_time": "0.149333",
"pkt_dts": 7168,
"pkt_dts_time": "0.149333",
"best_effort_timestamp": 7168,
"best_effort_timestamp_time": "0.149333",
"pkt_duration": 1024,
"pkt_duration_time": "0.021333",
"pkt_pos": "158989",
"pkt_size": "356",
"sample_fmt": "fltp",
"nb_samples": 1024,
"channels": 2,
"channel_layout": "stereo"
},
{
"media_type": "video",
"stream_index": 0,
"key_frame": 0,
"pkt_pts": 4994,
"pkt_pts_time": "0.166467",
"pkt_dts": 4994,
"pkt_dts_time": "0.166467",
"best_effort_timestamp": 4994,
"best_effort_timestamp_time": "0.166467",
"pkt_duration": 1001,
"pkt_duration_time": "0.033367",
"pkt_pos": "159345",
"pkt_size": "23709",
"width": 3840,
"height": 2160,
"pix_fmt": "yuv444p10le",
"sample_aspect_ratio": "1:1",
"pict_type": "P",
"coded_picture_number": 0,
"display_picture_number": 0,
"interlaced_frame": 0,
"top_field_first": 0,
"repeat_pict": 0,
"color_range": "tv",
"logs": [
{
"context": "hevc",
"level": 48,
"category": 6,
"message": "[hevc @ 0x560891d96780] nal_unit_type: 39(SEI_PREFIX), nuh_layer_id: 0, temporal_id: 0"
},
{
"context": "hevc",
"level": 48,
"category": 6,
"message": "[hevc @ 0x560891d96780] nal_unit_type: 1(TRAIL_R), nuh_layer_id: 0, temporal_id: 0"
},
{
"context": "hevc",
"level": 48,
"category": 6,
"message": "[hevc @ 0x560891d96780] Decoding SEI"
},
{
"context": "hevc",
"level": 48,
"category": 6,
"message": "[hevc @ 0x560891d96780] Output frame with POC 4."
},
{
"context": "hevc",
"level": 48,
"category": 6,
"message": "[hevc @ 0x560891d96780] Decoded frame with POC 4."
}
]
},
{
"media_type": "audio",
"stream_index": 1,
"key_frame": 1,
"pkt_pts": 8192,
"pkt_pts_time": "0.170667",
"pkt_dts": 8192,
"pkt_dts_time": "0.170667",
"best_effort_timestamp": 8192,
"best_effort_timestamp_time": "0.170667",
"pkt_duration": 1024,
"pkt_duration_time": "0.021333",
"pkt_pos": "183054",
"pkt_size": "338",
"sample_fmt": "fltp",
"nb_samples": 1024,
"channels": 2,
"channel_layout": "stereo"
},
{
"media_type": "audio",
"stream_index": 1,
"key_frame": 1,
"pkt_pts": 9216,
"pkt_pts_time": "0.192000",
"pkt_dts": 9216,
"pkt_dts_time": "0.192000",
"best_effort_timestamp": 9216,
"best_effort_timestamp_time": "0.192000",
"pkt_duration": 1024,
"pkt_duration_time": "0.021333",
"pkt_pos": "183392",
"pkt_size": "324",
"sample_fmt": "fltp",
"nb_samples": 1024,
"channels": 2,
"channel_layout": "stereo"
},
{
"media_type": "video",
"stream_index": 0,
"key_frame": 0,
"pkt_pts": 5995,
"pkt_pts_time": "0.199833",
"pkt_dts": 5995,
"pkt_dts_time": "0.199833",
"best_effort_timestamp": 5995,
"best_effort_timestamp_time": "0.199833",
"pkt_duration": 1001,
"pkt_duration_time": "0.033367",
"pkt_pos": "183716",
"pkt_size": "21994",
"width": 3840,
"height": 2160,
"pix_fmt": "yuv444p10le",
"sample_aspect_ratio": "1:1",
"pict_type": "P",
"coded_picture_number": 0,
"display_picture_number": 0,
"interlaced_frame": 0,
"top_field_first": 0,
"repeat_pict": 0,
"color_range": "tv",
"logs": [
{
"context": "hevc",
"level": 48,
"category": 6,
"message": "[hevc @ 0x560891d96780] nal_unit_type: 39(SEI_PREFIX), nuh_layer_id: 0, temporal_id: 0"
},
{
"context": "hevc",
"level": 48,
"category": 6,
"message": "[hevc @ 0x560891d96780] nal_unit_type: 1(TRAIL_R), nuh_layer_id: 0, temporal_id: 0"
},
{
"context": "hevc",
"level": 48,
"category": 6,
"message": "[hevc @ 0x560891d96780] Decoding SEI"
},
{
"context": "hevc",
"level": 48,
"category": 6,
"message": "[hevc @ 0x560891d96780] Output frame with POC 5."
},
{
"context": "hevc",
"level": 48,
"category": 6,
"message": "[hevc @ 0x560891d96780] Decoded frame with POC 5."
}
]
},
{
"media_type": "audio",
"stream_index": 1,
"key_frame": 1,
"pkt_pts": 10240,
"pkt_pts_time": "0.213333",
"pkt_dts": 10240,
"pkt_dts_time": "0.213333",
"best_effort_timestamp": 10240,
"best_effort_timestamp_time": "0.213333",
"pkt_duration": 1024,
"pkt_duration_time": "0.021333",
"pkt_pos": "205710",
"pkt_size": "353",
"sample_fmt": "fltp",
"nb_samples": 1024,
"channels": 2,
"channel_layout": "stereo"
},
{
"media_type": "video",
"stream_index": 0,
"key_frame": 0,
"pkt_pts": 6996,
"pkt_pts_time": "0.233200",
"pkt_dts": 6996,
"pkt_dts_time": "0.233200",
"best_effort_timestamp": 6996,
"best_effort_timestamp_time": "0.233200",
"pkt_duration": 1001,
"pkt_duration_time": "0.033367",
"pkt_pos": "206063",
"pkt_size": "19396",
"width": 3840,
"height": 2160,
"pix_fmt": "yuv444p10le",
"sample_aspect_ratio": "1:1",
"pict_type": "P",
"coded_picture_number": 0,
"display_picture_number": 0,
"interlaced_frame": 0,
"top_field_first": 0,
"repeat_pict": 0,
"color_range": "tv",
"logs": [
{
"context": "hevc",
"level": 48,
"category": 6,
"message": "[hevc @ 0x560891d96780] nal_unit_type: 39(SEI_PREFIX), nuh_layer_id: 0, temporal_id: 0"
},
{
"context": "hevc",
"level": 48,
"category": 6,
"message": "[hevc @ 0x560891d96780] nal_unit_type: 1(TRAIL_R), nuh_layer_id: 0, temporal_id: 0"
},
{
"context": "hevc",
"level": 48,
"category": 6,
"message": "[hevc @ 0x560891d96780] Decoding SEI"
},
{
"context": "hevc",
"level": 48,
"category": 6,
"message": "[hevc @ 0x560891d96780] Output frame with POC 6."
},
{
"context": "hevc",
"level": 48,
"category": 6,
"message": "[hevc @ 0x560891d96780] Decoded frame with POC 6."
}
]
},
{
"media_type": "audio",
"stream_index": 1,
"key_frame": 1,
"pkt_pts": 11264,
"pkt_pts_time": "0.234667",
"pkt_dts": 11264,
"pkt_dts_time": "0.234667",
"best_effort_timestamp": 11264,
"best_effort_timestamp_time": "0.234667",
"pkt_duration": 1024,
"pkt_duration_time": "0.021333",
"pkt_pos": "225459",
"pkt_size": "259",
"sample_fmt": "fltp",
"nb_samples": 1024,
"channels": 2,
"channel_layout": "stereo"
},
{
"media_type": "audio",
"stream_index": 1,
"key_frame": 1,
"pkt_pts": 12288,
"pkt_pts_time": "0.256000",
"pkt_dts": 12288,
"pkt_dts_time": "0.256000",
"best_effort_timestamp": 12288,
"best_effort_timestamp_time": "0.256000",
"pkt_duration": 1024,
"pkt_duration_time": "0.021333",
"pkt_pos": "225718",
"pkt_size": "242",
"sample_fmt": "fltp",
"nb_samples": 1024,
"channels": 2,
"channel_layout": "stereo"
},
{
"media_type": "video",
"stream_index": 0,
"key_frame": 0,
"pkt_pts": 7997,
"pkt_pts_time": "0.266567",
"pkt_dts": 7997,
"pkt_dts_time": "0.266567",
"best_effort_timestamp": 7997,
"best_effort_timestamp_time": "0.266567",
"pkt_duration": 1001,
"pkt_duration_time": "0.033367",
"pkt_pos": "225960",
"pkt_size": "23805",
"width": 3840,
"height": 2160,
"pix_fmt": "yuv444p10le",
"sample_aspect_ratio": "1:1",
"pict_type": "P",
"coded_picture_number": 0,
"display_picture_number": 0,
"interlaced_frame": 0,
"top_field_first": 0,
"repeat_pict": 0,
"color_range": "tv",
"logs": [
{
"context": "hevc",
"level": 48,
"category": 6,
"message": "[hevc @ 0x560891d96780] nal_unit_type: 39(SEI_PREFIX), nuh_layer_id: 0, temporal_id: 0"
},
{
"context": "hevc",
"level": 48,
"category": 6,
"message": "[hevc @ 0x560891d96780] nal_unit_type: 1(TRAIL_R), nuh_layer_id: 0, temporal_id: 0"
},
{
"context": "hevc",
"level": 48,
"category": 6,
"message": "[hevc @ 0x560891d96780] Decoding SEI"
},
{
"context": "hevc",
"level": 48,
"category": 6,
"message": "[hevc @ 0x560891d96780] Output frame with POC 7."
},
{
"context": "hevc",
"level": 48,
"category": 6,
"message": "[hevc @ 0x560891d96780] Decoded frame with POC 7."
}
]
},
{
"media_type": "audio",
"stream_index": 1,
"key_frame": 1,
"pkt_pts": 13312,
"pkt_pts_time": "0.277333",
"pkt_dts": 13312,
"pkt_dts_time": "0.277333",
"best_effort_timestamp": 13312,
"best_effort_timestamp_time": "0.277333",
"pkt_duration": 1024,
"pkt_duration_time": "0.021333",
"pkt_pos": "249765",
"pkt_size": "289",
"sample_fmt": "fltp",
"nb_samples": 1024,
"channels": 2,
"channel_layout": "stereo"
},
{
"media_type": "audio",
"stream_index": 1,
"key_frame": 1,
"pkt_pts": 14336,
"pkt_pts_time": "0.298667",
"pkt_dts": 14336,
"pkt_dts_time": "0.298667",
"best_effort_timestamp": 14336,
"best_effort_timestamp_time": "0.298667",
"pkt_duration": 1024,
"pkt_duration_time": "0.021333",
"pkt_pos": "250054",
"pkt_size": "298",
"sample_fmt": "fltp",
"nb_samples": 1024,
"channels": 2,
"channel_layout": "stereo"
},
{
"media_type": "video",
"stream_index": 0,
"key_frame": 0,
"pkt_pts": 8998,
"pkt_pts_time": "0.299933",
"pkt_dts": 8998,
"pkt_dts_time": "0.299933",
"best_effort_timestamp": 8998,
"best_effort_timestamp_time": "0.299933",
"pkt_duration": 1001,
"pkt_duration_time": "0.033367",
"pkt_pos": "250352",
"pkt_size": "23769",
"width": 3840,
"height": 2160,
"pix_fmt": "yuv444p10le",
"sample_aspect_ratio": "1:1",
"pict_type": "P",
"coded_picture_number": 0,
"display_picture_number": 0,
"interlaced_frame": 0,
"top_field_first": 0,
"repeat_pict": 0,
"color_range": "tv",
"logs": [
{
"context": "hevc",
"level": 48,
"category": 6,
"message": "[hevc @ 0x560891d96780] nal_unit_type: 39(SEI_PREFIX), nuh_layer_id: 0, temporal_id: 0"
},
{
"context": "hevc",
"level": 48,
"category": 6,
"message": "[hevc @ 0x560891d96780] nal_unit_type: 1(TRAIL_R), nuh_layer_id: 0, temporal_id: 0"
},
{
"context": "hevc",
"level": 48,
"category": 6,
"message": "[hevc @ 0x560891d96780] Decoding SEI"
},
{
"context": "hevc",
"level": 48,
"category": 6,
"message": "[hevc @ 0x560891d96780] Output frame with POC 8."
},
{
"context": "hevc",
"level": 48,
"category": 6,
"message": "[hevc @ 0x560891d96780] Decoded frame with POC 8."
}
]
},
{
"media_type": "audio",
"stream_index": 1,
"key_frame": 1,
"pkt_pts": 15360,
"pkt_pts_time": "0.320000",
"pkt_dts": 15360,
"pkt_dts_time": "0.320000",
"best_effort_timestamp": 15360,
"best_effort_timestamp_time": "0.320000",
"pkt_duration": 1024,
"pkt_duration_time": "0.021333",
"pkt_pos": "274121",
"pkt_size": "318",
"sample_fmt": "fltp",
"nb_samples": 1024,
"channels": 2,
"channel_layout": "stereo"
},
{
"media_type": "video",
"stream_index": 0,
"key_frame": 0,
"pkt_pts": 9999,
"pkt_pts_time": "0.333300",
"pkt_dts": 9999,
"pkt_dts_time": "0.333300",
"best_effort_timestamp": 9999,
"best_effort_timestamp_time": "0.333300",
"pkt_duration": 1001,
"pkt_duration_time": "0.033367",
"pkt_pos": "274439",
"pkt_size": "22930",
"width": 3840,
"height": 2160,
"pix_fmt": "yuv444p10le",
"sample_aspect_ratio": "1:1",
"pict_type": "P",
"coded_picture_number": 0,
"display_picture_number": 0,
"interlaced_frame": 0,
"top_field_first": 0,
"repeat_pict": 0,
"color_range": "tv",
"logs": [
{
"context": "hevc",
"level": 48,
"category": 6,
"message": "[hevc @ 0x560891d96780] nal_unit_type: 39(SEI_PREFIX), nuh_layer_id: 0, temporal_id: 0"
},
{
"context": "hevc",
"level": 48,
"category": 6,
"message": "[hevc @ 0x560891d96780] nal_unit_type: 1(TRAIL_R), nuh_layer_id: 0, temporal_id: 0"
},
{
"context": "hevc",
"level": 48,
"category": 6,
"message": "[hevc @ 0x560891d96780] Decoding SEI"
},
{
"context": "hevc",
"level": 48,
"category": 6,
"message": "[hevc @ 0x560891d96780] Output frame with POC 9."
},
{
"context": "hevc",
"level": 48,
"category": 6,
"message": "[hevc @ 0x560891d96780] Decoded frame with POC 9."
}
]
},
{
"media_type": "audio",
"stream_index": 1,
"key_frame": 1,
"pkt_pts": 16384,
"pkt_pts_time": "0.341333",
"pkt_dts": 16384,
"pkt_dts_time": "0.341333",
"best_effort_timestamp": 16384,
"best_effort_timestamp_time": "0.341333",
"pkt_duration": 1024,
"pkt_duration_time": "0.021333",
"pkt_pos": "297369",
"pkt_size": "346",
"sample_fmt": "fltp",
"nb_samples": 1024,
"channels": 2,
"channel_layout": "stereo"
},
{
"media_type": "audio",
"stream_index": 1,
"key_frame": 1,
"pkt_pts": 17408,
"pkt_pts_time": "0.362667",
"pkt_dts": 17408,
"pkt_dts_time": "0.362667",
"best_effort_timestamp": 17408,
"best_effort_timestamp_time": "0.362667",
"pkt_duration": 1024,
"pkt_duration_time": "0.021333",
"pkt_pos": "297715",
"pkt_size": "324",
"sample_fmt": "fltp",
"nb_samples": 1024,
"channels": 2,
"channel_layout": "stereo"
},
{
"media_type": "video",
"stream_index": 0,
"key_frame": 0,
"pkt_pts": 11000,
"pkt_pts_time": "0.366667",
"pkt_dts": 11000,
"pkt_dts_time": "0.366667",
"best_effort_timestamp": 11000,
"best_effort_timestamp_time": "0.366667",
"pkt_duration": 1001,
"pkt_duration_time": "0.033367",
"pkt_pos": "298039",
"pkt_size": "22119",
"width": 3840,
"height": 2160,
"pix_fmt": "yuv444p10le",
"sample_aspect_ratio": "1:1",
"pict_type": "P",
"coded_picture_number": 0,
"display_picture_number": 0,
"interlaced_frame": 0,
"top_field_first": 0,
"repeat_pict": 0,
"color_range": "tv",
"logs": [
{
"context": "hevc",
"level": 48,
"category": 6,
"message": "[hevc @ 0x560891d96780] nal_unit_type: 39(SEI_PREFIX), nuh_layer_id: 0, temporal_id: 0"
},
{
"context": "hevc",
"level": 48,
"category": 6,
"message": "[hevc @ 0x560891d96780] nal_unit_type: 1(TRAIL_R), nuh_layer_id: 0, temporal_id: 0"
},
{
"context": "hevc",
"level": 48,
"category": 6,
"message": "[hevc @ 0x560891d96780] Decoding SEI"
},
{
"context": "hevc",
"level": 48,
"category": 6,
"message": "[hevc @ 0x560891d96780] Output frame with POC 10."
},
{
"context": "hevc",
"level": 48,
"category": 6,
"message": "[hevc @ 0x560891d96780] Decoded frame with POC 10."
}
]
},
{
"media_type": "audio",
"stream_index": 1,
"key_frame": 1,
"pkt_pts": 18432,
"pkt_pts_time": "0.384000",
"pkt_dts": 18432,
"pkt_dts_time": "0.384000",
"best_effort_timestamp": 18432,
"best_effort_timestamp_time": "0.384000",
"pkt_duration": 1024,
"pkt_duration_time": "0.021333",
"pkt_pos": "320158",
"pkt_size": "297",
"sample_fmt": "fltp",
"nb_samples": 1024,
"channels": 2,
"channel_layout": "stereo"
},
{
"media_type": "video",
"stream_index": 0,
"key_frame": 0,
"pkt_pts": 12001,
"pkt_pts_time": "0.400033",
"pkt_dts": 12001,
"pkt_dts_time": "0.400033",
"best_effort_timestamp": 12001,
"best_effort_timestamp_time": "0.400033",
"pkt_duration": 1001,
"pkt_duration_time": "0.033367",
"pkt_pos": "320455",
"pkt_size": "21274",
"width": 3840,
"height": 2160,
"pix_fmt": "yuv444p10le",
"sample_aspect_ratio": "1:1",
"pict_type": "P",
"coded_picture_number": 0,
"display_picture_number": 0,
"interlaced_frame": 0,
"top_field_first": 0,
"repeat_pict": 0,
"color_range": "tv",
"logs": [
{
"context": "hevc",
"level": 48,
"category": 6,
"message": "[hevc @ 0x560891d96780] nal_unit_type: 39(SEI_PREFIX), nuh_layer_id: 0, temporal_id: 0"
},
{
"context": "hevc",
"level": 48,
"category": 6,
"message": "[hevc @ 0x560891d96780] nal_unit_type: 1(TRAIL_R), nuh_layer_id: 0, temporal_id: 0"
},
{
"context": "hevc",
"level": 48,
"category": 6,
"message": "[hevc @ 0x560891d96780] Decoding SEI"
},
{
"context": "hevc",
"level": 48,
"category": 6,
"message": "[hevc @ 0x560891d96780] Output frame with POC 11."
},
{
"context": "hevc",
"level": 48,
"category": 6,
"message": "[hevc @ 0x560891d96780] Decoded frame with POC 11."
}
]
},
{
"media_type": "audio",
"stream_index": 1,
"key_frame": 1,
"pkt_pts": 19456,
"pkt_pts_time": "0.405333",
"pkt_dts": 19456,
"pkt_dts_time": "0.405333",
"best_effort_timestamp": 19456,
"best_effort_timestamp_time": "0.405333",
"pkt_duration": 1024,
"pkt_duration_time": "0.021333",
"pkt_pos": "341729",
"pkt_size": "351",
"sample_fmt": "fltp",
"nb_samples": 1024,
"channels": 2,
"channel_layout": "stereo"
},
{
"media_type": "audio",
"stream_index": 1,
"key_frame": 1,
"pkt_pts": 20480,
"pkt_pts_time": "0.426667",
"pkt_dts": 20480,
"pkt_dts_time": "0.426667",
"best_effort_timestamp": 20480,
"best_effort_timestamp_time": "0.426667",
"pkt_duration": 1024,
"pkt_duration_time": "0.021333",
"pkt_pos": "342080",
"pkt_size": "350",
"sample_fmt": "fltp",
"nb_samples": 1024,
"channels": 2,
"channel_layout": "stereo"
},
{
"media_type": "video",
"stream_index": 0,
"key_frame": 0,
"pkt_pts": 13002,
"pkt_pts_time": "0.433400",
"pkt_dts": 13002,
"pkt_dts_time": "0.433400",
"best_effort_timestamp": 13002,
"best_effort_timestamp_time": "0.433400",
"pkt_duration": 1001,
"pkt_duration_time": "0.033367",
"pkt_pos": "342430",
"pkt_size": "17833",
"width": 3840,
"height": 2160,
"pix_fmt": "yuv444p10le",
"sample_aspect_ratio": "1:1",
"pict_type": "P",
"coded_picture_number": 0,
"display_picture_number": 0,
"interlaced_frame": 0,
"top_field_first": 0,
"repeat_pict": 0,
"color_range": "tv",
"logs": [
{
"context": "hevc",
"level": 48,
"category": 6,
"message": "[hevc @ 0x560891d96780] nal_unit_type: 39(SEI_PREFIX), nuh_layer_id: 0, temporal_id: 0"
},
{
"context": "hevc",
"level": 48,
"category": 6,
"message": "[hevc @ 0x560891d96780] nal_unit_type: 1(TRAIL_R), nuh_layer_id: 0, temporal_id: 0"
},
{
"context": "hevc",
"level": 48,
"category": 6,
"message": "[hevc @ 0x560891d96780] Decoding SEI"
},
{
"context": "hevc",
"level": 48,
"category": 6,
"message": "[hevc @ 0x560891d96780] Output frame with POC 12."
},
{
"context": "hevc",
"level": 48,
"category": 6,
"message": "[hevc @ 0x560891d96780] Decoded frame with POC 12."
}
]
},
{
"media_type": "audio",
"stream_index": 1,
"key_frame": 1,
"pkt_pts": 21504,
"pkt_pts_time": "0.448000",
"pkt_dts": 21504,
"pkt_dts_time": "0.448000",
"best_effort_timestamp": 21504,
"best_effort_timestamp_time": "0.448000",
"pkt_duration": 1024,
"pkt_duration_time": "0.021333",
"pkt_pos": "360263",
"pkt_size": "344",
"sample_fmt": "fltp",
"nb_samples": 1024,
"channels": 2,
"channel_layout": "stereo"
},
{
"media_type": "video",
"stream_index": 0,
"key_frame": 0,
"pkt_pts": 14003,
"pkt_pts_time": "0.466767",
"pkt_dts": 14003,
"pkt_dts_time": "0.466767",
"best_effort_timestamp": 14003,
"best_effort_timestamp_time": "0.466767",
"pkt_duration": 1001,
"pkt_duration_time": "0.033367",
"pkt_pos": "360607",
"pkt_size": "18142",
"width": 3840,
"height": 2160,
"pix_fmt": "yuv444p10le",
"sample_aspect_ratio": "1:1",
"pict_type": "P",
"coded_picture_number": 0,
"display_picture_number": 0,
"interlaced_frame": 0,
"top_field_first": 0,
"repeat_pict": 0,
"color_range": "tv",
"logs": [
{
"context": "hevc",
"level": 48,
"category": 6,
"message": "[hevc @ 0x560891d96780] nal_unit_type: 39(SEI_PREFIX), nuh_layer_id: 0, temporal_id: 0"
},
{
"context": "hevc",
"level": 48,
"category": 6,
"message": "[hevc @ 0x560891d96780] nal_unit_type: 1(TRAIL_R), nuh_layer_id: 0, temporal_id: 0"
},
{
"context": "hevc",
"level": 48,
"category": 6,
"message": "[hevc @ 0x560891d96780] Decoding SEI"
},
{
"context": "hevc",
"level": 48,
"category": 6,
"message": "[hevc @ 0x560891d96780] Output frame with POC 13."
},
{
"context": "hevc",
"level": 48,
"category": 6,
"message": "[hevc @ 0x560891d96780] Decoded frame with POC 13."
}
]
},
{
"media_type": "audio",
"stream_index": 1,
"key_frame": 1,
"pkt_pts": 22528,
"pkt_pts_time": "0.469333",
"pkt_dts": 22528,
"pkt_dts_time": "0.469333",
"best_effort_timestamp": 22528,
"best_effort_timestamp_time": "0.469333",
"pkt_duration": 1024,
"pkt_duration_time": "0.021333",
"pkt_pos": "378749",
"pkt_size": "342",
"sample_fmt": "fltp",
"nb_samples": 1024,
"channels": 2,
"channel_layout": "stereo"
},
{
"media_type": "audio",
"stream_index": 1,
"key_frame": 1,
"pkt_pts": 23552,
"pkt_pts_time": "0.490667",
"pkt_dts": 23552,
"pkt_dts_time": "0.490667",
"best_effort_timestamp": 23552,
"best_effort_timestamp_time": "0.490667",
"pkt_duration": 1024,
"pkt_duration_time": "0.021333",
"pkt_pos": "379091",
"pkt_size": "369",
"sample_fmt": "fltp",
"nb_samples": 1024,
"channels": 2,
"channel_layout": "stereo"
},
{
"media_type": "video",
"stream_index": 0,
"key_frame": 0,
"pkt_pts": 15004,
"pkt_pts_time": "0.500133",
"pkt_dts": 15004,
"pkt_dts_time": "0.500133",
"best_effort_timestamp": 15004,
"best_effort_timestamp_time": "0.500133",
"pkt_duration": 1001,
"pkt_duration_time": "0.033367",
"pkt_pos": "379460",
"pkt_size": "18633",
"width": 3840,
"height": 2160,
"pix_fmt": "yuv444p10le",
"sample_aspect_ratio": "1:1",
"pict_type": "P",
"coded_picture_number": 0,
"display_picture_number": 0,
"interlaced_frame": 0,
"top_field_first": 0,
"repeat_pict": 0,
"color_range": "tv",
"logs": [
{
"context": "hevc",
"level": 48,
"category": 6,
"message": "[hevc @ 0x560891d96780] nal_unit_type: 39(SEI_PREFIX), nuh_layer_id: 0, temporal_id: 0"
},
{
"context": "hevc",
"level": 48,
"category": 6,
"message": "[hevc @ 0x560891d96780] nal_unit_type: 1(TRAIL_R), nuh_layer_id: 0, temporal_id: 0"
},
{
"context": "hevc",
"level": 48,
"category": 6,
"message": "[hevc @ 0x560891d96780] Decoding SEI"
},
{
"context": "hevc",
"level": 48,
"category": 6,
"message": "[hevc @ 0x560891d96780] Output frame with POC 14."
},
{
"context": "hevc",
"level": 48,
"category": 6,
"message": "[hevc @ 0x560891d96780] Decoded frame with POC 14."
}
]
},
{
"media_type": "audio",
"stream_index": 1,
"key_frame": 1,
"pkt_pts": 24576,
"pkt_pts_time": "0.512000",
"pkt_dts": 24576,
"pkt_dts_time": "0.512000",
"best_effort_timestamp": 24576,
"best_effort_timestamp_time": "0.512000",
"pkt_duration": 1024,
"pkt_duration_time": "0.021333",
"pkt_pos": "398093",
"pkt_size": "335",
"sample_fmt": "fltp",
"nb_samples": 1024,
"channels": 2,
"channel_layout": "stereo"
},
{
"media_type": "audio",
"stream_index": 1,
"key_frame": 1,
"pkt_pts": 25600,
"pkt_pts_time": "0.533333",
"pkt_dts": 25600,
"pkt_dts_time": "0.533333",
"best_effort_timestamp": 25600,
"best_effort_timestamp_time": "0.533333",
"pkt_duration": 1024,
"pkt_duration_time": "0.021333",
"pkt_pos": "398428",
"pkt_size": "327",
"sample_fmt": "fltp",
"nb_samples": 1024,
"channels": 2,
"channel_layout": "stereo"
},
{
"media_type": "video",
"stream_index": 0,
"key_frame": 0,
"pkt_pts": 16005,
"pkt_pts_time": "0.533500",
"pkt_dts": 16005,
"pkt_dts_time": "0.533500",
"best_effort_timestamp": 16005,
"best_effort_timestamp_time": "0.533500",
"pkt_duration": 1001,
"pkt_duration_time": "0.033367",
"pkt_pos": "398755",
"pkt_size": "18658",
"width": 3840,
"height": 2160,
"pix_fmt": "yuv444p10le",
"sample_aspect_ratio": "1:1",
"pict_type": "P",
"coded_picture_number": 0,
"display_picture_number": 0,
"interlaced_frame": 0,
"top_field_first": 0,
"repeat_pict": 0,
"color_range": "tv",
"logs": [
{
"context": "hevc",
"level": 48,
"category": 6,
"message": "[hevc @ 0x560891d96780] nal_unit_type: 39(SEI_PREFIX), nuh_layer_id: 0, temporal_id: 0"
},
{
"context": "hevc",
"level": 48,
"category": 6,
"message": "[hevc @ 0x560891d96780] nal_unit_type: 1(TRAIL_R), nuh_layer_id: 0, temporal_id: 0"
},
{
"context": "hevc",
"level": 48,
"category": 6,
"message": "[hevc @ 0x560891d96780] Decoding SEI"
},
{
"context": "hevc",
"level": 48,
"category": 6,
"message": "[hevc @ 0x560891d96780] Output frame with POC 15."
},
{
"context": "hevc",
"level": 48,
"category": 6,
"message": "[hevc @ 0x560891d96780] Decoded frame with POC 15."
}
]
},
{
"media_type": "audio",
"stream_index": 1,
"key_frame": 1,
"pkt_pts": 26624,
"pkt_pts_time": "0.554667",
"pkt_dts": 26624,
"pkt_dts_time": "0.554667",
"best_effort_timestamp": 26624,
"best_effort_timestamp_time": "0.554667",
"pkt_duration": 1024,
"pkt_duration_time": "0.021333",
"pkt_pos": "417413",
"pkt_size": "355",
"sample_fmt": "fltp",
"nb_samples": 1024,
"channels": 2,
"channel_layout": "stereo"
},
{
"media_type": "video",
"stream_index": 0,
"key_frame": 0,
"pkt_pts": 17006,
"pkt_pts_time": "0.566867",
"pkt_dts": 17006,
"pkt_dts_time": "0.566867",
"best_effort_timestamp": 17006,
"best_effort_timestamp_time": "0.566867",
"pkt_duration": 1001,
"pkt_duration_time": "0.033367",
"pkt_pos": "417768",
"pkt_size": "18446",
"width": 3840,
"height": 2160,
"pix_fmt": "yuv444p10le",
"sample_aspect_ratio": "1:1",
"pict_type": "P",
"coded_picture_number": 0,
"display_picture_number": 0,
"interlaced_frame": 0,
"top_field_first": 0,
"repeat_pict": 0,
"color_range": "tv",
"logs": [
{
"context": "hevc",
"level": 48,
"category": 6,
"message": "[hevc @ 0x560891d96780] nal_unit_type: 39(SEI_PREFIX), nuh_layer_id: 0, temporal_id: 0"
},
{
"context": "hevc",
"level": 48,
"category": 6,
"message": "[hevc @ 0x560891d96780] nal_unit_type: 1(TRAIL_R), nuh_layer_id: 0, temporal_id: 0"
},
{
"context": "hevc",
"level": 48,
"category": 6,
"message": "[hevc @ 0x560891d96780] Decoding SEI"
},
{
"context": "hevc",
"level": 48,
"category": 6,
"message": "[hevc @ 0x560891d96780] Output frame with POC 16."
},
{
"context": "hevc",
"level": 48,
"category": 6,
"message": "[hevc @ 0x560891d96780] Decoded frame with POC 16."
}
]
},
{
"media_type": "audio",
"stream_index": 1,
"key_frame": 1,
"pkt_pts": 27648,
"pkt_pts_time": "0.576000",
"pkt_dts": 27648,
"pkt_dts_time": "0.576000",
"best_effort_timestamp": 27648,
"best_effort_timestamp_time": "0.576000",
"pkt_duration": 1024,
"pkt_duration_time": "0.021333",
"pkt_pos": "436214",
"pkt_size": "336",
"sample_fmt": "fltp",
"nb_samples": 1024,
"channels": 2,
"channel_layout": "stereo"
},
{
"media_type": "audio",
"stream_index": 1,
"key_frame": 1,
"pkt_pts": 28672,
"pkt_pts_time": "0.597333",
"pkt_dts": 28672,
"pkt_dts_time": "0.597333",
"best_effort_timestamp": 28672,
"best_effort_timestamp_time": "0.597333",
"pkt_duration": 1024,
"pkt_duration_time": "0.021333",
"pkt_pos": "436550",
"pkt_size": "341",
"sample_fmt": "fltp",
"nb_samples": 1024,
"channels": 2,
"channel_layout": "stereo"
},
{
"media_type": "video",
"stream_index": 0,
"key_frame": 0,
"pkt_pts": 18007,
"pkt_pts_time": "0.600233",
"pkt_dts": 18007,
"pkt_dts_time": "0.600233",
"best_effort_timestamp": 18007,
"best_effort_timestamp_time": "0.600233",
"pkt_duration": 1001,
"pkt_duration_time": "0.033367",
"pkt_pos": "436891",
"pkt_size": "19966",
"width": 3840,
"height": 2160,
"pix_fmt": "yuv444p10le",
"sample_aspect_ratio": "1:1",
"pict_type": "P",
"coded_picture_number": 0,
"display_picture_number": 0,
"interlaced_frame": 0,
"top_field_first": 0,
"repeat_pict": 0,
"color_range": "tv",
"logs": [
{
"context": "hevc",
"level": 48,
"category": 6,
"message": "[hevc @ 0x560891d96780] nal_unit_type: 39(SEI_PREFIX), nuh_layer_id: 0, temporal_id: 0"
},
{
"context": "hevc",
"level": 48,
"category": 6,
"message": "[hevc @ 0x560891d96780] nal_unit_type: 1(TRAIL_R), nuh_layer_id: 0, temporal_id: 0"
},
{
"context": "hevc",
"level": 48,
"category": 6,
"message": "[hevc @ 0x560891d96780] Decoding SEI"
},
{
"context": "hevc",
"level": 48,
"category": 6,
"message": "[hevc @ 0x560891d96780] Output frame with POC 17."
},
{
"context": "hevc",
"level": 48,
"category": 6,
"message": "[hevc @ 0x560891d96780] Decoded frame with POC 17."
}
]
},
{
"media_type": "audio",
"stream_index": 1,
"key_frame": 1,
"pkt_pts": 29696,
"pkt_pts_time": "0.618667",
"pkt_dts": 29696,
"pkt_dts_time": "0.618667",
"best_effort_timestamp": 29696,
"best_effort_timestamp_time": "0.618667",
"pkt_duration": 1024,
"pkt_duration_time": "0.021333",
"pkt_pos": "456857",
"pkt_size": "350",
"sample_fmt": "fltp",
"nb_samples": 1024,
"channels": 2,
"channel_layout": "stereo"
},
{
"media_type": "video",
"stream_index": 0,
"key_frame": 0,
"pkt_pts": 19008,
"pkt_pts_time": "0.633600",
"pkt_dts": 19008,
"pkt_dts_time": "0.633600",
"best_effort_timestamp": 19008,
"best_effort_timestamp_time": "0.633600",
"pkt_duration": 1001,
"pkt_duration_time": "0.033367",
"pkt_pos": "457207",
"pkt_size": "19026",
"width": 3840,
"height": 2160,
"pix_fmt": "yuv444p10le",
"sample_aspect_ratio": "1:1",
"pict_type": "P",
"coded_picture_number": 0,
"display_picture_number": 0,
"interlaced_frame": 0,
"top_field_first": 0,
"repeat_pict": 0,
"color_range": "tv",
"logs": [
{
"context": "hevc",
"level": 48,
"category": 6,
"message": "[hevc @ 0x560891d96780] nal_unit_type: 39(SEI_PREFIX), nuh_layer_id: 0, temporal_id: 0"
},
{
"context": "hevc",
"level": 48,
"category": 6,
"message": "[hevc @ 0x560891d96780] nal_unit_type: 1(TRAIL_R), nuh_layer_id: 0, temporal_id: 0"
},
{
"context": "hevc",
"level": 48,
"category": 6,
"message": "[hevc @ 0x560891d96780] Decoding SEI"
},
{
"context": "hevc",
"level": 48,
"category": 6,
"message": "[hevc @ 0x560891d96780] Output frame with POC 18."
},
{
"context": "hevc",
"level": 48,
"category": 6,
"message": "[hevc @ 0x560891d96780] Decoded frame with POC 18."
}
]
},
{
"media_type": "audio",
"stream_index": 1,
"key_frame": 1,
"pkt_pts": 30720,
"pkt_pts_time": "0.640000",
"pkt_dts": 30720,
"pkt_dts_time": "0.640000",
"best_effort_timestamp": 30720,
"best_effort_timestamp_time": "0.640000",
"pkt_duration": 1024,
"pkt_duration_time": "0.021333",
"pkt_pos": "476233",
"pkt_size": "349",
"sample_fmt": "fltp",
"nb_samples": 1024,
"channels": 2,
"channel_layout": "stereo"
},
{
"media_type": "audio",
"stream_index": 1,
"key_frame": 1,
"pkt_pts": 31744,
"pkt_pts_time": "0.661333",
"pkt_dts": 31744,
"pkt_dts_time": "0.661333",
"best_effort_timestamp": 31744,
"best_effort_timestamp_time": "0.661333",
"pkt_duration": 1024,
"pkt_duration_time": "0.021333",
"pkt_pos": "476582",
"pkt_size": "332",
"sample_fmt": "fltp",
"nb_samples": 1024,
"channels": 2,
"channel_layout": "stereo"
},
{
"media_type": "video",
"stream_index": 0,
"key_frame": 0,
"pkt_pts": 20009,
"pkt_pts_time": "0.666967",
"pkt_dts": 20009,
"pkt_dts_time": "0.666967",
"best_effort_timestamp": 20009,
"best_effort_timestamp_time": "0.666967",
"pkt_duration": 1001,
"pkt_duration_time": "0.033367",
"pkt_pos": "476914",
"pkt_size": "19533",
"width": 3840,
"height": 2160,
"pix_fmt": "yuv444p10le",
"sample_aspect_ratio": "1:1",
"pict_type": "P",
"coded_picture_number": 0,
"display_picture_number": 0,
"interlaced_frame": 0,
"top_field_first": 0,
"repeat_pict": 0,
"color_range": "tv",
"logs": [
{
"context": "hevc",
"level": 48,
"category": 6,
"message": "[hevc @ 0x560891d96780] nal_unit_type: 39(SEI_PREFIX), nuh_layer_id: 0, temporal_id: 0"
},
{
"context": "hevc",
"level": 48,
"category": 6,
"message": "[hevc @ 0x560891d96780] nal_unit_type: 1(TRAIL_R), nuh_layer_id: 0, temporal_id: 0"
},
{
"context": "hevc",
"level": 48,
"category": 6,
"message": "[hevc @ 0x560891d96780] Decoding SEI"
},
{
"context": "hevc",
"level": 48,
"category": 6,
"message": "[hevc @ 0x560891d96780] Output frame with POC 19."
},
{
"context": "hevc",
"level": 48,
"category": 6,
"message": "[hevc @ 0x560891d96780] Decoded frame with POC 19."
}
]
},
{
"media_type": "audio",
"stream_index": 1,
"key_frame": 1,
"pkt_pts": 32768,
"pkt_pts_time": "0.682667",
"pkt_dts": 32768,
"pkt_dts_time": "0.682667",
"best_effort_timestamp": 32768,
"best_effort_timestamp_time": "0.682667",
"pkt_duration": 1024,
"pkt_duration_time": "0.021333",
"pkt_pos": "496447",
"pkt_size": "335",
"sample_fmt": "fltp",
"nb_samples": 1024,
"channels": 2,
"channel_layout": "stereo"
},
{
"media_type": "video",
"stream_index": 0,
"key_frame": 0,
"pkt_pts": 21010,
"pkt_pts_time": "0.700333",
"pkt_dts": 21010,
"pkt_dts_time": "0.700333",
"best_effort_timestamp": 21010,
"best_effort_timestamp_time": "0.700333",
"pkt_duration": 1001,
"pkt_duration_time": "0.033367",
"pkt_pos": "496782",
"pkt_size": "19888",
"width": 3840,
"height": 2160,
"pix_fmt": "yuv444p10le",
"sample_aspect_ratio": "1:1",
"pict_type": "P",
"coded_picture_number": 0,
"display_picture_number": 0,
"interlaced_frame": 0,
"top_field_first": 0,
"repeat_pict": 0,
"color_range": "tv",
"logs": [
{
"context": "hevc",
"level": 48,
"category": 6,
"message": "[hevc @ 0x560891d96780] nal_unit_type: 39(SEI_PREFIX), nuh_layer_id: 0, temporal_id: 0"
},
{
"context": "hevc",
"level": 48,
"category": 6,
"message": "[hevc @ 0x560891d96780] nal_unit_type: 1(TRAIL_R), nuh_layer_id: 0, temporal_id: 0"
},
{
"context": "hevc",
"level": 48,
"category": 6,
"message": "[hevc @ 0x560891d96780] Decoding SEI"
},
{
"context": "hevc",
"level": 48,
"category": 6,
"message": "[hevc @ 0x560891d96780] Output frame with POC 20."
},
{
"context": "hevc",
"level": 48,
"category": 6,
"message": "[hevc @ 0x560891d96780] Decoded frame with POC 20."
}
]
},
{
"media_type": "audio",
"stream_index": 1,
"key_frame": 1,
"pkt_pts": 33792,
"pkt_pts_time": "0.704000",
"pkt_dts": 33792,
"pkt_dts_time": "0.704000",
"best_effort_timestamp": 33792,
"best_effort_timestamp_time": "0.704000",
"pkt_duration": 1024,
"pkt_duration_time": "0.021333",
"pkt_pos": "516670",
"pkt_size": "318",
"sample_fmt": "fltp",
"nb_samples": 1024,
"channels": 2,
"channel_layout": "stereo"
},
{
"media_type": "audio",
"stream_index": 1,
"key_frame": 1,
"pkt_pts": 34816,
"pkt_pts_time": "0.725333",
"pkt_dts": 34816,
"pkt_dts_time": "0.725333",
"best_effort_timestamp": 34816,
"best_effort_timestamp_time": "0.725333",
"pkt_duration": 1024,
"pkt_duration_time": "0.021333",
"pkt_pos": "516988",
"pkt_size": "336",
"sample_fmt": "fltp",
"nb_samples": 1024,
"channels": 2,
"channel_layout": "stereo"
},
{
"media_type": "video",
"stream_index": 0,
"key_frame": 0,
"pkt_pts": 22011,
"pkt_pts_time": "0.733700",
"pkt_dts": 22011,
"pkt_dts_time": "0.733700",
"best_effort_timestamp": 22011,
"best_effort_timestamp_time": "0.733700",
"pkt_duration": 1001,
"pkt_duration_time": "0.033367",
"pkt_pos": "517324",
"pkt_size": "20248",
"width": 3840,
"height": 2160,
"pix_fmt": "yuv444p10le",
"sample_aspect_ratio": "1:1",
"pict_type": "P",
"coded_picture_number": 0,
"display_picture_number": 0,
"interlaced_frame": 0,
"top_field_first": 0,
"repeat_pict": 0,
"color_range": "tv",
"logs": [
{
"context": "hevc",
"level": 48,
"category": 6,
"message": "[hevc @ 0x560891d96780] nal_unit_type: 39(SEI_PREFIX), nuh_layer_id: 0, temporal_id: 0"
},
{
"context": "hevc",
"level": 48,
"category": 6,
"message": "[hevc @ 0x560891d96780] nal_unit_type: 1(TRAIL_R), nuh_layer_id: 0, temporal_id: 0"
},
{
"context": "hevc",
"level": 48,
"category": 6,
"message": "[hevc @ 0x560891d96780] Decoding SEI"
},
{
"context": "hevc",
"level": 48,
"category": 6,
"message": "[hevc @ 0x560891d96780] Output frame with POC 21."
},
{
"context": "hevc",
"level": 48,
"category": 6,
"message": "[hevc @ 0x560891d96780] Decoded frame with POC 21."
}
]
},
{
"media_type": "audio",
"stream_index": 1,
"key_frame": 1,
"pkt_pts": 35840,
"pkt_pts_time": "0.746667",
"pkt_dts": 35840,
"pkt_dts_time": "0.746667",
"best_effort_timestamp": 35840,
"best_effort_timestamp_time": "0.746667",
"pkt_duration": 1024,
"pkt_duration_time": "0.021333",
"pkt_pos": "537572",
"pkt_size": "385",
"sample_fmt": "fltp",
"nb_samples": 1024,
"channels": 2,
"channel_layout": "stereo"
},
{
"media_type": "video",
"stream_index": 0,
"key_frame": 0,
"pkt_pts": 23012,
"pkt_pts_time": "0.767067",
"pkt_dts": 23012,
"pkt_dts_time": "0.767067",
"best_effort_timestamp": 23012,
"best_effort_timestamp_time": "0.767067",
"pkt_duration": 1001,
"pkt_duration_time": "0.033367",
"pkt_pos": "537957",
"pkt_size": "14071",
"width": 3840,
"height": 2160,
"pix_fmt": "yuv444p10le",
"sample_aspect_ratio": "1:1",
"pict_type": "P",
"coded_picture_number": 0,
"display_picture_number": 0,
"interlaced_frame": 0,
"top_field_first": 0,
"repeat_pict": 0,
"color_range": "tv",
"logs": [
{
"context": "hevc",
"level": 48,
"category": 6,
"message": "[hevc @ 0x560891d96780] nal_unit_type: 39(SEI_PREFIX), nuh_layer_id: 0, temporal_id: 0"
},
{
"context": "hevc",
"level": 48,
"category": 6,
"message": "[hevc @ 0x560891d96780] nal_unit_type: 1(TRAIL_R), nuh_layer_id: 0, temporal_id: 0"
},
{
"context": "hevc",
"level": 48,
"category": 6,
"message": "[hevc @ 0x560891d96780] Decoding SEI"
},
{
"context": "hevc",
"level": 48,
"category": 6,
"message": "[hevc @ 0x560891d96780] Output frame with POC 22."
},
{
"context": "hevc",
"level": 48,
"category": 6,
"message": "[hevc @ 0x560891d96780] Decoded frame with POC 22."
}
]
},
{
"media_type": "audio",
"stream_index": 1,
"key_frame": 1,
"pkt_pts": 36864,
"pkt_pts_time": "0.768000",
"pkt_dts": 36864,
"pkt_dts_time": "0.768000",
"best_effort_timestamp": 36864,
"best_effort_timestamp_time": "0.768000",
"pkt_duration": 1024,
"pkt_duration_time": "0.021333",
"pkt_pos": "552028",
"pkt_size": "300",
"sample_fmt": "fltp",
"nb_samples": 1024,
"channels": 2,
"channel_layout": "stereo"
},
{
"media_type": "audio",
"stream_index": 1,
"key_frame": 1,
"pkt_pts": 37888,
"pkt_pts_time": "0.789333",
"pkt_dts": 37888,
"pkt_dts_time": "0.789333",
"best_effort_timestamp": 37888,
"best_effort_timestamp_time": "0.789333",
"pkt_duration": 1024,
"pkt_duration_time": "0.021333",
"pkt_pos": "552328",
"pkt_size": "345",
"sample_fmt": "fltp",
"nb_samples": 1024,
"channels": 2,
"channel_layout": "stereo"
},
{
"media_type": "video",
"stream_index": 0,
"key_frame": 0,
"pkt_pts": 24013,
"pkt_pts_time": "0.800433",
"pkt_dts": 24013,
"pkt_dts_time": "0.800433",
"best_effort_timestamp": 24013,
"best_effort_timestamp_time": "0.800433",
"pkt_duration": 1001,
"pkt_duration_time": "0.033367",
"pkt_pos": "552673",
"pkt_size": "19810",
"width": 3840,
"height": 2160,
"pix_fmt": "yuv444p10le",
"sample_aspect_ratio": "1:1",
"pict_type": "P",
"coded_picture_number": 0,
"display_picture_number": 0,
"interlaced_frame": 0,
"top_field_first": 0,
"repeat_pict": 0,
"color_range": "tv",
"logs": [
{
"context": "hevc",
"level": 48,
"category": 6,
"message": "[hevc @ 0x560891d96780] nal_unit_type: 39(SEI_PREFIX), nuh_layer_id: 0, temporal_id: 0"
},
{
"context": "hevc",
"level": 48,
"category": 6,
"message": "[hevc @ 0x560891d96780] nal_unit_type: 1(TRAIL_R), nuh_layer_id: 0, temporal_id: 0"
},
{
"context": "hevc",
"level": 48,
"category": 6,
"message": "[hevc @ 0x560891d96780] Decoding SEI"
},
{
"context": "hevc",
"level": 48,
"category": 6,
"message": "[hevc @ 0x560891d96780] Output frame with POC 23."
},
{
"context": "hevc",
"level": 48,
"category": 6,
"message": "[hevc @ 0x560891d96780] Decoded frame with POC 23."
}
]
},
{
"media_type": "audio",
"stream_index": 1,
"key_frame": 1,
"pkt_pts": 38912,
"pkt_pts_time": "0.810667",
"pkt_dts": 38912,
"pkt_dts_time": "0.810667",
"best_effort_timestamp": 38912,
"best_effort_timestamp_time": "0.810667",
"pkt_duration": 1024,
"pkt_duration_time": "0.021333",
"pkt_pos": "572483",
"pkt_size": "343",
"sample_fmt": "fltp",
"nb_samples": 1024,
"channels": 2,
"channel_layout": "stereo"
},
{
"media_type": "audio",
"stream_index": 1,
"key_frame": 1,
"pkt_pts": 39936,
"pkt_pts_time": "0.832000",
"pkt_dts": 39936,
"pkt_dts_time": "0.832000",
"best_effort_timestamp": 39936,
"best_effort_timestamp_time": "0.832000",
"pkt_duration": 1024,
"pkt_duration_time": "0.021333",
"pkt_pos": "572826",
"pkt_size": "336",
"sample_fmt": "fltp",
"nb_samples": 1024,
"channels": 2,
"channel_layout": "stereo"
},
{
"media_type": "video",
"stream_index": 0,
"key_frame": 0,
"pkt_pts": 25014,
"pkt_pts_time": "0.833800",
"pkt_dts": 25014,
"pkt_dts_time": "0.833800",
"best_effort_timestamp": 25014,
"best_effort_timestamp_time": "0.833800",
"pkt_duration": 1001,
"pkt_duration_time": "0.033367",
"pkt_pos": "573162",
"pkt_size": "20812",
"width": 3840,
"height": 2160,
"pix_fmt": "yuv444p10le",
"sample_aspect_ratio": "1:1",
"pict_type": "P",
"coded_picture_number": 0,
"display_picture_number": 0,
"interlaced_frame": 0,
"top_field_first": 0,
"repeat_pict": 0,
"color_range": "tv",
"logs": [
{
"context": "hevc",
"level": 48,
"category": 6,
"message": "[hevc @ 0x560891d96780] nal_unit_type: 39(SEI_PREFIX), nuh_layer_id: 0, temporal_id: 0"
},
{
"context": "hevc",
"level": 48,
"category": 6,
"message": "[hevc @ 0x560891d96780] nal_unit_type: 1(TRAIL_R), nuh_layer_id: 0, temporal_id: 0"
},
{
"context": "hevc",
"level": 48,
"category": 6,
"message": "[hevc @ 0x560891d96780] Decoding SEI"
},
{
"context": "hevc",
"level": 48,
"category": 6,
"message": "[hevc @ 0x560891d96780] Output frame with POC 24."
},
{
"context": "hevc",
"level": 48,
"category": 6,
"message": "[hevc @ 0x560891d96780] Decoded frame with POC 24."
}
]
},
{
"media_type": "audio",
"stream_index": 1,
"key_frame": 1,
"pkt_pts": 40960,
"pkt_pts_time": "0.853333",
"pkt_dts": 40960,
"pkt_dts_time": "0.853333",
"best_effort_timestamp": 40960,
"best_effort_timestamp_time": "0.853333",
"pkt_duration": 1024,
"pkt_duration_time": "0.021333",
"pkt_pos": "593974",
"pkt_size": "362",
"sample_fmt": "fltp",
"nb_samples": 1024,
"channels": 2,
"channel_layout": "stereo"
},
{
"media_type": "video",
"stream_index": 0,
"key_frame": 0,
"pkt_pts": 26015,
"pkt_pts_time": "0.867167",
"pkt_dts": 26015,
"pkt_dts_time": "0.867167",
"best_effort_timestamp": 26015,
"best_effort_timestamp_time": "0.867167",
"pkt_duration": 1001,
"pkt_duration_time": "0.033367",
"pkt_pos": "594336",
"pkt_size": "19812",
"width": 3840,
"height": 2160,
"pix_fmt": "yuv444p10le",
"sample_aspect_ratio": "1:1",
"pict_type": "P",
"coded_picture_number": 0,
"display_picture_number": 0,
"interlaced_frame": 0,
"top_field_first": 0,
"repeat_pict": 0,
"color_range": "tv",
"logs": [
{
"context": "hevc",
"level": 48,
"category": 6,
"message": "[hevc @ 0x560891d96780] nal_unit_type: 39(SEI_PREFIX), nuh_layer_id: 0, temporal_id: 0"
},
{
"context": "hevc",
"level": 48,
"category": 6,
"message": "[hevc @ 0x560891d96780] nal_unit_type: 1(TRAIL_R), nuh_layer_id: 0, temporal_id: 0"
},
{
"context": "hevc",
"level": 48,
"category": 6,
"message": "[hevc @ 0x560891d96780] Decoding SEI"
},
{
"context": "hevc",
"level": 48,
"category": 6,
"message": "[hevc @ 0x560891d96780] Output frame with POC 25."
},
{
"context": "hevc",
"level": 48,
"category": 6,
"message": "[hevc @ 0x560891d96780] Decoded frame with POC 25."
}
]
},
{
"media_type": "audio",
"stream_index": 1,
"key_frame": 1,
"pkt_pts": 41984,
"pkt_pts_time": "0.874667",
"pkt_dts": 41984,
"pkt_dts_time": "0.874667",
"best_effort_timestamp": 41984,
"best_effort_timestamp_time": "0.874667",
"pkt_duration": 1024,
"pkt_duration_time": "0.021333",
"pkt_pos": "614148",
"pkt_size": "353",
"sample_fmt": "fltp",
"nb_samples": 1024,
"channels": 2,
"channel_layout": "stereo"
},
{
"media_type": "audio",
"stream_index": 1,
"key_frame": 1,
"pkt_pts": 43008,
"pkt_pts_time": "0.896000",
"pkt_dts": 43008,
"pkt_dts_time": "0.896000",
"best_effort_timestamp": 43008,
"best_effort_timestamp_time": "0.896000",
"pkt_duration": 1024,
"pkt_duration_time": "0.021333",
"pkt_pos": "614501",
"pkt_size": "330",
"sample_fmt": "fltp",
"nb_samples": 1024,
"channels": 2,
"channel_layout": "stereo"
},
{
"media_type": "video",
"stream_index": 0,
"key_frame": 0,
"pkt_pts": 27016,
"pkt_pts_time": "0.900533",
"pkt_dts": 27016,
"pkt_dts_time": "0.900533",
"best_effort_timestamp": 27016,
"best_effort_timestamp_time": "0.900533",
"pkt_duration": 1001,
"pkt_duration_time": "0.033367",
"pkt_pos": "614831",
"pkt_size": "20037",
"width": 3840,
"height": 2160,
"pix_fmt": "yuv444p10le",
"sample_aspect_ratio": "1:1",
"pict_type": "P",
"coded_picture_number": 0,
"display_picture_number": 0,
"interlaced_frame": 0,
"top_field_first": 0,
"repeat_pict": 0,
"color_range": "tv",
"logs": [
{
"context": "hevc",
"level": 48,
"category": 6,
"message": "[hevc @ 0x560891d96780] nal_unit_type: 39(SEI_PREFIX), nuh_layer_id: 0, temporal_id: 0"
},
{
"context": "hevc",
"level": 48,
"category": 6,
"message": "[hevc @ 0x560891d96780] nal_unit_type: 1(TRAIL_R), nuh_layer_id: 0, temporal_id: 0"
},
{
"context": "hevc",
"level": 48,
"category": 6,
"message": "[hevc @ 0x560891d96780] Decoding SEI"
},
{
"context": "hevc",
"level": 48,
"category": 6,
"message": "[hevc @ 0x560891d96780] Output frame with POC 26."
},
{
"context": "hevc",
"level": 48,
"category": 6,
"message": "[hevc @ 0x560891d96780] Decoded frame with POC 26."
}
]
},
{
"media_type": "audio",
"stream_index": 1,
"key_frame": 1,
"pkt_pts": 44032,
"pkt_pts_time": "0.917333",
"pkt_dts": 44032,
"pkt_dts_time": "0.917333",
"best_effort_timestamp": 44032,
"best_effort_timestamp_time": "0.917333",
"pkt_duration": 1024,
"pkt_duration_time": "0.021333",
"pkt_pos": "634868",
"pkt_size": "317",
"sample_fmt": "fltp",
"nb_samples": 1024,
"channels": 2,
"channel_layout": "stereo"
},
{
"media_type": "video",
"stream_index": 0,
"key_frame": 0,
"pkt_pts": 28017,
"pkt_pts_time": "0.933900",
"pkt_dts": 28017,
"pkt_dts_time": "0.933900",
"best_effort_timestamp": 28017,
"best_effort_timestamp_time": "0.933900",
"pkt_duration": 1001,
"pkt_duration_time": "0.033367",
"pkt_pos": "635185",
"pkt_size": "21514",
"width": 3840,
"height": 2160,
"pix_fmt": "yuv444p10le",
"sample_aspect_ratio": "1:1",
"pict_type": "P",
"coded_picture_number": 0,
"display_picture_number": 0,
"interlaced_frame": 0,
"top_field_first": 0,
"repeat_pict": 0,
"color_range": "tv",
"logs": [
{
"context": "hevc",
"level": 48,
"category": 6,
"message": "[hevc @ 0x560891d96780] nal_unit_type: 39(SEI_PREFIX), nuh_layer_id: 0, temporal_id: 0"
},
{
"context": "hevc",
"level": 48,
"category": 6,
"message": "[hevc @ 0x560891d96780] nal_unit_type: 1(TRAIL_R), nuh_layer_id: 0, temporal_id: 0"
},
{
"context": "hevc",
"level": 48,
"category": 6,
"message": "[hevc @ 0x560891d96780] Decoding SEI"
},
{
"context": "hevc",
"level": 48,
"category": 6,
"message": "[hevc @ 0x560891d96780] Output frame with POC 27."
},
{
"context": "hevc",
"level": 48,
"category": 6,
"message": "[hevc @ 0x560891d96780] Decoded frame with POC 27."
}
]
},
{
"media_type": "audio",
"stream_index": 1,
"key_frame": 1,
"pkt_pts": 45056,
"pkt_pts_time": "0.938667",
"pkt_dts": 45056,
"pkt_dts_time": "0.938667",
"best_effort_timestamp": 45056,
"best_effort_timestamp_time": "0.938667",
"pkt_duration": 1024,
"pkt_duration_time": "0.021333",
"pkt_pos": "656699",
"pkt_size": "362",
"sample_fmt": "fltp",
"nb_samples": 1024,
"channels": 2,
"channel_layout": "stereo"
},
{
"media_type": "audio",
"stream_index": 1,
"key_frame": 1,
"pkt_pts": 46080,
"pkt_pts_time": "0.960000",
"pkt_dts": 46080,
"pkt_dts_time": "0.960000",
"best_effort_timestamp": 46080,
"best_effort_timestamp_time": "0.960000",
"pkt_duration": 1024,
"pkt_duration_time": "0.021333",
"pkt_pos": "657061",
"pkt_size": "348",
"sample_fmt": "fltp",
"nb_samples": 1024,
"channels": 2,
"channel_layout": "stereo"
},
{
"media_type": "video",
"stream_index": 0,
"key_frame": 0,
"pkt_pts": 29018,
"pkt_pts_time": "0.967267",
"pkt_dts": 29018,
"pkt_dts_time": "0.967267",
"best_effort_timestamp": 29018,
"best_effort_timestamp_time": "0.967267",
"pkt_duration": 1001,
"pkt_duration_time": "0.033367",
"pkt_pos": "657409",
"pkt_size": "21433",
"width": 3840,
"height": 2160,
"pix_fmt": "yuv444p10le",
"sample_aspect_ratio": "1:1",
"pict_type": "P",
"coded_picture_number": 0,
"display_picture_number": 0,
"interlaced_frame": 0,
"top_field_first": 0,
"repeat_pict": 0,
"color_range": "tv",
"logs": [
{
"context": "hevc",
"level": 48,
"category": 6,
"message": "[hevc @ 0x560891d96780] nal_unit_type: 39(SEI_PREFIX), nuh_layer_id: 0, temporal_id: 0"
},
{
"context": "hevc",
"level": 48,
"category": 6,
"message": "[hevc @ 0x560891d96780] nal_unit_type: 1(TRAIL_R), nuh_layer_id: 0, temporal_id: 0"
},
{
"context": "hevc",
"level": 48,
"category": 6,
"message": "[hevc @ 0x560891d96780] Decoding SEI"
},
{
"context": "hevc",
"level": 48,
"category": 6,
"message": "[hevc @ 0x560891d96780] Output frame with POC 28."
},
{
"context": "hevc",
"level": 48,
"category": 6,
"message": "[hevc @ 0x560891d96780] Decoded frame with POC 28."
}
]
},
{
"media_type": "audio",
"stream_index": 1,
"key_frame": 1,
"pkt_pts": 47104,
"pkt_pts_time": "0.981333",
"pkt_dts": 47104,
"pkt_dts_time": "0.981333",
"best_effort_timestamp": 47104,
"best_effort_timestamp_time": "0.981333",
"pkt_duration": 1024,
"pkt_duration_time": "0.021333",
"pkt_pos": "678842",
"pkt_size": "326",
"sample_fmt": "fltp",
"nb_samples": 1024,
"channels": 2,
"channel_layout": "stereo"
},
{
"media_type": "video",
"stream_index": 0,
"key_frame": 0,
"pkt_pts": 30019,
"pkt_pts_time": "1.000633",
"pkt_dts": 30019,
"pkt_dts_time": "1.000633",
"best_effort_timestamp": 30019,
"best_effort_timestamp_time": "1.000633",
"pkt_duration": 1001,
"pkt_duration_time": "0.033367",
"pkt_pos": "679168",
"pkt_size": "24562",
"width": 3840,
"height": 2160,
"pix_fmt": "yuv444p10le",
"sample_aspect_ratio": "1:1",
"pict_type": "P",
"coded_picture_number": 0,
"display_picture_number": 0,
"interlaced_frame": 0,
"top_field_first": 0,
"repeat_pict": 0,
"color_range": "tv",
"logs": [
{
"context": "hevc",
"level": 48,
"category": 6,
"message": "[hevc @ 0x560891d96780] nal_unit_type: 39(SEI_PREFIX), nuh_layer_id: 0, temporal_id: 0"
},
{
"context": "hevc",
"level": 48,
"category": 6,
"message": "[hevc @ 0x560891d96780] nal_unit_type: 1(TRAIL_R), nuh_layer_id: 0, temporal_id: 0"
},
{
"context": "hevc",
"level": 48,
"category": 6,
"message": "[hevc @ 0x560891d96780] Decoding SEI"
},
{
"context": "hevc",
"level": 48,
"category": 6,
"message": "[hevc @ 0x560891d96780] Output frame with POC 29."
},
{
"context": "hevc",
"level": 48,
"category": 6,
"message": "[hevc @ 0x560891d96780] Decoded frame with POC 29."
}
]
},
{
"media_type": "audio",
"stream_index": 1,
"key_frame": 1,
"pkt_pts": 48128,
"pkt_pts_time": "1.002667",
"pkt_dts": 48128,
"pkt_dts_time": "1.002667",
"best_effort_timestamp": 48128,
"best_effort_timestamp_time": "1.002667",
"pkt_duration": 1024,
"pkt_duration_time": "0.021333",
"pkt_pos": "703730",
"pkt_size": "374",
"sample_fmt": "fltp",
"nb_samples": 1024,
"channels": 2,
"channel_layout": "stereo"
},
{
"media_type": "audio",
"stream_index": 1,
"key_frame": 1,
"pkt_pts": 49152,
"pkt_pts_time": "1.024000",
"pkt_dts": 49152,
"pkt_dts_time": "1.024000",
"best_effort_timestamp": 49152,
"best_effort_timestamp_time": "1.024000",
"pkt_duration": 1024,
"pkt_duration_time": "0.021333",
"pkt_pos": "704104",
"pkt_size": "315",
"sample_fmt": "fltp",
"nb_samples": 1024,
"channels": 2,
"channel_layout": "stereo"
},
{
"media_type": "video",
"stream_index": 0,
"key_frame": 0,
"pkt_pts": 31020,
"pkt_pts_time": "1.034000",
"pkt_dts": 31020,
"pkt_dts_time": "1.034000",
"best_effort_timestamp": 31020,
"best_effort_timestamp_time": "1.034000",
"pkt_duration": 1001,
"pkt_duration_time": "0.033367",
"pkt_pos": "704419",
"pkt_size": "17150",
"width": 3840,
"height": 2160,
"pix_fmt": "yuv444p10le",
"sample_aspect_ratio": "1:1",
"pict_type": "P",
"coded_picture_number": 0,
"display_picture_number": 0,
"interlaced_frame": 0,
"top_field_first": 0,
"repeat_pict": 0,
"color_range": "tv",
"logs": [
{
"context": "hevc",
"level": 48,
"category": 6,
"message": "[hevc @ 0x560891d96780] nal_unit_type: 39(SEI_PREFIX), nuh_layer_id: 0, temporal_id: 0"
},
{
"context": "hevc",
"level": 48,
"category": 6,
"message": "[hevc @ 0x560891d96780] nal_unit_type: 1(TRAIL_R), nuh_layer_id: 0, temporal_id: 0"
},
{
"context": "hevc",
"level": 48,
"category": 6,
"message": "[hevc @ 0x560891d96780] Decoding SEI"
},
{
"context": "hevc",
"level": 48,
"category": 6,
"message": "[hevc @ 0x560891d96780] Output frame with POC 30."
},
{
"context": "hevc",
"level": 48,
"category": 6,
"message": "[hevc @ 0x560891d96780] Decoded frame with POC 30."
}
]
},
{
"media_type": "audio",
"stream_index": 1,
"key_frame": 1,
"pkt_pts": 50176,
"pkt_pts_time": "1.045333",
"pkt_dts": 50176,
"pkt_dts_time": "1.045333",
"best_effort_timestamp": 50176,
"best_effort_timestamp_time": "1.045333",
"pkt_duration": 1024,
"pkt_duration_time": "0.021333",
"pkt_pos": "721569",
"pkt_size": "351",
"sample_fmt": "fltp",
"nb_samples": 1024,
"channels": 2,
"channel_layout": "stereo"
},
{
"media_type": "audio",
"stream_index": 1,
"key_frame": 1,
"pkt_pts": 51200,
"pkt_pts_time": "1.066667",
"pkt_dts": 51200,
"pkt_dts_time": "1.066667",
"best_effort_timestamp": 51200,
"best_effort_timestamp_time": "1.066667",
"pkt_duration": 1024,
"pkt_duration_time": "0.021333",
"pkt_pos": "721920",
"pkt_size": "355",
"sample_fmt": "fltp",
"nb_samples": 1024,
"channels": 2,
"channel_layout": "stereo"
},
{
"media_type": "video",
"stream_index": 0,
"key_frame": 0,
"pkt_pts": 32021,
"pkt_pts_time": "1.067367",
"pkt_dts": 32021,
"pkt_dts_time": "1.067367",
"best_effort_timestamp": 32021,
"best_effort_timestamp_time": "1.067367",
"pkt_duration": 1001,
"pkt_duration_time": "0.033367",
"pkt_pos": "722275",
"pkt_size": "19458",
"width": 3840,
"height": 2160,
"pix_fmt": "yuv444p10le",
"sample_aspect_ratio": "1:1",
"pict_type": "P",
"coded_picture_number": 0,
"display_picture_number": 0,
"interlaced_frame": 0,
"top_field_first": 0,
"repeat_pict": 0,
"color_range": "tv",
"logs": [
{
"context": "hevc",
"level": 48,
"category": 6,
"message": "[hevc @ 0x560891d96780] nal_unit_type: 39(SEI_PREFIX), nuh_layer_id: 0, temporal_id: 0"
},
{
"context": "hevc",
"level": 48,
"category": 6,
"message": "[hevc @ 0x560891d96780] nal_unit_type: 1(TRAIL_R), nuh_layer_id: 0, temporal_id: 0"
},
{
"context": "hevc",
"level": 48,
"category": 6,
"message": "[hevc @ 0x560891d96780] Decoding SEI"
},
{
"context": "hevc",
"level": 48,
"category": 6,
"message": "[hevc @ 0x560891d96780] Output frame with POC 31."
},
{
"context": "hevc",
"level": 48,
"category": 6,
"message": "[hevc @ 0x560891d96780] Decoded frame with POC 31."
}
]
},
{
"media_type": "audio",
"stream_index": 1,
"key_frame": 1,
"pkt_pts": 52224,
"pkt_pts_time": "1.088000",
"pkt_dts": 52224,
"pkt_dts_time": "1.088000",
"best_effort_timestamp": 52224,
"best_effort_timestamp_time": "1.088000",
"pkt_duration": 1024,
"pkt_duration_time": "0.021333",
"pkt_pos": "741733",
"pkt_size": "347",
"sample_fmt": "fltp",
"nb_samples": 1024,
"channels": 2,
"channel_layout": "stereo"
},
{
"media_type": "video",
"stream_index": 0,
"key_frame": 0,
"pkt_pts": 33022,
"pkt_pts_time": "1.100733",
"pkt_dts": 33022,
"pkt_dts_time": "1.100733",
"best_effort_timestamp": 33022,
"best_effort_timestamp_time": "1.100733",
"pkt_duration": 1001,
"pkt_duration_time": "0.033367",
"pkt_pos": "742080",
"pkt_size": "18556",
"width": 3840,
"height": 2160,
"pix_fmt": "yuv444p10le",
"sample_aspect_ratio": "1:1",
"pict_type": "P",
"coded_picture_number": 0,
"display_picture_number": 0,
"interlaced_frame": 0,
"top_field_first": 0,
"repeat_pict": 0,
"color_range": "tv",
"logs": [
{
"context": "hevc",
"level": 48,
"category": 6,
"message": "[hevc @ 0x560891d96780] nal_unit_type: 39(SEI_PREFIX), nuh_layer_id: 0, temporal_id: 0"
},
{
"context": "hevc",
"level": 48,
"category": 6,
"message": "[hevc @ 0x560891d96780] nal_unit_type: 1(TRAIL_R), nuh_layer_id: 0, temporal_id: 0"
},
{
"context": "hevc",
"level": 48,
"category": 6,
"message": "[hevc @ 0x560891d96780] Decoding SEI"
},
{
"context": "hevc",
"level": 48,
"category": 6,
"message": "[hevc @ 0x560891d96780] Output frame with POC 32."
},
{
"context": "hevc",
"level": 48,
"category": 6,
"message": "[hevc @ 0x560891d96780] Decoded frame with POC 32."
}
]
},
{
"media_type": "audio",
"stream_index": 1,
"key_frame": 1,
"pkt_pts": 53248,
"pkt_pts_time": "1.109333",
"pkt_dts": 53248,
"pkt_dts_time": "1.109333",
"best_effort_timestamp": 53248,
"best_effort_timestamp_time": "1.109333",
"pkt_duration": 1024,
"pkt_duration_time": "0.021333",
"pkt_pos": "760636",
"pkt_size": "470",
"sample_fmt": "fltp",
"nb_samples": 1024,
"channels": 2,
"channel_layout": "stereo"
},
{
"media_type": "audio",
"stream_index": 1,
"key_frame": 1,
"pkt_pts": 54272,
"pkt_pts_time": "1.130667",
"pkt_dts": 54272,
"pkt_dts_time": "1.130667",
"best_effort_timestamp": 54272,
"best_effort_timestamp_time": "1.130667",
"pkt_duration": 1024,
"pkt_duration_time": "0.021333",
"pkt_pos": "761106",
"pkt_size": "387",
"sample_fmt": "fltp",
"nb_samples": 1024,
"channels": 2,
"channel_layout": "stereo"
},
{
"media_type": "video",
"stream_index": 0,
"key_frame": 0,
"pkt_pts": 34023,
"pkt_pts_time": "1.134100",
"pkt_dts": 34023,
"pkt_dts_time": "1.134100",
"best_effort_timestamp": 34023,
"best_effort_timestamp_time": "1.134100",
"pkt_duration": 1001,
"pkt_duration_time": "0.033367",
"pkt_pos": "761493",
"pkt_size": "24632",
"width": 3840,
"height": 2160,
"pix_fmt": "yuv444p10le",
"sample_aspect_ratio": "1:1",
"pict_type": "P",
"coded_picture_number": 0,
"display_picture_number": 0,
"interlaced_frame": 0,
"top_field_first": 0,
"repeat_pict": 0,
"color_range": "tv",
"logs": [
{
"context": "hevc",
"level": 48,
"category": 6,
"message": "[hevc @ 0x560891d96780] nal_unit_type: 39(SEI_PREFIX), nuh_layer_id: 0, temporal_id: 0"
},
{
"context": "hevc",
"level": 48,
"category": 6,
"message": "[hevc @ 0x560891d96780] nal_unit_type: 1(TRAIL_R), nuh_layer_id: 0, temporal_id: 0"
},
{
"context": "hevc",
"level": 48,
"category": 6,
"message": "[hevc @ 0x560891d96780] Decoding SEI"
},
{
"context": "hevc",
"level": 48,
"category": 6,
"message": "[hevc @ 0x560891d96780] Output frame with POC 33."
},
{
"context": "hevc",
"level": 48,
"category": 6,
"message": "[hevc @ 0x560891d96780] Decoded frame with POC 33."
}
]
},
{
"media_type": "audio",
"stream_index": 1,
"key_frame": 1,
"pkt_pts": 55296,
"pkt_pts_time": "1.152000",
"pkt_dts": 55296,
"pkt_dts_time": "1.152000",
"best_effort_timestamp": 55296,
"best_effort_timestamp_time": "1.152000",
"pkt_duration": 1024,
"pkt_duration_time": "0.021333",
"pkt_pos": "786125",
"pkt_size": "415",
"sample_fmt": "fltp",
"nb_samples": 1024,
"channels": 2,
"channel_layout": "stereo"
},
{
"media_type": "video",
"stream_index": 0,
"key_frame": 0,
"pkt_pts": 35024,
"pkt_pts_time": "1.167467",
"pkt_dts": 35024,
"pkt_dts_time": "1.167467",
"best_effort_timestamp": 35024,
"best_effort_timestamp_time": "1.167467",
"pkt_duration": 1001,
"pkt_duration_time": "0.033367",
"pkt_pos": "786540",
"pkt_size": "19754",
"width": 3840,
"height": 2160,
"pix_fmt": "yuv444p10le",
"sample_aspect_ratio": "1:1",
"pict_type": "P",
"coded_picture_number": 0,
"display_picture_number": 0,
"interlaced_frame": 0,
"top_field_first": 0,
"repeat_pict": 0,
"color_range": "tv",
"logs": [
{
"context": "hevc",
"level": 48,
"category": 6,
"message": "[hevc @ 0x560891d96780] nal_unit_type: 39(SEI_PREFIX), nuh_layer_id: 0, temporal_id: 0"
},
{
"context": "hevc",
"level": 48,
"category": 6,
"message": "[hevc @ 0x560891d96780] nal_unit_type: 1(TRAIL_R), nuh_layer_id: 0, temporal_id: 0"
},
{
"context": "hevc",
"level": 48,
"category": 6,
"message": "[hevc @ 0x560891d96780] Decoding SEI"
},
{
"context": "hevc",
"level": 48,
"category": 6,
"message": "[hevc @ 0x560891d96780] Output frame with POC 34."
},
{
"context": "hevc",
"level": 48,
"category": 6,
"message": "[hevc @ 0x560891d96780] Decoded frame with POC 34."
}
]
},
{
"media_type": "audio",
"stream_index": 1,
"key_frame": 1,
"pkt_pts": 56320,
"pkt_pts_time": "1.173333",
"pkt_dts": 56320,
"pkt_dts_time": "1.173333",
"best_effort_timestamp": 56320,
"best_effort_timestamp_time": "1.173333",
"pkt_duration": 1024,
"pkt_duration_time": "0.021333",
"pkt_pos": "806294",
"pkt_size": "276",
"sample_fmt": "fltp",
"nb_samples": 1024,
"channels": 2,
"channel_layout": "stereo"
},
{
"media_type": "audio",
"stream_index": 1,
"key_frame": 1,
"pkt_pts": 57344,
"pkt_pts_time": "1.194667",
"pkt_dts": 57344,
"pkt_dts_time": "1.194667",
"best_effort_timestamp": 57344,
"best_effort_timestamp_time": "1.194667",
"pkt_duration": 1024,
"pkt_duration_time": "0.021333",
"pkt_pos": "806570",
"pkt_size": "286",
"sample_fmt": "fltp",
"nb_samples": 1024,
"channels": 2,
"channel_layout": "stereo"
},
{
"media_type": "video",
"stream_index": 0,
"key_frame": 0,
"pkt_pts": 36025,
"pkt_pts_time": "1.200833",
"pkt_dts": 36025,
"pkt_dts_time": "1.200833",
"best_effort_timestamp": 36025,
"best_effort_timestamp_time": "1.200833",
"pkt_duration": 1001,
"pkt_duration_time": "0.033367",
"pkt_pos": "806856",
"pkt_size": "25384",
"width": 3840,
"height": 2160,
"pix_fmt": "yuv444p10le",
"sample_aspect_ratio": "1:1",
"pict_type": "P",
"coded_picture_number": 0,
"display_picture_number": 0,
"interlaced_frame": 0,
"top_field_first": 0,
"repeat_pict": 0,
"color_range": "tv",
"logs": [
{
"context": "hevc",
"level": 48,
"category": 6,
"message": "[hevc @ 0x560891d96780] nal_unit_type: 39(SEI_PREFIX), nuh_layer_id: 0, temporal_id: 0"
},
{
"context": "hevc",
"level": 48,
"category": 6,
"message": "[hevc @ 0x560891d96780] nal_unit_type: 1(TRAIL_R), nuh_layer_id: 0, temporal_id: 0"
},
{
"context": "hevc",
"level": 48,
"category": 6,
"message": "[hevc @ 0x560891d96780] Decoding SEI"
},
{
"context": "hevc",
"level": 48,
"category": 6,
"message": "[hevc @ 0x560891d96780] Output frame with POC 35."
},
{
"context": "hevc",
"level": 48,
"category": 6,
"message": "[hevc @ 0x560891d96780] Decoded frame with POC 35."
}
]
},
{
"media_type": "audio",
"stream_index": 1,
"key_frame": 1,
"pkt_pts": 58368,
"pkt_pts_time": "1.216000",
"pkt_dts": 58368,
"pkt_dts_time": "1.216000",
"best_effort_timestamp": 58368,
"best_effort_timestamp_time": "1.216000",
"pkt_duration": 1024,
"pkt_duration_time": "0.021333",
"pkt_pos": "832240",
"pkt_size": "336",
"sample_fmt": "fltp",
"nb_samples": 1024,
"channels": 2,
"channel_layout": "stereo"
},
{
"media_type": "video",
"stream_index": 0,
"key_frame": 0,
"pkt_pts": 37026,
"pkt_pts_time": "1.234200",
"pkt_dts": 37026,
"pkt_dts_time": "1.234200",
"best_effort_timestamp": 37026,
"best_effort_timestamp_time": "1.234200",
"pkt_duration": 1001,
"pkt_duration_time": "0.033367",
"pkt_pos": "832576",
"pkt_size": "19894",
"width": 3840,
"height": 2160,
"pix_fmt": "yuv444p10le",
"sample_aspect_ratio": "1:1",
"pict_type": "P",
"coded_picture_number": 0,
"display_picture_number": 0,
"interlaced_frame": 0,
"top_field_first": 0,
"repeat_pict": 0,
"color_range": "tv",
"logs": [
{
"context": "hevc",
"level": 48,
"category": 6,
"message": "[hevc @ 0x560891d96780] nal_unit_type: 39(SEI_PREFIX), nuh_layer_id: 0, temporal_id: 0"
},
{
"context": "hevc",
"level": 48,
"category": 6,
"message": "[hevc @ 0x560891d96780] nal_unit_type: 1(TRAIL_R), nuh_layer_id: 0, temporal_id: 0"
},
{
"context": "hevc",
"level": 48,
"category": 6,
"message": "[hevc @ 0x560891d96780] Decoding SEI"
},
{
"context": "hevc",
"level": 48,
"category": 6,
"message": "[hevc @ 0x560891d96780] Output frame with POC 36."
},
{
"context": "hevc",
"level": 48,
"category": 6,
"message": "[hevc @ 0x560891d96780] Decoded frame with POC 36."
}
]
},
{
"media_type": "audio",
"stream_index": 1,
"key_frame": 1,
"pkt_pts": 59392,
"pkt_pts_time": "1.237333",
"pkt_dts": 59392,
"pkt_dts_time": "1.237333",
"best_effort_timestamp": 59392,
"best_effort_timestamp_time": "1.237333",
"pkt_duration": 1024,
"pkt_duration_time": "0.021333",
"pkt_pos": "852470",
"pkt_size": "293",
"sample_fmt": "fltp",
"nb_samples": 1024,
"channels": 2,
"channel_layout": "stereo"
},
{
"media_type": "audio",
"stream_index": 1,
"key_frame": 1,
"pkt_pts": 60416,
"pkt_pts_time": "1.258667",
"pkt_dts": 60416,
"pkt_dts_time": "1.258667",
"best_effort_timestamp": 60416,
"best_effort_timestamp_time": "1.258667",
"pkt_duration": 1024,
"pkt_duration_time": "0.021333",
"pkt_pos": "852763",
"pkt_size": "348",
"sample_fmt": "fltp",
"nb_samples": 1024,
"channels": 2,
"channel_layout": "stereo"
},
{
"media_type": "video",
"stream_index": 0,
"key_frame": 0,
"pkt_pts": 38027,
"pkt_pts_time": "1.267567",
"pkt_dts": 38027,
"pkt_dts_time": "1.267567",
"best_effort_timestamp": 38027,
"best_effort_timestamp_time": "1.267567",
"pkt_duration": 1001,
"pkt_duration_time": "0.033367",
"pkt_pos": "853111",
"pkt_size": "20565",
"width": 3840,
"height": 2160,
"pix_fmt": "yuv444p10le",
"sample_aspect_ratio": "1:1",
"pict_type": "P",
"coded_picture_number": 0,
"display_picture_number": 0,
"interlaced_frame": 0,
"top_field_first": 0,
"repeat_pict": 0,
"color_range": "tv",
"logs": [
{
"context": "hevc",
"level": 48,
"category": 6,
"message": "[hevc @ 0x560891d96780] nal_unit_type: 39(SEI_PREFIX), nuh_layer_id: 0, temporal_id: 0"
},
{
"context": "hevc",
"level": 48,
"category": 6,
"message": "[hevc @ 0x560891d96780] nal_unit_type: 1(TRAIL_R), nuh_layer_id: 0, temporal_id: 0"
},
{
"context": "hevc",
"level": 48,
"category": 6,
"message": "[hevc @ 0x560891d96780] Decoding SEI"
},
{
"context": "hevc",
"level": 48,
"category": 6,
"message": "[hevc @ 0x560891d96780] Output frame with POC 37."
},
{
"context": "hevc",
"level": 48,
"category": 6,
"message": "[hevc @ 0x560891d96780] Decoded frame with POC 37."
}
]
},
{
"media_type": "audio",
"stream_index": 1,
"key_frame": 1,
"pkt_pts": 61440,
"pkt_pts_time": "1.280000",
"pkt_dts": 61440,
"pkt_dts_time": "1.280000",
"best_effort_timestamp": 61440,
"best_effort_timestamp_time": "1.280000",
"pkt_duration": 1024,
"pkt_duration_time": "0.021333",
"pkt_pos": "873676",
"pkt_size": "329",
"sample_fmt": "fltp",
"nb_samples": 1024,
"channels": 2,
"channel_layout": "stereo"
},
{
"media_type": "video",
"stream_index": 0,
"key_frame": 0,
"pkt_pts": 39028,
"pkt_pts_time": "1.300933",
"pkt_dts": 39028,
"pkt_dts_time": "1.300933",
"best_effort_timestamp": 39028,
"best_effort_timestamp_time": "1.300933",
"pkt_duration": 1001,
"pkt_duration_time": "0.033367",
"pkt_pos": "874005",
"pkt_size": "21556",
"width": 3840,
"height": 2160,
"pix_fmt": "yuv444p10le",
"sample_aspect_ratio": "1:1",
"pict_type": "P",
"coded_picture_number": 0,
"display_picture_number": 0,
"interlaced_frame": 0,
"top_field_first": 0,
"repeat_pict": 0,
"color_range": "tv",
"logs": [
{
"context": "hevc",
"level": 48,
"category": 6,
"message": "[hevc @ 0x560891d96780] nal_unit_type: 39(SEI_PREFIX), nuh_layer_id: 0, temporal_id: 0"
},
{
"context": "hevc",
"level": 48,
"category": 6,
"message": "[hevc @ 0x560891d96780] nal_unit_type: 1(TRAIL_R), nuh_layer_id: 0, temporal_id: 0"
},
{
"context": "hevc",
"level": 48,
"category": 6,
"message": "[hevc @ 0x560891d96780] Decoding SEI"
},
{
"context": "hevc",
"level": 48,
"category": 6,
"message": "[hevc @ 0x560891d96780] Output frame with POC 38."
},
{
"context": "hevc",
"level": 48,
"category": 6,
"message": "[hevc @ 0x560891d96780] Decoded frame with POC 38."
}
]
},
{
"media_type": "audio",
"stream_index": 1,
"key_frame": 1,
"pkt_pts": 62464,
"pkt_pts_time": "1.301333",
"pkt_dts": 62464,
"pkt_dts_time": "1.301333",
"best_effort_timestamp": 62464,
"best_effort_timestamp_time": "1.301333",
"pkt_duration": 1024,
"pkt_duration_time": "0.021333",
"pkt_pos": "895561",
"pkt_size": "344",
"sample_fmt": "fltp",
"nb_samples": 1024,
"channels": 2,
"channel_layout": "stereo"
},
{
"media_type": "audio",
"stream_index": 1,
"key_frame": 1,
"pkt_pts": 63488,
"pkt_pts_time": "1.322667",
"pkt_dts": 63488,
"pkt_dts_time": "1.322667",
"best_effort_timestamp": 63488,
"best_effort_timestamp_time": "1.322667",
"pkt_duration": 1024,
"pkt_duration_time": "0.021333",
"pkt_pos": "895905",
"pkt_size": "340",
"sample_fmt": "fltp",
"nb_samples": 1024,
"channels": 2,
"channel_layout": "stereo"
},
{
"media_type": "video",
"stream_index": 0,
"key_frame": 0,
"pkt_pts": 40029,
"pkt_pts_time": "1.334300",
"pkt_dts": 40029,
"pkt_dts_time": "1.334300",
"best_effort_timestamp": 40029,
"best_effort_timestamp_time": "1.334300",
"pkt_duration": 1001,
"pkt_duration_time": "0.033367",
"pkt_pos": "896245",
"pkt_size": "22148",
"width": 3840,
"height": 2160,
"pix_fmt": "yuv444p10le",
"sample_aspect_ratio": "1:1",
"pict_type": "P",
"coded_picture_number": 0,
"display_picture_number": 0,
"interlaced_frame": 0,
"top_field_first": 0,
"repeat_pict": 0,
"color_range": "tv",
"logs": [
{
"context": "hevc",
"level": 48,
"category": 6,
"message": "[hevc @ 0x560891d96780] nal_unit_type: 39(SEI_PREFIX), nuh_layer_id: 0, temporal_id: 0"
},
{
"context": "hevc",
"level": 48,
"category": 6,
"message": "[hevc @ 0x560891d96780] nal_unit_type: 1(TRAIL_R), nuh_layer_id: 0, temporal_id: 0"
},
{
"context": "hevc",
"level": 48,
"category": 6,
"message": "[hevc @ 0x560891d96780] Decoding SEI"
},
{
"context": "hevc",
"level": 48,
"category"