Skip to content

Instantly share code, notes, and snippets.

Embed
What would you like to do?
{
"frames": [
{
"media_type": "video",
"stream_index": 0,
"key_frame": 1,
"pkt_pts": 0,
"pkt_pts_time": "0.000000",
"pkt_dts": 0,
"pkt_dts_time": "0.000000",
"best_effort_timestamp": 0,
"best_effort_timestamp_time": "0.000000",
"pkt_duration": 200,
"pkt_duration_time": "0.016683",
"pkt_pos": "2202",
"pkt_size": "65404",
"width": 3840,
"height": 2160,
"pix_fmt": "yuv420p10le",
"sample_aspect_ratio": "1:1",
"pict_type": "I",
"coded_picture_number": 0,
"display_picture_number": 0,
"interlaced_frame": 0,
"top_field_first": 0,
"repeat_pict": 0,
"color_range": "tv",
"color_space": "bt2020nc",
"color_primaries": "bt2020",
"color_transfer": "smpte2084",
"logs": [
{
"context": "hevc",
"level": 48,
"category": 6,
"message": "[hevc @ 0x55cb0242da80] nal_unit_type: 1(TRAIL_R), nuh_layer_id: 0, temporal_id: 0"
},
{
"context": "hevc",
"level": 48,
"category": 6,
"message": "[hevc @ 0x55cb0242da80] Output frame with POC 0."
},
{
"context": "hevc",
"level": 48,
"category": 6,
"message": "[hevc @ 0x55cb0242da80] Decoded frame with POC 2."
}
]
},
{
"media_type": "audio",
"stream_index": 1,
"key_frame": 1,
"pkt_pts": 0,
"pkt_pts_time": "0.000000",
"pkt_dts": 0,
"pkt_dts_time": "0.000000",
"best_effort_timestamp": 0,
"best_effort_timestamp_time": "0.000000",
"pkt_duration": 1024,
"pkt_duration_time": "0.021333",
"pkt_pos": "195808",
"pkt_size": "356",
"sample_fmt": "fltp",
"nb_samples": 1024,
"channels": 2,
"channel_layout": "stereo"
},
{
"media_type": "video",
"stream_index": 0,
"key_frame": 0,
"pkt_pts": 200,
"pkt_pts_time": "0.016683",
"pkt_dts": 200,
"pkt_dts_time": "0.016683",
"best_effort_timestamp": 200,
"best_effort_timestamp_time": "0.016683",
"pkt_duration": 200,
"pkt_duration_time": "0.016683",
"pkt_pos": "196164",
"pkt_size": "169",
"width": 3840,
"height": 2160,
"pix_fmt": "yuv420p10le",
"sample_aspect_ratio": "1:1",
"pict_type": "B",
"coded_picture_number": 0,
"display_picture_number": 0,
"interlaced_frame": 0,
"top_field_first": 0,
"repeat_pict": 0,
"color_range": "tv",
"color_space": "bt2020nc",
"color_primaries": "bt2020",
"color_transfer": "smpte2084",
"logs": [
{
"context": "hevc",
"level": 48,
"category": 6,
"message": "[hevc @ 0x55cb0242da80] nal_unit_type: 0(TRAIL_N), nuh_layer_id: 0, temporal_id: 0"
},
{
"context": "hevc",
"level": 48,
"category": 6,
"message": "[hevc @ 0x55cb0242da80] Output frame with POC 1."
},
{
"context": "hevc",
"level": 48,
"category": 6,
"message": "[hevc @ 0x55cb0242da80] Decoded frame with POC 1."
}
]
},
{
"media_type": "audio",
"stream_index": 1,
"key_frame": 1,
"pkt_pts": 1024,
"pkt_pts_time": "0.021333",
"pkt_dts": 1024,
"pkt_dts_time": "0.021333",
"best_effort_timestamp": 1024,
"best_effort_timestamp_time": "0.021333",
"pkt_duration": 1024,
"pkt_duration_time": "0.021333",
"pkt_pos": "196333",
"pkt_size": "331",
"sample_fmt": "fltp",
"nb_samples": 1024,
"channels": 2,
"channel_layout": "stereo"
},
{
"media_type": "video",
"stream_index": 0,
"key_frame": 0,
"pkt_pts": 400,
"pkt_pts_time": "0.033367",
"pkt_dts": 400,
"pkt_dts_time": "0.033367",
"best_effort_timestamp": 400,
"best_effort_timestamp_time": "0.033367",
"pkt_duration": 200,
"pkt_duration_time": "0.016683",
"pkt_pos": "195524",
"pkt_size": "284",
"width": 3840,
"height": 2160,
"pix_fmt": "yuv420p10le",
"sample_aspect_ratio": "1:1",
"pict_type": "B",
"coded_picture_number": 0,
"display_picture_number": 0,
"interlaced_frame": 0,
"top_field_first": 0,
"repeat_pict": 0,
"color_range": "tv",
"color_space": "bt2020nc",
"color_primaries": "bt2020",
"color_transfer": "smpte2084",
"logs": [
{
"context": "hevc",
"level": 48,
"category": 6,
"message": "[hevc @ 0x55cb0242da80] nal_unit_type: 0(TRAIL_N), nuh_layer_id: 0, temporal_id: 0"
},
{
"context": "hevc",
"level": 48,
"category": 6,
"message": "[hevc @ 0x55cb0242da80] Output frame with POC 2."
},
{
"context": "hevc",
"level": 48,
"category": 6,
"message": "[hevc @ 0x55cb0242da80] Decoded frame with POC 3."
}
]
},
{
"media_type": "audio",
"stream_index": 1,
"key_frame": 1,
"pkt_pts": 2048,
"pkt_pts_time": "0.042667",
"pkt_dts": 2048,
"pkt_dts_time": "0.042667",
"best_effort_timestamp": 2048,
"best_effort_timestamp_time": "0.042667",
"pkt_duration": 1024,
"pkt_duration_time": "0.021333",
"pkt_pos": "196962",
"pkt_size": "305",
"sample_fmt": "fltp",
"nb_samples": 1024,
"channels": 2,
"channel_layout": "stereo"
},
{
"media_type": "video",
"stream_index": 0,
"key_frame": 0,
"pkt_pts": 600,
"pkt_pts_time": "0.050050",
"pkt_dts": 600,
"pkt_dts_time": "0.050050",
"best_effort_timestamp": 600,
"best_effort_timestamp_time": "0.050050",
"pkt_duration": 200,
"pkt_duration_time": "0.016683",
"pkt_pos": "196664",
"pkt_size": "298",
"width": 3840,
"height": 2160,
"pix_fmt": "yuv420p10le",
"sample_aspect_ratio": "1:1",
"pict_type": "B",
"coded_picture_number": 0,
"display_picture_number": 0,
"interlaced_frame": 0,
"top_field_first": 0,
"repeat_pict": 0,
"color_range": "tv",
"color_space": "bt2020nc",
"color_primaries": "bt2020",
"color_transfer": "smpte2084",
"logs": [
{
"context": "hevc",
"level": 48,
"category": 6,
"message": "[hevc @ 0x55cb0242da80] nal_unit_type: 1(TRAIL_R), nuh_layer_id: 0, temporal_id: 0"
},
{
"context": "hevc",
"level": 48,
"category": 6,
"message": "[hevc @ 0x55cb0242da80] Output frame with POC 3."
},
{
"context": "hevc",
"level": 48,
"category": 6,
"message": "[hevc @ 0x55cb0242da80] Decoded frame with POC 6."
}
]
},
{
"media_type": "audio",
"stream_index": 1,
"key_frame": 1,
"pkt_pts": 3072,
"pkt_pts_time": "0.064000",
"pkt_dts": 3072,
"pkt_dts_time": "0.064000",
"best_effort_timestamp": 3072,
"best_effort_timestamp_time": "0.064000",
"pkt_duration": 1024,
"pkt_duration_time": "0.021333",
"pkt_pos": "273175",
"pkt_size": "328",
"sample_fmt": "fltp",
"nb_samples": 1024,
"channels": 2,
"channel_layout": "stereo"
},
{
"media_type": "video",
"stream_index": 0,
"key_frame": 0,
"pkt_pts": 800,
"pkt_pts_time": "0.066733",
"pkt_dts": 800,
"pkt_dts_time": "0.066733",
"best_effort_timestamp": 800,
"best_effort_timestamp_time": "0.066733",
"pkt_duration": 200,
"pkt_duration_time": "0.016683",
"pkt_pos": "67942",
"pkt_size": "127582",
"width": 3840,
"height": 2160,
"pix_fmt": "yuv420p10le",
"sample_aspect_ratio": "1:1",
"pict_type": "P",
"coded_picture_number": 0,
"display_picture_number": 0,
"interlaced_frame": 0,
"top_field_first": 0,
"repeat_pict": 0,
"color_range": "tv",
"color_space": "bt2020nc",
"color_primaries": "bt2020",
"color_transfer": "smpte2084",
"logs": [
{
"context": "hevc",
"level": 48,
"category": 6,
"message": "[hevc @ 0x55cb0242da80] nal_unit_type: 0(TRAIL_N), nuh_layer_id: 0, temporal_id: 0"
},
{
"context": "hevc",
"level": 48,
"category": 6,
"message": "[hevc @ 0x55cb0242da80] Output frame with POC 4."
},
{
"context": "hevc",
"level": 48,
"category": 6,
"message": "[hevc @ 0x55cb0242da80] Decoded frame with POC 5."
}
]
},
{
"media_type": "video",
"stream_index": 0,
"key_frame": 0,
"pkt_pts": 1000,
"pkt_pts_time": "0.083417",
"pkt_dts": 1000,
"pkt_dts_time": "0.083417",
"best_effort_timestamp": 1000,
"best_effort_timestamp_time": "0.083417",
"pkt_duration": 200,
"pkt_duration_time": "0.016683",
"pkt_pos": "273503",
"pkt_size": "1045",
"width": 3840,
"height": 2160,
"pix_fmt": "yuv420p10le",
"sample_aspect_ratio": "1:1",
"pict_type": "B",
"coded_picture_number": 0,
"display_picture_number": 0,
"interlaced_frame": 0,
"top_field_first": 0,
"repeat_pict": 0,
"color_range": "tv",
"color_space": "bt2020nc",
"color_primaries": "bt2020",
"color_transfer": "smpte2084",
"logs": [
{
"context": "hevc",
"level": 48,
"category": 6,
"message": "[hevc @ 0x55cb0242da80] nal_unit_type: 1(TRAIL_R), nuh_layer_id: 0, temporal_id: 0"
},
{
"context": "hevc",
"level": 48,
"category": 6,
"message": "[hevc @ 0x55cb0242da80] Output frame with POC 5."
},
{
"context": "hevc",
"level": 48,
"category": 6,
"message": "[hevc @ 0x55cb0242da80] Decoded frame with POC 10."
}
]
},
{
"media_type": "audio",
"stream_index": 1,
"key_frame": 1,
"pkt_pts": 4096,
"pkt_pts_time": "0.085333",
"pkt_dts": 4096,
"pkt_dts_time": "0.085333",
"best_effort_timestamp": 4096,
"best_effort_timestamp_time": "0.085333",
"pkt_duration": 1024,
"pkt_duration_time": "0.021333",
"pkt_pos": "356542",
"pkt_size": "337",
"sample_fmt": "fltp",
"nb_samples": 1024,
"channels": 2,
"channel_layout": "stereo"
},
{
"media_type": "video",
"stream_index": 0,
"key_frame": 0,
"pkt_pts": 1200,
"pkt_pts_time": "0.100100",
"pkt_dts": 1200,
"pkt_dts_time": "0.100100",
"best_effort_timestamp": 1200,
"best_effort_timestamp_time": "0.100100",
"pkt_duration": 200,
"pkt_duration_time": "0.016683",
"pkt_pos": "197267",
"pkt_size": "75908",
"width": 3840,
"height": 2160,
"pix_fmt": "yuv420p10le",
"sample_aspect_ratio": "1:1",
"pict_type": "P",
"coded_picture_number": 0,
"display_picture_number": 0,
"interlaced_frame": 0,
"top_field_first": 0,
"repeat_pict": 0,
"color_range": "tv",
"color_space": "bt2020nc",
"color_primaries": "bt2020",
"color_transfer": "smpte2084",
"logs": [
{
"context": "hevc",
"level": 48,
"category": 6,
"message": "[hevc @ 0x55cb0242da80] nal_unit_type: 1(TRAIL_R), nuh_layer_id: 0, temporal_id: 0"
},
{
"context": "hevc",
"level": 48,
"category": 6,
"message": "[hevc @ 0x55cb0242da80] Output frame with POC 6."
},
{
"context": "hevc",
"level": 48,
"category": 6,
"message": "[hevc @ 0x55cb0242da80] Decoded frame with POC 8."
}
]
},
{
"media_type": "audio",
"stream_index": 1,
"key_frame": 1,
"pkt_pts": 5120,
"pkt_pts_time": "0.106667",
"pkt_dts": 5120,
"pkt_dts_time": "0.106667",
"best_effort_timestamp": 5120,
"best_effort_timestamp_time": "0.106667",
"pkt_duration": 1024,
"pkt_duration_time": "0.021333",
"pkt_pos": "414931",
"pkt_size": "338",
"sample_fmt": "fltp",
"nb_samples": 1024,
"channels": 2,
"channel_layout": "stereo"
},
{
"media_type": "video",
"stream_index": 0,
"key_frame": 0,
"pkt_pts": 1400,
"pkt_pts_time": "0.116783",
"pkt_dts": 1400,
"pkt_dts_time": "0.116783",
"best_effort_timestamp": 1400,
"best_effort_timestamp_time": "0.116783",
"pkt_duration": 200,
"pkt_duration_time": "0.016683",
"pkt_pos": "415269",
"pkt_size": "949",
"width": 3840,
"height": 2160,
"pix_fmt": "yuv420p10le",
"sample_aspect_ratio": "1:1",
"pict_type": "B",
"coded_picture_number": 0,
"display_picture_number": 0,
"interlaced_frame": 0,
"top_field_first": 0,
"repeat_pict": 0,
"color_range": "tv",
"color_space": "bt2020nc",
"color_primaries": "bt2020",
"color_transfer": "smpte2084",
"logs": [
{
"context": "hevc",
"level": 48,
"category": 6,
"message": "[hevc @ 0x55cb0242da80] nal_unit_type: 0(TRAIL_N), nuh_layer_id: 0, temporal_id: 0"
},
{
"context": "hevc",
"level": 48,
"category": 6,
"message": "[hevc @ 0x55cb0242da80] Output frame with POC 7."
},
{
"context": "hevc",
"level": 48,
"category": 6,
"message": "[hevc @ 0x55cb0242da80] Decoded frame with POC 7."
}
]
},
{
"media_type": "audio",
"stream_index": 1,
"key_frame": 1,
"pkt_pts": 6144,
"pkt_pts_time": "0.128000",
"pkt_dts": 6144,
"pkt_dts_time": "0.128000",
"best_effort_timestamp": 6144,
"best_effort_timestamp_time": "0.128000",
"pkt_duration": 1024,
"pkt_duration_time": "0.021333",
"pkt_pos": "416218",
"pkt_size": "328",
"sample_fmt": "fltp",
"nb_samples": 1024,
"channels": 2,
"channel_layout": "stereo"
},
{
"media_type": "video",
"stream_index": 0,
"key_frame": 0,
"pkt_pts": 1600,
"pkt_pts_time": "0.133467",
"pkt_dts": 1600,
"pkt_dts_time": "0.133467",
"best_effort_timestamp": 1600,
"best_effort_timestamp_time": "0.133467",
"pkt_duration": 200,
"pkt_duration_time": "0.016683",
"pkt_pos": "356879",
"pkt_size": "58052",
"width": 3840,
"height": 2160,
"pix_fmt": "yuv420p10le",
"sample_aspect_ratio": "1:1",
"pict_type": "B",
"coded_picture_number": 0,
"display_picture_number": 0,
"interlaced_frame": 0,
"top_field_first": 0,
"repeat_pict": 0,
"color_range": "tv",
"color_space": "bt2020nc",
"color_primaries": "bt2020",
"color_transfer": "smpte2084",
"logs": [
{
"context": "hevc",
"level": 48,
"category": 6,
"message": "[hevc @ 0x55cb0242da80] nal_unit_type: 0(TRAIL_N), nuh_layer_id: 0, temporal_id: 0"
},
{
"context": "hevc",
"level": 48,
"category": 6,
"message": "[hevc @ 0x55cb0242da80] Output frame with POC 8."
},
{
"context": "hevc",
"level": 48,
"category": 6,
"message": "[hevc @ 0x55cb0242da80] Decoded frame with POC 9."
}
]
},
{
"media_type": "audio",
"stream_index": 1,
"key_frame": 1,
"pkt_pts": 7168,
"pkt_pts_time": "0.149333",
"pkt_dts": 7168,
"pkt_dts_time": "0.149333",
"best_effort_timestamp": 7168,
"best_effort_timestamp_time": "0.149333",
"pkt_duration": 1024,
"pkt_duration_time": "0.021333",
"pkt_pos": "417518",
"pkt_size": "334",
"sample_fmt": "fltp",
"nb_samples": 1024,
"channels": 2,
"channel_layout": "stereo"
},
{
"media_type": "video",
"stream_index": 0,
"key_frame": 0,
"pkt_pts": 1800,
"pkt_pts_time": "0.150150",
"pkt_dts": 1800,
"pkt_dts_time": "0.150150",
"best_effort_timestamp": 1800,
"best_effort_timestamp_time": "0.150150",
"pkt_duration": 200,
"pkt_duration_time": "0.016683",
"pkt_pos": "416546",
"pkt_size": "972",
"width": 3840,
"height": 2160,
"pix_fmt": "yuv420p10le",
"sample_aspect_ratio": "1:1",
"pict_type": "B",
"coded_picture_number": 0,
"display_picture_number": 0,
"interlaced_frame": 0,
"top_field_first": 0,
"repeat_pict": 0,
"color_range": "tv",
"color_space": "bt2020nc",
"color_primaries": "bt2020",
"color_transfer": "smpte2084",
"logs": [
{
"context": "hevc",
"level": 48,
"category": 6,
"message": "[hevc @ 0x55cb0242da80] nal_unit_type: 1(TRAIL_R), nuh_layer_id: 0, temporal_id: 0"
},
{
"context": "hevc",
"level": 48,
"category": 6,
"message": "[hevc @ 0x55cb0242da80] Output frame with POC 9."
},
{
"context": "hevc",
"level": 48,
"category": 6,
"message": "[hevc @ 0x55cb0242da80] Decoded frame with POC 14."
}
]
},
{
"media_type": "video",
"stream_index": 0,
"key_frame": 0,
"pkt_pts": 2000,
"pkt_pts_time": "0.166834",
"pkt_dts": 2000,
"pkt_dts_time": "0.166834",
"best_effort_timestamp": 2000,
"best_effort_timestamp_time": "0.166834",
"pkt_duration": 200,
"pkt_duration_time": "0.016683",
"pkt_pos": "274548",
"pkt_size": "81994",
"width": 3840,
"height": 2160,
"pix_fmt": "yuv420p10le",
"sample_aspect_ratio": "1:1",
"pict_type": "P",
"coded_picture_number": 0,
"display_picture_number": 0,
"interlaced_frame": 0,
"top_field_first": 0,
"repeat_pict": 0,
"color_range": "tv",
"color_space": "bt2020nc",
"color_primaries": "bt2020",
"color_transfer": "smpte2084",
"logs": [
{
"context": "hevc",
"level": 48,
"category": 6,
"message": "[hevc @ 0x55cb0242da80] nal_unit_type: 1(TRAIL_R), nuh_layer_id: 0, temporal_id: 0"
},
{
"context": "hevc",
"level": 48,
"category": 6,
"message": "[hevc @ 0x55cb0242da80] Output frame with POC 10."
},
{
"context": "hevc",
"level": 48,
"category": 6,
"message": "[hevc @ 0x55cb0242da80] Decoded frame with POC 12."
}
]
},
{
"media_type": "audio",
"stream_index": 1,
"key_frame": 1,
"pkt_pts": 8192,
"pkt_pts_time": "0.170667",
"pkt_dts": 8192,
"pkt_dts_time": "0.170667",
"best_effort_timestamp": 8192,
"best_effort_timestamp_time": "0.170667",
"pkt_duration": 1024,
"pkt_duration_time": "0.021333",
"pkt_pos": "530847",
"pkt_size": "324",
"sample_fmt": "fltp",
"nb_samples": 1024,
"channels": 2,
"channel_layout": "stereo"
},
{
"media_type": "video",
"stream_index": 0,
"key_frame": 0,
"pkt_pts": 2200,
"pkt_pts_time": "0.183517",
"pkt_dts": 2200,
"pkt_dts_time": "0.183517",
"best_effort_timestamp": 2200,
"best_effort_timestamp_time": "0.183517",
"pkt_duration": 200,
"pkt_duration_time": "0.016683",
"pkt_pos": "531171",
"pkt_size": "929",
"width": 3840,
"height": 2160,
"pix_fmt": "yuv420p10le",
"sample_aspect_ratio": "1:1",
"pict_type": "B",
"coded_picture_number": 0,
"display_picture_number": 0,
"interlaced_frame": 0,
"top_field_first": 0,
"repeat_pict": 0,
"color_range": "tv",
"color_space": "bt2020nc",
"color_primaries": "bt2020",
"color_transfer": "smpte2084",
"logs": [
{
"context": "hevc",
"level": 48,
"category": 6,
"message": "[hevc @ 0x55cb0242da80] nal_unit_type: 0(TRAIL_N), nuh_layer_id: 0, temporal_id: 0"
},
{
"context": "hevc",
"level": 48,
"category": 6,
"message": "[hevc @ 0x55cb0242da80] Output frame with POC 11."
},
{
"context": "hevc",
"level": 48,
"category": 6,
"message": "[hevc @ 0x55cb0242da80] Decoded frame with POC 11."
}
]
},
{
"media_type": "audio",
"stream_index": 1,
"key_frame": 1,
"pkt_pts": 9216,
"pkt_pts_time": "0.192000",
"pkt_dts": 9216,
"pkt_dts_time": "0.192000",
"best_effort_timestamp": 9216,
"best_effort_timestamp_time": "0.192000",
"pkt_duration": 1024,
"pkt_duration_time": "0.021333",
"pkt_pos": "532100",
"pkt_size": "325",
"sample_fmt": "fltp",
"nb_samples": 1024,
"channels": 2,
"channel_layout": "stereo"
},
{
"media_type": "video",
"stream_index": 0,
"key_frame": 0,
"pkt_pts": 2400,
"pkt_pts_time": "0.200200",
"pkt_dts": 2400,
"pkt_dts_time": "0.200200",
"best_effort_timestamp": 2400,
"best_effort_timestamp_time": "0.200200",
"pkt_duration": 200,
"pkt_duration_time": "0.016683",
"pkt_pos": "504125",
"pkt_size": "26722",
"width": 3840,
"height": 2160,
"pix_fmt": "yuv420p10le",
"sample_aspect_ratio": "1:1",
"pict_type": "B",
"coded_picture_number": 0,
"display_picture_number": 0,
"interlaced_frame": 0,
"top_field_first": 0,
"repeat_pict": 0,
"color_range": "tv",
"color_space": "bt2020nc",
"color_primaries": "bt2020",
"color_transfer": "smpte2084",
"logs": [
{
"context": "hevc",
"level": 48,
"category": 6,
"message": "[hevc @ 0x55cb0242da80] nal_unit_type: 0(TRAIL_N), nuh_layer_id: 0, temporal_id: 0"
},
{
"context": "hevc",
"level": 48,
"category": 6,
"message": "[hevc @ 0x55cb0242da80] Output frame with POC 12."
},
{
"context": "hevc",
"level": 48,
"category": 6,
"message": "[hevc @ 0x55cb0242da80] Decoded frame with POC 13."
}
]
},
{
"media_type": "audio",
"stream_index": 1,
"key_frame": 1,
"pkt_pts": 10240,
"pkt_pts_time": "0.213333",
"pkt_dts": 10240,
"pkt_dts_time": "0.213333",
"best_effort_timestamp": 10240,
"best_effort_timestamp_time": "0.213333",
"pkt_duration": 1024,
"pkt_duration_time": "0.021333",
"pkt_pos": "533246",
"pkt_size": "335",
"sample_fmt": "fltp",
"nb_samples": 1024,
"channels": 2,
"channel_layout": "stereo"
},
{
"media_type": "video",
"stream_index": 0,
"key_frame": 0,
"pkt_pts": 2600,
"pkt_pts_time": "0.216884",
"pkt_dts": 2600,
"pkt_dts_time": "0.216884",
"best_effort_timestamp": 2600,
"best_effort_timestamp_time": "0.216884",
"pkt_duration": 200,
"pkt_duration_time": "0.016683",
"pkt_pos": "532425",
"pkt_size": "821",
"width": 3840,
"height": 2160,
"pix_fmt": "yuv420p10le",
"sample_aspect_ratio": "1:1",
"pict_type": "B",
"coded_picture_number": 0,
"display_picture_number": 0,
"interlaced_frame": 0,
"top_field_first": 0,
"repeat_pict": 0,
"color_range": "tv",
"color_space": "bt2020nc",
"color_primaries": "bt2020",
"color_transfer": "smpte2084",
"logs": [
{
"context": "hevc",
"level": 48,
"category": 6,
"message": "[hevc @ 0x55cb0242da80] nal_unit_type: 1(TRAIL_R), nuh_layer_id: 0, temporal_id: 0"
},
{
"context": "hevc",
"level": 48,
"category": 6,
"message": "[hevc @ 0x55cb0242da80] Output frame with POC 13."
},
{
"context": "hevc",
"level": 48,
"category": 6,
"message": "[hevc @ 0x55cb0242da80] Decoded frame with POC 16."
}
]
},
{
"media_type": "video",
"stream_index": 0,
"key_frame": 0,
"pkt_pts": 2800,
"pkt_pts_time": "0.233567",
"pkt_dts": 2800,
"pkt_dts_time": "0.233567",
"best_effort_timestamp": 2800,
"best_effort_timestamp_time": "0.233567",
"pkt_duration": 200,
"pkt_duration_time": "0.016683",
"pkt_pos": "417852",
"pkt_size": "86273",
"width": 3840,
"height": 2160,
"pix_fmt": "yuv420p10le",
"sample_aspect_ratio": "1:1",
"pict_type": "P",
"coded_picture_number": 0,
"display_picture_number": 0,
"interlaced_frame": 0,
"top_field_first": 0,
"repeat_pict": 0,
"color_range": "tv",
"color_space": "bt2020nc",
"color_primaries": "bt2020",
"color_transfer": "smpte2084",
"logs": [
{
"context": "hevc",
"level": 48,
"category": 6,
"message": "[hevc @ 0x55cb0242da80] nal_unit_type: 0(TRAIL_N), nuh_layer_id: 0, temporal_id: 0"
},
{
"context": "hevc",
"level": 48,
"category": 6,
"message": "[hevc @ 0x55cb0242da80] Output frame with POC 14."
},
{
"context": "hevc",
"level": 48,
"category": 6,
"message": "[hevc @ 0x55cb0242da80] Decoded frame with POC 15."
}
]
},
{
"media_type": "audio",
"stream_index": 1,
"key_frame": 1,
"pkt_pts": 11264,
"pkt_pts_time": "0.234667",
"pkt_dts": 11264,
"pkt_dts_time": "0.234667",
"best_effort_timestamp": 11264,
"best_effort_timestamp_time": "0.234667",
"pkt_duration": 1024,
"pkt_duration_time": "0.021333",
"pkt_pos": "595828",
"pkt_size": "380",
"sample_fmt": "fltp",
"nb_samples": 1024,
"channels": 2,
"channel_layout": "stereo"
},
{
"media_type": "video",
"stream_index": 0,
"key_frame": 0,
"pkt_pts": 3000,
"pkt_pts_time": "0.250250",
"pkt_dts": 3000,
"pkt_dts_time": "0.250250",
"best_effort_timestamp": 3000,
"best_effort_timestamp_time": "0.250250",
"pkt_duration": 200,
"pkt_duration_time": "0.016683",
"pkt_pos": "594709",
"pkt_size": "1119",
"width": 3840,
"height": 2160,
"pix_fmt": "yuv420p10le",
"sample_aspect_ratio": "1:1",
"pict_type": "B",
"coded_picture_number": 0,
"display_picture_number": 0,
"interlaced_frame": 0,
"top_field_first": 0,
"repeat_pict": 0,
"color_range": "tv",
"color_space": "bt2020nc",
"color_primaries": "bt2020",
"color_transfer": "smpte2084",
"logs": [
{
"context": "hevc",
"level": 48,
"category": 6,
"message": "[hevc @ 0x55cb0242da80] nal_unit_type: 1(TRAIL_R), nuh_layer_id: 0, temporal_id: 0"
},
{
"context": "hevc",
"level": 48,
"category": 6,
"message": "[hevc @ 0x55cb0242da80] Output frame with POC 15."
},
{
"context": "hevc",
"level": 48,
"category": 6,
"message": "[hevc @ 0x55cb0242da80] Decoded frame with POC 18."
}
]
},
{
"media_type": "audio",
"stream_index": 1,
"key_frame": 1,
"pkt_pts": 12288,
"pkt_pts_time": "0.256000",
"pkt_dts": 12288,
"pkt_dts_time": "0.256000",
"best_effort_timestamp": 12288,
"best_effort_timestamp_time": "0.256000",
"pkt_duration": 1024,
"pkt_duration_time": "0.021333",
"pkt_pos": "688147",
"pkt_size": "317",
"sample_fmt": "fltp",
"nb_samples": 1024,
"channels": 2,
"channel_layout": "stereo"
},
{
"media_type": "video",
"stream_index": 0,
"key_frame": 0,
"pkt_pts": 3200,
"pkt_pts_time": "0.266934",
"pkt_dts": 3200,
"pkt_dts_time": "0.266934",
"best_effort_timestamp": 3200,
"best_effort_timestamp_time": "0.266934",
"pkt_duration": 200,
"pkt_duration_time": "0.016683",
"pkt_pos": "533581",
"pkt_size": "61128",
"width": 3840,
"height": 2160,
"pix_fmt": "yuv420p10le",
"sample_aspect_ratio": "1:1",
"pict_type": "P",
"coded_picture_number": 0,
"display_picture_number": 0,
"interlaced_frame": 0,
"top_field_first": 0,
"repeat_pict": 0,
"color_range": "tv",
"color_space": "bt2020nc",
"color_primaries": "bt2020",
"color_transfer": "smpte2084",
"logs": [
{
"context": "hevc",
"level": 48,
"category": 6,
"message": "[hevc @ 0x55cb0242da80] nal_unit_type: 0(TRAIL_N), nuh_layer_id: 0, temporal_id: 0"
},
{
"context": "hevc",
"level": 48,
"category": 6,
"message": "[hevc @ 0x55cb0242da80] Output frame with POC 16."
},
{
"context": "hevc",
"level": 48,
"category": 6,
"message": "[hevc @ 0x55cb0242da80] Decoded frame with POC 17."
}
]
},
{
"media_type": "audio",
"stream_index": 1,
"key_frame": 1,
"pkt_pts": 13312,
"pkt_pts_time": "0.277333",
"pkt_dts": 13312,
"pkt_dts_time": "0.277333",
"best_effort_timestamp": 13312,
"best_effort_timestamp_time": "0.277333",
"pkt_duration": 1024,
"pkt_duration_time": "0.021333",
"pkt_pos": "689086",
"pkt_size": "325",
"sample_fmt": "fltp",
"nb_samples": 1024,
"channels": 2,
"channel_layout": "stereo"
},
{
"media_type": "video",
"stream_index": 0,
"key_frame": 0,
"pkt_pts": 3400,
"pkt_pts_time": "0.283617",
"pkt_dts": 3400,
"pkt_dts_time": "0.283617",
"best_effort_timestamp": 3400,
"best_effort_timestamp_time": "0.283617",
"pkt_duration": 200,
"pkt_duration_time": "0.016683",
"pkt_pos": "688464",
"pkt_size": "622",
"width": 3840,
"height": 2160,
"pix_fmt": "yuv420p10le",
"sample_aspect_ratio": "1:1",
"pict_type": "B",
"coded_picture_number": 0,
"display_picture_number": 0,
"interlaced_frame": 0,
"top_field_first": 0,
"repeat_pict": 0,
"color_range": "tv",
"color_space": "bt2020nc",
"color_primaries": "bt2020",
"color_transfer": "smpte2084",
"logs": [
{
"context": "hevc",
"level": 48,
"category": 6,
"message": "[hevc @ 0x55cb0242da80] nal_unit_type: 1(TRAIL_R), nuh_layer_id: 0, temporal_id: 0"
},
{
"context": "hevc",
"level": 48,
"category": 6,
"message": "[hevc @ 0x55cb0242da80] Output frame with POC 17."
},
{
"context": "hevc",
"level": 48,
"category": 6,
"message": "[hevc @ 0x55cb0242da80] Decoded frame with POC 22."
}
]
},
{
"media_type": "audio",
"stream_index": 1,
"key_frame": 1,
"pkt_pts": 14336,
"pkt_pts_time": "0.298667",
"pkt_dts": 14336,
"pkt_dts_time": "0.298667",
"best_effort_timestamp": 14336,
"best_effort_timestamp_time": "0.298667",
"pkt_duration": 1024,
"pkt_duration_time": "0.021333",
"pkt_pos": "776634",
"pkt_size": "316",
"sample_fmt": "fltp",
"nb_samples": 1024,
"channels": 2,
"channel_layout": "stereo"
},
{
"media_type": "video",
"stream_index": 0,
"key_frame": 0,
"pkt_pts": 3600,
"pkt_pts_time": "0.300300",
"pkt_dts": 3600,
"pkt_dts_time": "0.300300",
"best_effort_timestamp": 3600,
"best_effort_timestamp_time": "0.300300",
"pkt_duration": 200,
"pkt_duration_time": "0.016683",
"pkt_pos": "596208",
"pkt_size": "91939",
"width": 3840,
"height": 2160,
"pix_fmt": "yuv420p10le",
"sample_aspect_ratio": "1:1",
"pict_type": "P",
"coded_picture_number": 0,
"display_picture_number": 0,
"interlaced_frame": 0,
"top_field_first": 0,
"repeat_pict": 0,
"color_range": "tv",
"color_space": "bt2020nc",
"color_primaries": "bt2020",
"color_transfer": "smpte2084",
"logs": [
{
"context": "hevc",
"level": 48,
"category": 6,
"message": "[hevc @ 0x55cb0242da80] nal_unit_type: 1(TRAIL_R), nuh_layer_id: 0, temporal_id: 0"
},
{
"context": "hevc",
"level": 48,
"category": 6,
"message": "[hevc @ 0x55cb0242da80] Output frame with POC 18."
},
{
"context": "hevc",
"level": 48,
"category": 6,
"message": "[hevc @ 0x55cb0242da80] Decoded frame with POC 20."
}
]
},
{
"media_type": "video",
"stream_index": 0,
"key_frame": 0,
"pkt_pts": 3800,
"pkt_pts_time": "0.316984",
"pkt_dts": 3800,
"pkt_dts_time": "0.316984",
"best_effort_timestamp": 3800,
"best_effort_timestamp_time": "0.316984",
"pkt_duration": 200,
"pkt_duration_time": "0.016683",
"pkt_pos": "812027",
"pkt_size": "1039",
"width": 3840,
"height": 2160,
"pix_fmt": "yuv420p10le",
"sample_aspect_ratio": "1:1",
"pict_type": "B",
"coded_picture_number": 0,
"display_picture_number": 0,
"interlaced_frame": 0,
"top_field_first": 0,
"repeat_pict": 0,
"color_range": "tv",
"color_space": "bt2020nc",
"color_primaries": "bt2020",
"color_transfer": "smpte2084",
"logs": [
{
"context": "hevc",
"level": 48,
"category": 6,
"message": "[hevc @ 0x55cb0242da80] nal_unit_type: 0(TRAIL_N), nuh_layer_id: 0, temporal_id: 0"
},
{
"context": "hevc",
"level": 48,
"category": 6,
"message": "[hevc @ 0x55cb0242da80] Output frame with POC 19."
},
{
"context": "hevc",
"level": 48,
"category": 6,
"message": "[hevc @ 0x55cb0242da80] Decoded frame with POC 19."
}
]
},
{
"media_type": "audio",
"stream_index": 1,
"key_frame": 1,
"pkt_pts": 15360,
"pkt_pts_time": "0.320000",
"pkt_dts": 15360,
"pkt_dts_time": "0.320000",
"best_effort_timestamp": 15360,
"best_effort_timestamp_time": "0.320000",
"pkt_duration": 1024,
"pkt_duration_time": "0.021333",
"pkt_pos": "813066",
"pkt_size": "311",
"sample_fmt": "fltp",
"nb_samples": 1024,
"channels": 2,
"channel_layout": "stereo"
},
{
"media_type": "video",
"stream_index": 0,
"key_frame": 0,
"pkt_pts": 4000,
"pkt_pts_time": "0.333667",
"pkt_dts": 4000,
"pkt_dts_time": "0.333667",
"best_effort_timestamp": 4000,
"best_effort_timestamp_time": "0.333667",
"pkt_duration": 200,
"pkt_duration_time": "0.016683",
"pkt_pos": "776950",
"pkt_size": "35077",
"width": 3840,
"height": 2160,
"pix_fmt": "yuv420p10le",
"sample_aspect_ratio": "1:1",
"pict_type": "B",
"coded_picture_number": 0,
"display_picture_number": 0,
"interlaced_frame": 0,
"top_field_first": 0,
"repeat_pict": 0,
"color_range": "tv",
"color_space": "bt2020nc",
"color_primaries": "bt2020",
"color_transfer": "smpte2084",
"logs": [
{
"context": "hevc",
"level": 48,
"category": 6,
"message": "[hevc @ 0x55cb0242da80] nal_unit_type: 0(TRAIL_N), nuh_layer_id: 0, temporal_id: 0"
},
{
"context": "hevc",
"level": 48,
"category": 6,
"message": "[hevc @ 0x55cb0242da80] Output frame with POC 20."
},
{
"context": "hevc",
"level": 48,
"category": 6,
"message": "[hevc @ 0x55cb0242da80] Decoded frame with POC 21."
}
]
},
{
"media_type": "audio",
"stream_index": 1,
"key_frame": 1,
"pkt_pts": 16384,
"pkt_pts_time": "0.341333",
"pkt_dts": 16384,
"pkt_dts_time": "0.341333",
"best_effort_timestamp": 16384,
"best_effort_timestamp_time": "0.341333",
"pkt_duration": 1024,
"pkt_duration_time": "0.021333",
"pkt_pos": "814473",
"pkt_size": "321",
"sample_fmt": "fltp",
"nb_samples": 1024,
"channels": 2,
"channel_layout": "stereo"
},
{
"media_type": "video",
"stream_index": 0,
"key_frame": 0,
"pkt_pts": 4200,
"pkt_pts_time": "0.350350",
"pkt_dts": 4200,
"pkt_dts_time": "0.350350",
"best_effort_timestamp": 4200,
"best_effort_timestamp_time": "0.350350",
"pkt_duration": 200,
"pkt_duration_time": "0.016683",
"pkt_pos": "813377",
"pkt_size": "1096",
"width": 3840,
"height": 2160,
"pix_fmt": "yuv420p10le",
"sample_aspect_ratio": "1:1",
"pict_type": "B",
"coded_picture_number": 0,
"display_picture_number": 0,
"interlaced_frame": 0,
"top_field_first": 0,
"repeat_pict": 0,
"color_range": "tv",
"color_space": "bt2020nc",
"color_primaries": "bt2020",
"color_transfer": "smpte2084",
"logs": [
{
"context": "hevc",
"level": 48,
"category": 6,
"message": "[hevc @ 0x55cb0242da80] nal_unit_type: 1(TRAIL_R), nuh_layer_id: 0, temporal_id: 0"
},
{
"context": "hevc",
"level": 48,
"category": 6,
"message": "[hevc @ 0x55cb0242da80] Output frame with POC 21."
},
{
"context": "hevc",
"level": 48,
"category": 6,
"message": "[hevc @ 0x55cb0242da80] Decoded frame with POC 26."
}
]
},
{
"media_type": "audio",
"stream_index": 1,
"key_frame": 1,
"pkt_pts": 17408,
"pkt_pts_time": "0.362667",
"pkt_dts": 17408,
"pkt_dts_time": "0.362667",
"best_effort_timestamp": 17408,
"best_effort_timestamp_time": "0.362667",
"pkt_duration": 1024,
"pkt_duration_time": "0.021333",
"pkt_pos": "889670",
"pkt_size": "329",
"sample_fmt": "fltp",
"nb_samples": 1024,
"channels": 2,
"channel_layout": "stereo"
},
{
"media_type": "video",
"stream_index": 0,
"key_frame": 0,
"pkt_pts": 4400,
"pkt_pts_time": "0.367034",
"pkt_dts": 4400,
"pkt_dts_time": "0.367034",
"best_effort_timestamp": 4400,
"best_effort_timestamp_time": "0.367034",
"pkt_duration": 200,
"pkt_duration_time": "0.016683",
"pkt_pos": "689411",
"pkt_size": "87223",
"width": 3840,
"height": 2160,
"pix_fmt": "yuv420p10le",
"sample_aspect_ratio": "1:1",
"pict_type": "P",
"coded_picture_number": 0,
"display_picture_number": 0,
"interlaced_frame": 0,
"top_field_first": 0,
"repeat_pict": 0,
"color_range": "tv",
"color_space": "bt2020nc",
"color_primaries": "bt2020",
"color_transfer": "smpte2084",
"logs": [
{
"context": "hevc",
"level": 48,
"category": 6,
"message": "[hevc @ 0x55cb0242da80] nal_unit_type: 1(TRAIL_R), nuh_layer_id: 0, temporal_id: 0"
},
{
"context": "hevc",
"level": 48,
"category": 6,
"message": "[hevc @ 0x55cb0242da80] Output frame with POC 22."
},
{
"context": "hevc",
"level": 48,
"category": 6,
"message": "[hevc @ 0x55cb0242da80] Decoded frame with POC 24."
}
]
},
{
"media_type": "video",
"stream_index": 0,
"key_frame": 0,
"pkt_pts": 4600,
"pkt_pts_time": "0.383717",
"pkt_dts": 4600,
"pkt_dts_time": "0.383717",
"best_effort_timestamp": 4600,
"best_effort_timestamp_time": "0.383717",
"pkt_duration": 200,
"pkt_duration_time": "0.016683",
"pkt_pos": "918447",
"pkt_size": "831",
"width": 3840,
"height": 2160,
"pix_fmt": "yuv420p10le",
"sample_aspect_ratio": "1:1",
"pict_type": "B",
"coded_picture_number": 0,
"display_picture_number": 0,
"interlaced_frame": 0,
"top_field_first": 0,
"repeat_pict": 0,
"color_range": "tv",
"color_space": "bt2020nc",
"color_primaries": "bt2020",
"color_transfer": "smpte2084",
"logs": [
{
"context": "hevc",
"level": 48,
"category": 6,
"message": "[hevc @ 0x55cb0242da80] nal_unit_type: 0(TRAIL_N), nuh_layer_id: 0, temporal_id: 0"
},
{
"context": "hevc",
"level": 48,
"category": 6,
"message": "[hevc @ 0x55cb0242da80] Output frame with POC 23."
},
{
"context": "hevc",
"level": 48,
"category": 6,
"message": "[hevc @ 0x55cb0242da80] Decoded frame with POC 23."
}
]
},
{
"media_type": "audio",
"stream_index": 1,
"key_frame": 1,
"pkt_pts": 18432,
"pkt_pts_time": "0.384000",
"pkt_dts": 18432,
"pkt_dts_time": "0.384000",
"best_effort_timestamp": 18432,
"best_effort_timestamp_time": "0.384000",
"pkt_duration": 1024,
"pkt_duration_time": "0.021333",
"pkt_pos": "919278",
"pkt_size": "345",
"sample_fmt": "fltp",
"nb_samples": 1024,
"channels": 2,
"channel_layout": "stereo"
},
{
"media_type": "video",
"stream_index": 0,
"key_frame": 0,
"pkt_pts": 4800,
"pkt_pts_time": "0.400400",
"pkt_dts": 4800,
"pkt_dts_time": "0.400400",
"best_effort_timestamp": 4800,
"best_effort_timestamp_time": "0.400400",
"pkt_duration": 200,
"pkt_duration_time": "0.016683",
"pkt_pos": "889999",
"pkt_size": "28448",
"width": 3840,
"height": 2160,
"pix_fmt": "yuv420p10le",
"sample_aspect_ratio": "1:1",
"pict_type": "B",
"coded_picture_number": 0,
"display_picture_number": 0,
"interlaced_frame": 0,
"top_field_first": 0,
"repeat_pict": 0,
"color_range": "tv",
"color_space": "bt2020nc",
"color_primaries": "bt2020",
"color_transfer": "smpte2084",
"logs": [
{
"context": "hevc",
"level": 48,
"category": 6,
"message": "[hevc @ 0x55cb0242da80] nal_unit_type: 0(TRAIL_N), nuh_layer_id: 0, temporal_id: 0"
},
{
"context": "hevc",
"level": 48,
"category": 6,
"message": "[hevc @ 0x55cb0242da80] Output frame with POC 24."
},
{
"context": "hevc",
"level": 48,
"category": 6,
"message": "[hevc @ 0x55cb0242da80] Decoded frame with POC 25."
}
]
},
{
"media_type": "audio",
"stream_index": 1,
"key_frame": 1,
"pkt_pts": 19456,
"pkt_pts_time": "0.405333",
"pkt_dts": 19456,
"pkt_dts_time": "0.405333",
"best_effort_timestamp": 19456,
"best_effort_timestamp_time": "0.405333",
"pkt_duration": 1024,
"pkt_duration_time": "0.021333",
"pkt_pos": "920804",
"pkt_size": "333",
"sample_fmt": "fltp",
"nb_samples": 1024,
"channels": 2,
"channel_layout": "stereo"
},
{
"media_type": "video",
"stream_index": 0,
"key_frame": 0,
"pkt_pts": 5000,
"pkt_pts_time": "0.417084",
"pkt_dts": 5000,
"pkt_dts_time": "0.417084",
"best_effort_timestamp": 5000,
"best_effort_timestamp_time": "0.417084",
"pkt_duration": 200,
"pkt_duration_time": "0.016683",
"pkt_pos": "919623",
"pkt_size": "1181",
"width": 3840,
"height": 2160,
"pix_fmt": "yuv420p10le",
"sample_aspect_ratio": "1:1",
"pict_type": "B",
"coded_picture_number": 0,
"display_picture_number": 0,
"interlaced_frame": 0,
"top_field_first": 0,
"repeat_pict": 0,
"color_range": "tv",
"color_space": "bt2020nc",
"color_primaries": "bt2020",
"color_transfer": "smpte2084",
"logs": [
{
"context": "hevc",
"level": 48,
"category": 6,
"message": "[hevc @ 0x55cb0242da80] nal_unit_type: 1(TRAIL_R), nuh_layer_id: 0, temporal_id: 0"
},
{
"context": "hevc",
"level": 48,
"category": 6,
"message": "[hevc @ 0x55cb0242da80] Output frame with POC 25."
},
{
"context": "hevc",
"level": 48,
"category": 6,
"message": "[hevc @ 0x55cb0242da80] Decoded frame with POC 30."
}
]
},
{
"media_type": "audio",
"stream_index": 1,
"key_frame": 1,
"pkt_pts": 20480,
"pkt_pts_time": "0.426667",
"pkt_dts": 20480,
"pkt_dts_time": "0.426667",
"best_effort_timestamp": 20480,
"best_effort_timestamp_time": "0.426667",
"pkt_duration": 1024,
"pkt_duration_time": "0.021333",
"pkt_pos": "993166",
"pkt_size": "339",
"sample_fmt": "fltp",
"nb_samples": 1024,
"channels": 2,
"channel_layout": "stereo"
},
{
"media_type": "video",
"stream_index": 0,
"key_frame": 0,
"pkt_pts": 5200,
"pkt_pts_time": "0.433767",
"pkt_dts": 5200,
"pkt_dts_time": "0.433767",
"best_effort_timestamp": 5200,
"best_effort_timestamp_time": "0.433767",
"pkt_duration": 200,
"pkt_duration_time": "0.016683",
"pkt_pos": "814794",
"pkt_size": "74876",
"width": 3840,
"height": 2160,
"pix_fmt": "yuv420p10le",
"sample_aspect_ratio": "1:1",
"pict_type": "P",
"coded_picture_number": 0,
"display_picture_number": 0,
"interlaced_frame": 0,
"top_field_first": 0,
"repeat_pict": 0,
"color_range": "tv",
"color_space": "bt2020nc",
"color_primaries": "bt2020",
"color_transfer": "smpte2084",
"logs": [
{
"context": "hevc",
"level": 48,
"category": 6,
"message": "[hevc @ 0x55cb0242da80] nal_unit_type: 1(TRAIL_R), nuh_layer_id: 0, temporal_id: 0"
},
{
"context": "hevc",
"level": 48,
"category": 6,
"message": "[hevc @ 0x55cb0242da80] Output frame with POC 26."
},
{
"context": "hevc",
"level": 48,
"category": 6,
"message": "[hevc @ 0x55cb0242da80] Decoded frame with POC 28."
}
]
},
{
"media_type": "audio",
"stream_index": 1,
"key_frame": 1,
"pkt_pts": 21504,
"pkt_pts_time": "0.448000",
"pkt_dts": 21504,
"pkt_dts_time": "0.448000",
"best_effort_timestamp": 21504,
"best_effort_timestamp_time": "0.448000",
"pkt_duration": 1024,
"pkt_duration_time": "0.021333",
"pkt_pos": "1022270",
"pkt_size": "326",
"sample_fmt": "fltp",
"nb_samples": 1024,
"channels": 2,
"channel_layout": "stereo"
},
{
"media_type": "video",
"stream_index": 0,
"key_frame": 0,
"pkt_pts": 5400,
"pkt_pts_time": "0.450450",
"pkt_dts": 5400,
"pkt_dts_time": "0.450450",
"best_effort_timestamp": 5400,
"best_effort_timestamp_time": "0.450450",
"pkt_duration": 200,
"pkt_duration_time": "0.016683",
"pkt_pos": "1022596",
"pkt_size": "826",
"width": 3840,
"height": 2160,
"pix_fmt": "yuv420p10le",
"sample_aspect_ratio": "1:1",
"pict_type": "B",
"coded_picture_number": 0,
"display_picture_number": 0,
"interlaced_frame": 0,
"top_field_first": 0,
"repeat_pict": 0,
"color_range": "tv",
"color_space": "bt2020nc",
"color_primaries": "bt2020",
"color_transfer": "smpte2084",
"logs": [
{
"context": "hevc",
"level": 48,
"category": 6,
"message": "[hevc @ 0x55cb0242da80] nal_unit_type: 0(TRAIL_N), nuh_layer_id: 0, temporal_id: 0"
},
{
"context": "hevc",
"level": 48,
"category": 6,
"message": "[hevc @ 0x55cb0242da80] Output frame with POC 27."
},
{
"context": "hevc",
"level": 48,
"category": 6,
"message": "[hevc @ 0x55cb0242da80] Decoded frame with POC 27."
}
]
},
{
"media_type": "video",
"stream_index": 0,
"key_frame": 0,
"pkt_pts": 5600,
"pkt_pts_time": "0.467134",
"pkt_dts": 5600,
"pkt_dts_time": "0.467134",
"best_effort_timestamp": 5600,
"best_effort_timestamp_time": "0.467134",
"pkt_duration": 200,
"pkt_duration_time": "0.016683",
"pkt_pos": "993505",
"pkt_size": "28765",
"width": 3840,
"height": 2160,
"pix_fmt": "yuv420p10le",
"sample_aspect_ratio": "1:1",
"pict_type": "B",
"coded_picture_number": 0,
"display_picture_number": 0,
"interlaced_frame": 0,
"top_field_first": 0,
"repeat_pict": 0,
"color_range": "tv",
"color_space": "bt2020nc",
"color_primaries": "bt2020",
"color_transfer": "smpte2084",
"logs": [
{
"context": "hevc",
"level": 48,
"category": 6,
"message": "[hevc @ 0x55cb0242da80] nal_unit_type: 0(TRAIL_N), nuh_layer_id: 0, temporal_id: 0"
},
{
"context": "hevc",
"level": 48,
"category": 6,
"message": "[hevc @ 0x55cb0242da80] Output frame with POC 28."
},
{
"context": "hevc",
"level": 48,
"category": 6,
"message": "[hevc @ 0x55cb0242da80] Decoded frame with POC 29."
}
]
},
{
"media_type": "audio",
"stream_index": 1,
"key_frame": 1,
"pkt_pts": 22528,
"pkt_pts_time": "0.469333",
"pkt_dts": 22528,
"pkt_dts_time": "0.469333",
"best_effort_timestamp": 22528,
"best_effort_timestamp_time": "0.469333",
"pkt_duration": 1024,
"pkt_duration_time": "0.021333",
"pkt_pos": "1024460",
"pkt_size": "329",
"sample_fmt": "fltp",
"nb_samples": 1024,
"channels": 2,
"channel_layout": "stereo"
},
{
"media_type": "video",
"stream_index": 0,
"key_frame": 0,
"pkt_pts": 5800,
"pkt_pts_time": "0.483817",
"pkt_dts": 5800,
"pkt_dts_time": "0.483817",
"best_effort_timestamp": 5800,
"best_effort_timestamp_time": "0.483817",
"pkt_duration": 200,
"pkt_duration_time": "0.016683",
"pkt_pos": "1023422",
"pkt_size": "1038",
"width": 3840,
"height": 2160,
"pix_fmt": "yuv420p10le",
"sample_aspect_ratio": "1:1",
"pict_type": "B",
"coded_picture_number": 0,
"display_picture_number": 0,
"interlaced_frame": 0,
"top_field_first": 0,
"repeat_pict": 0,
"color_range": "tv",
"color_space": "bt2020nc",
"color_primaries": "bt2020",
"color_transfer": "smpte2084",
"logs": [
{
"context": "hevc",
"level": 48,
"category": 6,
"message": "[hevc @ 0x55cb0242da80] nal_unit_type: 1(TRAIL_R), nuh_layer_id: 0, temporal_id: 0"
},
{
"context": "hevc",
"level": 48,
"category": 6,
"message": "[hevc @ 0x55cb0242da80] Output frame with POC 29."
},
{
"context": "hevc",
"level": 48,
"category": 6,
"message": "[hevc @ 0x55cb0242da80] Decoded frame with POC 34."
}
]
},
{
"media_type": "audio",
"stream_index": 1,
"key_frame": 1,
"pkt_pts": 23552,
"pkt_pts_time": "0.490667",
"pkt_dts": 23552,
"pkt_dts_time": "0.490667",
"best_effort_timestamp": 23552,
"best_effort_timestamp_time": "0.490667",
"pkt_duration": 1024,
"pkt_duration_time": "0.021333",
"pkt_pos": "1097258",
"pkt_size": "326",
"sample_fmt": "fltp",
"nb_samples": 1024,
"channels": 2,
"channel_layout": "stereo"
},
{
"media_type": "video",
"stream_index": 0,
"key_frame": 0,
"pkt_pts": 6000,
"pkt_pts_time": "0.500501",
"pkt_dts": 6000,
"pkt_dts_time": "0.500501",
"best_effort_timestamp": 6000,
"best_effort_timestamp_time": "0.500501",
"pkt_duration": 200,
"pkt_duration_time": "0.016683",
"pkt_pos": "921137",
"pkt_size": "72029",
"width": 3840,
"height": 2160,
"pix_fmt": "yuv420p10le",
"sample_aspect_ratio": "1:1",
"pict_type": "P",
"coded_picture_number": 0,
"display_picture_number": 0,
"interlaced_frame": 0,
"top_field_first": 0,
"repeat_pict": 0,
"color_range": "tv",
"color_space": "bt2020nc",
"color_primaries": "bt2020",
"color_transfer": "smpte2084",
"logs": [
{
"context": "hevc",
"level": 48,
"category": 6,
"message": "[hevc @ 0x55cb0242da80] nal_unit_type: 1(TRAIL_R), nuh_layer_id: 0, temporal_id: 0"
},
{
"context": "hevc",
"level": 48,
"category": 6,
"message": "[hevc @ 0x55cb0242da80] Output frame with POC 30."
},
{
"context": "hevc",
"level": 48,
"category": 6,
"message": "[hevc @ 0x55cb0242da80] Decoded frame with POC 32."
}
]
},
{
"media_type": "audio",
"stream_index": 1,
"key_frame": 1,
"pkt_pts": 24576,
"pkt_pts_time": "0.512000",
"pkt_dts": 24576,
"pkt_dts_time": "0.512000",
"best_effort_timestamp": 24576,
"best_effort_timestamp_time": "0.512000",
"pkt_duration": 1024,
"pkt_duration_time": "0.021333",
"pkt_pos": "1123356",
"pkt_size": "332",
"sample_fmt": "fltp",
"nb_samples": 1024,
"channels": 2,
"channel_layout": "stereo"
},
{
"media_type": "video",
"stream_index": 0,
"key_frame": 0,
"pkt_pts": 6200,
"pkt_pts_time": "0.517184",
"pkt_dts": 6200,
"pkt_dts_time": "0.517184",
"best_effort_timestamp": 6200,
"best_effort_timestamp_time": "0.517184",
"pkt_duration": 200,
"pkt_duration_time": "0.016683",
"pkt_pos": "1123688",
"pkt_size": "774",
"width": 3840,
"height": 2160,
"pix_fmt": "yuv420p10le",
"sample_aspect_ratio": "1:1",
"pict_type": "B",
"coded_picture_number": 0,
"display_picture_number": 0,
"interlaced_frame": 0,
"top_field_first": 0,
"repeat_pict": 0,
"color_range": "tv",
"color_space": "bt2020nc",
"color_primaries": "bt2020",
"color_transfer": "smpte2084",
"logs": [
{
"context": "hevc",
"level": 48,
"category": 6,
"message": "[hevc @ 0x55cb0242da80] nal_unit_type: 0(TRAIL_N), nuh_layer_id: 0, temporal_id: 0"
},
{
"context": "hevc",
"level": 48,
"category": 6,
"message": "[hevc @ 0x55cb0242da80] Output frame with POC 31."
},
{
"context": "hevc",
"level": 48,
"category": 6,
"message": "[hevc @ 0x55cb0242da80] Decoded frame with POC 31."
}
]
},
{
"media_type": "audio",
"stream_index": 1,
"key_frame": 1,
"pkt_pts": 25600,
"pkt_pts_time": "0.533333",
"pkt_dts": 25600,
"pkt_dts_time": "0.533333",
"best_effort_timestamp": 25600,
"best_effort_timestamp_time": "0.533333",
"pkt_duration": 1024,
"pkt_duration_time": "0.021333",
"pkt_pos": "1124462",
"pkt_size": "336",
"sample_fmt": "fltp",
"nb_samples": 1024,
"channels": 2,
"channel_layout": "stereo"
},
{
"media_type": "video",
"stream_index": 0,
"key_frame": 0,
"pkt_pts": 6400,
"pkt_pts_time": "0.533867",
"pkt_dts": 6400,
"pkt_dts_time": "0.533867",
"best_effort_timestamp": 6400,
"best_effort_timestamp_time": "0.533867",
"pkt_duration": 200,
"pkt_duration_time": "0.016683",
"pkt_pos": "1097584",
"pkt_size": "25772",
"width": 3840,
"height": 2160,
"pix_fmt": "yuv420p10le",
"sample_aspect_ratio": "1:1",
"pict_type": "B",
"coded_picture_number": 0,
"display_picture_number": 0,
"interlaced_frame": 0,
"top_field_first": 0,
"repeat_pict": 0,
"color_range": "tv",
"color_space": "bt2020nc",
"color_primaries": "bt2020",
"color_transfer": "smpte2084",
"logs": [
{
"context": "hevc",
"level": 48,
"category": 6,
"message": "[hevc @ 0x55cb0242da80] nal_unit_type: 0(TRAIL_N), nuh_layer_id: 0, temporal_id: 0"
},
{
"context": "hevc",
"level": 48,
"category": 6,
"message": "[hevc @ 0x55cb0242da80] Output frame with POC 32."
},
{
"context": "hevc",
"level": 48,
"category": 6,
"message": "[hevc @ 0x55cb0242da80] Decoded frame with POC 33."
}
]
},
{
"media_type": "video",
"stream_index": 0,
"key_frame": 0,
"pkt_pts": 6600,
"pkt_pts_time": "0.550551",
"pkt_dts": 6600,
"pkt_dts_time": "0.550551",
"best_effort_timestamp": 6600,
"best_effort_timestamp_time": "0.550551",
"pkt_duration": 200,
"pkt_duration_time": "0.016683",
"pkt_pos": "1124798",
"pkt_size": "1084",
"width": 3840,
"height": 2160,
"pix_fmt": "yuv420p10le",
"sample_aspect_ratio": "1:1",
"pict_type": "B",
"coded_picture_number": 0,
"display_picture_number": 0,
"interlaced_frame": 0,
"top_field_first": 0,
"repeat_pict": 0,
"color_range": "tv",
"color_space": "bt2020nc",
"color_primaries": "bt2020",
"color_transfer": "smpte2084",
"logs": [
{
"context": "hevc",
"level": 48,
"category": 6,
"message": "[hevc @ 0x55cb0242da80] nal_unit_type: 1(TRAIL_R), nuh_layer_id: 0, temporal_id: 0"
},
{
"context": "hevc",
"level": 48,
"category": 6,
"message": "[hevc @ 0x55cb0242da80] Output frame with POC 33."
},
{
"context": "hevc",
"level": 48,
"category": 6,
"message": "[hevc @ 0x55cb0242da80] Decoded frame with POC 38."
}
]
},
{
"media_type": "audio",
"stream_index": 1,
"key_frame": 1,
"pkt_pts": 26624,
"pkt_pts_time": "0.554667",
"pkt_dts": 26624,
"pkt_dts_time": "0.554667",
"best_effort_timestamp": 26624,
"best_effort_timestamp_time": "0.554667",
"pkt_duration": 1024,
"pkt_duration_time": "0.021333",
"pkt_pos": "1198124",
"pkt_size": "333",
"sample_fmt": "fltp",
"nb_samples": 1024,
"channels": 2,
"channel_layout": "stereo"
},
{
"media_type": "video",
"stream_index": 0,
"key_frame": 0,
"pkt_pts": 6800,
"pkt_pts_time": "0.567234",
"pkt_dts": 6800,
"pkt_dts_time": "0.567234",
"best_effort_timestamp": 6800,
"best_effort_timestamp_time": "0.567234",
"pkt_duration": 200,
"pkt_duration_time": "0.016683",
"pkt_pos": "1024789",
"pkt_size": "72469",
"width": 3840,
"height": 2160,
"pix_fmt": "yuv420p10le",
"sample_aspect_ratio": "1:1",
"pict_type": "P",
"coded_picture_number": 0,
"display_picture_number": 0,
"interlaced_frame": 0,
"top_field_first": 0,
"repeat_pict": 0,
"color_range": "tv",
"color_space": "bt2020nc",
"color_primaries": "bt2020",
"color_transfer": "smpte2084",
"logs": [
{
"context": "hevc",
"level": 48,
"category": 6,
"message": "[hevc @ 0x55cb0242da80] nal_unit_type: 1(TRAIL_R), nuh_layer_id: 0, temporal_id: 0"
},
{
"context": "hevc",
"level": 48,
"category": 6,
"message": "[hevc @ 0x55cb0242da80] Output frame with POC 34."
},
{
"context": "hevc",
"level": 48,
"category": 6,
"message": "[hevc @ 0x55cb0242da80] Decoded frame with POC 36."
}
]
},
{
"media_type": "audio",
"stream_index": 1,
"key_frame": 1,
"pkt_pts": 27648,
"pkt_pts_time": "0.576000",
"pkt_dts": 27648,
"pkt_dts_time": "0.576000",
"best_effort_timestamp": 27648,
"best_effort_timestamp_time": "0.576000",
"pkt_duration": 1024,
"pkt_duration_time": "0.021333",
"pkt_pos": "1226047",
"pkt_size": "340",
"sample_fmt": "fltp",
"nb_samples": 1024,
"channels": 2,
"channel_layout": "stereo"
},
{
"media_type": "video",
"stream_index": 0,
"key_frame": 0,
"pkt_pts": 7000,
"pkt_pts_time": "0.583917",
"pkt_dts": 7000,
"pkt_dts_time": "0.583917",
"best_effort_timestamp": 7000,
"best_effort_timestamp_time": "0.583917",
"pkt_duration": 200,
"pkt_duration_time": "0.016683",
"pkt_pos": "1226387",
"pkt_size": "788",
"width": 3840,
"height": 2160,
"pix_fmt": "yuv420p10le",
"sample_aspect_ratio": "1:1",
"pict_type": "B",
"coded_picture_number": 0,
"display_picture_number": 0,
"interlaced_frame": 0,
"top_field_first": 0,
"repeat_pict": 0,
"color_range": "tv",
"color_space": "bt2020nc",
"color_primaries": "bt2020",
"color_transfer": "smpte2084",
"logs": [
{
"context": "hevc",
"level": 48,
"category": 6,
"message": "[hevc @ 0x55cb0242da80] nal_unit_type: 0(TRAIL_N), nuh_layer_id: 0, temporal_id: 0"
},
{
"context": "hevc",
"level": 48,
"category": 6,
"message": "[hevc @ 0x55cb0242da80] Output frame with POC 35."
},
{
"context": "hevc",
"level": 48,
"category": 6,
"message": "[hevc @ 0x55cb0242da80] Decoded frame with POC 35."
}
]
},
{
"media_type": "audio",
"stream_index": 1,
"key_frame": 1,
"pkt_pts": 28672,
"pkt_pts_time": "0.597333",
"pkt_dts": 28672,
"pkt_dts_time": "0.597333",
"best_effort_timestamp": 28672,
"best_effort_timestamp_time": "0.597333",
"pkt_duration": 1024,
"pkt_duration_time": "0.021333",
"pkt_pos": "1227175",
"pkt_size": "341",
"sample_fmt": "fltp",
"nb_samples": 1024,
"channels": 2,
"channel_layout": "stereo"
},
{
"media_type": "video",
"stream_index": 0,
"key_frame": 0,
"pkt_pts": 7200,
"pkt_pts_time": "0.600601",
"pkt_dts": 7200,
"pkt_dts_time": "0.600601",
"best_effort_timestamp": 7200,
"best_effort_timestamp_time": "0.600601",
"pkt_duration": 200,
"pkt_duration_time": "0.016683",
"pkt_pos": "1198457",
"pkt_size": "27590",
"width": 3840,
"height": 2160,
"pix_fmt": "yuv420p10le",
"sample_aspect_ratio": "1:1",
"pict_type": "B",
"coded_picture_number": 0,
"display_picture_number": 0,
"interlaced_frame": 0,
"top_field_first": 0,
"repeat_pict": 0,
"color_range": "tv",
"color_space": "bt2020nc",
"color_primaries": "bt2020",
"color_transfer": "smpte2084",
"logs": [
{
"context": "hevc",
"level": 48,
"category": 6,
"message": "[hevc @ 0x55cb0242da80] nal_unit_type: 0(TRAIL_N), nuh_layer_id: 0, temporal_id: 0"
},
{
"context": "hevc",
"level": 48,
"category": 6,
"message": "[hevc @ 0x55cb0242da80] Output frame with POC 36."
},
{
"context": "hevc",
"level": 48,
"category": 6,
"message": "[hevc @ 0x55cb0242da80] Decoded frame with POC 37."
}
]
},
{
"media_type": "video",
"stream_index": 0,
"key_frame": 0,
"pkt_pts": 7400,
"pkt_pts_time": "0.617284",
"pkt_dts": 7400,
"pkt_dts_time": "0.617284",
"best_effort_timestamp": 7400,
"best_effort_timestamp_time": "0.617284",
"pkt_duration": 200,
"pkt_duration_time": "0.016683",
"pkt_pos": "1227516",
"pkt_size": "1202",
"width": 3840,
"height": 2160,
"pix_fmt": "yuv420p10le",
"sample_aspect_ratio": "1:1",
"pict_type": "B",
"coded_picture_number": 0,
"display_picture_number": 0,
"interlaced_frame": 0,
"top_field_first": 0,
"repeat_pict": 0,
"color_range": "tv",
"color_space": "bt2020nc",
"color_primaries": "bt2020",
"color_transfer": "smpte2084",
"logs": [
{
"context": "hevc",
"level": 48,
"category": 6,
"message": "[hevc @ 0x55cb0242da80] nal_unit_type: 1(TRAIL_R), nuh_layer_id: 0, temporal_id: 0"
},
{
"context": "hevc",
"level": 48,
"category": 6,
"message": "[hevc @ 0x55cb0242da80] Output frame with POC 37."
},
{
"context": "hevc",
"level": 48,
"category": 6,
"message": "[hevc @ 0x55cb0242da80] Decoded frame with POC 42."
}
]
},
{
"media_type": "audio",
"stream_index": 1,
"key_frame": 1,
"pkt_pts": 29696,
"pkt_pts_time": "0.618667",
"pkt_dts": 29696,
"pkt_dts_time": "0.618667",
"best_effort_timestamp": 29696,
"best_effort_timestamp_time": "0.618667",
"pkt_duration": 1024,
"pkt_duration_time": "0.021333",
"pkt_pos": "1290346",
"pkt_size": "342",
"sample_fmt": "fltp",
"nb_samples": 1024,
"channels": 2,
"channel_layout": "stereo"
},
{
"media_type": "video",
"stream_index": 0,
"key_frame": 0,
"pkt_pts": 7600,
"pkt_pts_time": "0.633967",
"pkt_dts": 7600,
"pkt_dts_time": "0.633967",
"best_effort_timestamp": 7600,
"best_effort_timestamp_time": "0.633967",
"pkt_duration": 200,
"pkt_duration_time": "0.016683",
"pkt_pos": "1125882",
"pkt_size": "72242",
"width": 3840,
"height": 2160,
"pix_fmt": "yuv420p10le",
"sample_aspect_ratio": "1:1",
"pict_type": "P",
"coded_picture_number": 0,
"display_picture_number": 0,
"interlaced_frame": 0,
"top_field_first": 0,
"repeat_pict": 0,
"color_range": "tv",
"color_space": "bt2020nc",
"color_primaries": "bt2020",
"color_transfer": "smpte2084",
"logs": [
{
"context": "hevc",
"level": 48,
"category": 6,
"message": "[hevc @ 0x55cb0242da80] nal_unit_type: 1(TRAIL_R), nuh_layer_id: 0, temporal_id: 0"
},
{
"context": "hevc",
"level": 48,
"category": 6,
"message": "[hevc @ 0x55cb0242da80] Output frame with POC 38."
},
{
"context": "hevc",
"level": 48,
"category": 6,
"message": "[hevc @ 0x55cb0242da80] Decoded frame with POC 40."
}
]
},
{
"media_type": "audio",
"stream_index": 1,
"key_frame": 1,
"pkt_pts": 30720,
"pkt_pts_time": "0.640000",
"pkt_dts": 30720,
"pkt_dts_time": "0.640000",
"best_effort_timestamp": 30720,
"best_effort_timestamp_time": "0.640000",
"pkt_duration": 1024,
"pkt_duration_time": "0.021333",
"pkt_pos": "1315073",
"pkt_size": "345",
"sample_fmt": "fltp",
"nb_samples": 1024,
"channels": 2,
"channel_layout": "stereo"
},
{
"media_type": "video",
"stream_index": 0,
"key_frame": 0,
"pkt_pts": 7800,
"pkt_pts_time": "0.650651",
"pkt_dts": 7800,
"pkt_dts_time": "0.650651",
"best_effort_timestamp": 7800,
"best_effort_timestamp_time": "0.650651",
"pkt_duration": 200,
"pkt_duration_time": "0.016683",
"pkt_pos": "1315418",
"pkt_size": "1155",
"width": 3840,
"height": 2160,
"pix_fmt": "yuv420p10le",
"sample_aspect_ratio": "1:1",
"pict_type": "B",
"coded_picture_number": 0,
"display_picture_number": 0,
"interlaced_frame": 0,
"top_field_first": 0,
"repeat_pict": 0,
"color_range": "tv",
"color_space": "bt2020nc",
"color_primaries": "bt2020",
"color_transfer": "smpte2084",
"logs": [
{
"context": "hevc",
"level": 48,
"category": 6,
"message": "[hevc @ 0x55cb0242da80] nal_unit_type: 0(TRAIL_N), nuh_layer_id: 0, temporal_id: 0"
},
{
"context": "hevc",
"level": 48,
"category": 6,
"message": "[hevc @ 0x55cb0242da80] Output frame with POC 39."
},
{
"context": "hevc",
"level": 48,
"category": 6,
"message": "[hevc @ 0x55cb0242da80] Decoded frame with POC 39."
}
]
},
{
"media_type": "audio",
"stream_index": 1,
"key_frame": 1,
"pkt_pts": 31744,
"pkt_pts_time": "0.661333",
"pkt_dts": 31744,
"pkt_dts_time": "0.661333",
"best_effort_timestamp": 31744,
"best_effort_timestamp_time": "0.661333",
"pkt_duration": 1024,
"pkt_duration_time": "0.021333",
"pkt_pos": "1316573",
"pkt_size": "340",
"sample_fmt": "fltp",
"nb_samples": 1024,
"channels": 2,
"channel_layout": "stereo"
},
{
"media_type": "video",
"stream_index": 0,
"key_frame": 0,
"pkt_pts": 8000,
"pkt_pts_time": "0.667334",
"pkt_dts": 8000,
"pkt_dts_time": "0.667334",
"best_effort_timestamp": 8000,
"best_effort_timestamp_time": "0.667334",
"pkt_duration": 200,
"pkt_duration_time": "0.016683",
"pkt_pos": "1290688",
"pkt_size": "24385",
"width": 3840,
"height": 2160,
"pix_fmt": "yuv420p10le",
"sample_aspect_ratio": "1:1",
"pict_type": "B",
"coded_picture_number": 0,
"display_picture_number": 0,
"interlaced_frame": 0,
"top_field_first": 0,
"repeat_pict": 0,
"color_range": "tv",
"color_space": "bt2020nc",
"color_primaries": "bt2020",
"color_transfer": "smpte2084",
"logs": [
{
"context": "hevc",
"level": 48,
"category": 6,
"message": "[hevc @ 0x55cb0242da80] nal_unit_type: 0(TRAIL_N), nuh_layer_id: 0, temporal_id: 0"
},
{
"context": "hevc",
"level": 48,
"category": 6,
"message": "[hevc @ 0x55cb0242da80] Output frame with POC 40."
},
{
"context": "hevc",
"level": 48,
"category": 6,
"message": "[hevc @ 0x55cb0242da80] Decoded frame with POC 41."
}
]
},
{
"media_type": "audio",
"stream_index": 1,
"key_frame": 1,
"pkt_pts": 32768,
"pkt_pts_time": "0.682667",
"pkt_dts": 32768,
"pkt_dts_time": "0.682667",
"best_effort_timestamp": 32768,
"best_effort_timestamp_time": "0.682667",
"pkt_duration": 1024,
"pkt_duration_time": "0.021333",
"pkt_pos": "1318105",
"pkt_size": "351",
"sample_fmt": "fltp",
"nb_samples": 1024,
"channels": 2,
"channel_layout": "stereo"
},
{
"media_type": "video",
"stream_index": 0,
"key_frame": 0,
"pkt_pts": 8200,
"pkt_pts_time": "0.684017",
"pkt_dts": 8200,
"pkt_dts_time": "0.684017",
"best_effort_timestamp": 8200,
"best_effort_timestamp_time": "0.684017",
"pkt_duration": 200,
"pkt_duration_time": "0.016683",
"pkt_pos": "1316913",
"pkt_size": "1192",
"width": 3840,
"height": 2160,
"pix_fmt": "yuv420p10le",
"sample_aspect_ratio": "1:1",
"pict_type": "B",
"coded_picture_number": 0,
"display_picture_number": 0,
"interlaced_frame": 0,
"top_field_first": 0,
"repeat_pict": 0,
"color_range": "tv",
"color_space": "bt2020nc",
"color_primaries": "bt2020",
"color_transfer": "smpte2084",
"logs": [
{
"context": "hevc",
"level": 48,
"category": 6,
"message": "[hevc @ 0x55cb0242da80] nal_unit_type: 1(TRAIL_R), nuh_layer_id: 0, temporal_id: 0"
},
{
"context": "hevc",
"level": 48,
"category": 6,
"message": "[hevc @ 0x55cb0242da80] Output frame with POC 41."
},
{
"context": "hevc",
"level": 48,
"category": 6,
"message": "[hevc @ 0x55cb0242da80] Decoded frame with POC 46."
}
]
},
{
"media_type": "video",
"stream_index": 0,
"key_frame": 0,
"pkt_pts": 8400,
"pkt_pts_time": "0.700701",
"pkt_dts": 8400,
"pkt_dts_time": "0.700701",
"best_effort_timestamp": 8400,
"best_effort_timestamp_time": "0.700701",
"pkt_duration": 200,
"pkt_duration_time": "0.016683",
"pkt_pos": "1228718",
"pkt_size": "61628",
"width": 3840,
"height": 2160,
"pix_fmt": "yuv420p10le",
"sample_aspect_ratio": "1:1",
"pict_type": "P",
"coded_picture_number": 0,
"display_picture_number": 0,
"interlaced_frame": 0,
"top_field_first": 0,
"repeat_pict": 0,
"color_range": "tv",
"color_space": "bt2020nc",
"color_primaries": "bt2020",
"color_transfer": "smpte2084",
"logs": [
{
"context": "hevc",
"level": 48,
"category": 6,
"message": "[hevc @ 0x55cb0242da80] nal_unit_type: 1(TRAIL_R), nuh_layer_id: 0, temporal_id: 0"
},
{
"context": "hevc",
"level": 48,
"category": 6,
"message": "[hevc @ 0x55cb0242da80] Output frame with POC 42."
},
{
"context": "hevc",
"level": 48,
"category": 6,
"message": "[hevc @ 0x55cb0242da80] Decoded frame with POC 44."
}
]
},
{
"media_type": "audio",
"stream_index": 1,
"key_frame": 1,
"pkt_pts": 33792,
"pkt_pts_time": "0.704000",
"pkt_dts": 33792,
"pkt_dts_time": "0.704000",
"best_effort_timestamp": 33792,
"best_effort_timestamp_time": "0.704000",
"pkt_duration": 1024,
"pkt_duration_time": "0.021333",
"pkt_pos": "1390164",
"pkt_size": "342",
"sample_fmt": "fltp",
"nb_samples": 1024,
"channels": 2,
"channel_layout": "stereo"
},
{
"media_type": "video",
"stream_index": 0,
"key_frame": 0,
"pkt_pts": 8600,
"pkt_pts_time": "0.717384",
"pkt_dts": 8600,
"pkt_dts_time": "0.717384",
"best_effort_timestamp": 8600,
"best_effort_timestamp_time": "0.717384",
"pkt_duration": 200,
"pkt_duration_time": "0.016683",
"pkt_pos": "1390506",
"pkt_size": "513",
"width": 3840,
"height": 2160,
"pix_fmt": "yuv420p10le",
"sample_aspect_ratio": "1:1",
"pict_type": "B",
"coded_picture_number": 0,
"display_picture_number": 0,
"interlaced_frame": 0,
"top_field_first": 0,
"repeat_pict": 0,
"color_range": "tv",
"color_space": "bt2020nc",
"color_primaries": "bt2020",
"color_transfer": "smpte2084",
"logs": [
{
"context": "hevc",
"level": 48,
"category": 6,
"message": "[hevc @ 0x55cb0242da80] nal_unit_type: 0(TRAIL_N), nuh_layer_id: 0, temporal_id: 0"
},
{
"context": "hevc",
"level": 48,
"category": 6,
"message": "[hevc @ 0x55cb0242da80] Output frame with POC 43."
},
{
"context": "hevc",
"level": 48,
"category": 6,
"message": "[hevc @ 0x55cb0242da80] Decoded frame with POC 43."
}
]
},
{
"media_type": "audio",
"stream_index": 1,
"key_frame": 1,
"pkt_pts": 34816,
"pkt_pts_time": "0.725333",
"pkt_dts": 34816,
"pkt_dts_time": "0.725333",
"best_effort_timestamp": 34816,
"best_effort_timestamp_time": "0.725333",
"pkt_duration": 1024,
"pkt_duration_time": "0.021333",
"pkt_pos": "1391019",
"pkt_size": "344",
"sample_fmt": "fltp",
"nb_samples": 1024,
"channels": 2,
"channel_layout": "stereo"
},
{
"media_type": "video",
"stream_index": 0,
"key_frame": 0,
"pkt_pts": 8800,
"pkt_pts_time": "0.734067",
"pkt_dts": 8800,
"pkt_dts_time": "0.734067",
"best_effort_timestamp": 8800,
"best_effort_timestamp_time": "0.734067",
"pkt_duration": 200,
"pkt_duration_time": "0.016683",
"pkt_pos": "1376609",
"pkt_size": "13555",
"width": 3840,
"height": 2160,
"pix_fmt": "yuv420p10le",
"sample_aspect_ratio": "1:1",
"pict_type": "B",
"coded_picture_number": 0,
"display_picture_number": 0,
"interlaced_frame": 0,
"top_field_first": 0,
"repeat_pict": 0,
"color_range": "tv",
"color_space": "bt2020nc",
"color_primaries": "bt2020",
"color_transfer": "smpte2084",
"logs": [
{
"context": "hevc",
"level": 48,
"category": 6,
"message": "[hevc @ 0x55cb0242da80] nal_unit_type: 0(TRAIL_N), nuh_layer_id: 0, temporal_id: 0"
},
{
"context": "hevc",
"level": 48,
"category": 6,
"message": "[hevc @ 0x55cb0242da80] Output frame with POC 44."
},
{
"context": "hevc",
"level": 48,
"category": 6,
"message": "[hevc @ 0x55cb0242da80] Decoded frame with POC 45."
}
]
},
{
"media_type": "audio",
"stream_index": 1,
"key_frame": 1,
"pkt_pts": 35840,
"pkt_pts_time": "0.746667",
"pkt_dts": 35840,
"pkt_dts_time": "0.746667",
"best_effort_timestamp": 35840,
"best_effort_timestamp_time": "0.746667",
"pkt_duration": 1024,
"pkt_duration_time": "0.021333",
"pkt_pos": "1392748",
"pkt_size": "345",
"sample_fmt": "fltp",
"nb_samples": 1024,
"channels": 2,
"channel_layout": "stereo"
},
{
"media_type": "video",
"stream_index": 0,
"key_frame": 0,
"pkt_pts": 9000,
"pkt_pts_time": "0.750751",
"pkt_dts": 9000,
"pkt_dts_time": "0.750751",
"best_effort_timestamp": 9000,
"best_effort_timestamp_time": "0.750751",
"pkt_duration": 200,
"pkt_duration_time": "0.016683",
"pkt_pos": "1391363",
"pkt_size": "1385",
"width": 3840,
"height": 2160,
"pix_fmt": "yuv420p10le",
"sample_aspect_ratio": "1:1",
"pict_type": "B",
"coded_picture_number": 0,
"display_picture_number": 0,
"interlaced_frame": 0,
"top_field_first": 0,
"repeat_pict": 0,
"color_range": "tv",
"color_space": "bt2020nc",
"color_primaries": "bt2020",
"color_transfer": "smpte2084",
"logs": [
{
"context": "hevc",
"level": 48,
"category": 6,
"message": "[hevc @ 0x55cb0242da80] nal_unit_type: 1(TRAIL_R), nuh_layer_id: 0, temporal_id: 0"
},
{
"context": "hevc",
"level": 48,
"category": 6,
"message": "[hevc @ 0x55cb0242da80] Output frame with POC 45."
},
{
"context": "hevc",
"level": 48,
"category": 6,
"message": "[hevc @ 0x55cb0242da80] Decoded frame with POC 50."
}
]
},
{
"media_type": "video",
"stream_index": 0,
"key_frame": 0,
"pkt_pts": 9200,
"pkt_pts_time": "0.767434",
"pkt_dts": 9200,
"pkt_dts_time": "0.767434",
"best_effort_timestamp": 9200,
"best_effort_timestamp_time": "0.767434",
"pkt_duration": 200,
"pkt_duration_time": "0.016683",
"pkt_pos": "1318456",
"pkt_size": "58153",
"width": 3840,
"height": 2160,
"pix_fmt": "yuv420p10le",
"sample_aspect_ratio": "1:1",
"pict_type": "P",
"coded_picture_number": 0,
"display_picture_number": 0,
"interlaced_frame": 0,
"top_field_first": 0,
"repeat_pict": 0,
"color_range": "tv",
"color_space": "bt2020nc",
"color_primaries": "bt2020",
"color_transfer": "smpte2084",
"logs": [
{
"context": "hevc",
"level": 48,
"category": 6,
"message": "[hevc @ 0x55cb0242da80] nal_unit_type: 1(TRAIL_R), nuh_layer_id: 0, temporal_id: 0"
},
{
"context": "hevc",
"level": 48,
"category": 6,
"message": "[hevc @ 0x55cb0242da80] Output frame with POC 46."
},
{
"context": "hevc",
"level": 48,
"category": 6,
"message": "[hevc @ 0x55cb0242da80] Decoded frame with POC 48."
}
]
},
{
"media_type": "audio",
"stream_index": 1,
"key_frame": 1,
"pkt_pts": 36864,
"pkt_pts_time": "0.768000",
"pkt_dts": 36864,
"pkt_dts_time": "0.768000",
"best_effort_timestamp": 36864,
"best_effort_timestamp_time": "0.768000",
"pkt_duration": 1024,
"pkt_duration_time": "0.021333",
"pkt_pos": "1466376",
"pkt_size": "327",
"sample_fmt": "fltp",
"nb_samples": 1024,
"channels": 2,
"channel_layout": "stereo"
},
{
"media_type": "video",
"stream_index": 0,
"key_frame": 0,
"pkt_pts": 9400,
"pkt_pts_time": "0.784117",
"pkt_dts": 9400,
"pkt_dts_time": "0.784117",
"best_effort_timestamp": 9400,
"best_effort_timestamp_time": "0.784117",
"pkt_duration": 200,
"pkt_duration_time": "0.016683",
"pkt_pos": "1466703",
"pkt_size": "989",
"width": 3840,
"height": 2160,
"pix_fmt": "yuv420p10le",
"sample_aspect_ratio": "1:1",
"pict_type": "B",
"coded_picture_number": 0,
"display_picture_number": 0,
"interlaced_frame": 0,
"top_field_first": 0,
"repeat_pict": 0,
"color_range": "tv",
"color_space": "bt2020nc",
"color_primaries": "bt2020",
"color_transfer": "smpte2084",
"logs": [
{
"context": "hevc",
"level": 48,
"category": 6,
"message": "[hevc @ 0x55cb0242da80] nal_unit_type: 0(TRAIL_N), nuh_layer_id: 0, temporal_id: 0"
},
{
"context": "hevc",
"level": 48,
"category": 6,
"message": "[hevc @ 0x55cb0242da80] Output frame with POC 47."
},
{
"context": "hevc",
"level": 48,
"category": 6,
"message": "[hevc @ 0x55cb0242da80] Decoded frame with POC 47."
}
]
},
{
"media_type": "audio",
"stream_index": 1,
"key_frame": 1,
"pkt_pts": 37888,
"pkt_pts_time": "0.789333",
"pkt_dts": 37888,
"pkt_dts_time": "0.789333",
"best_effort_timestamp": 37888,
"best_effort_timestamp_time": "0.789333",
"pkt_duration": 1024,
"pkt_duration_time": "0.021333",
"pkt_pos": "1467692",
"pkt_size": "336",
"sample_fmt": "fltp",
"nb_samples": 1024,
"channels": 2,
"channel_layout": "stereo"
},
{
"media_type": "video",
"stream_index": 0,
"key_frame": 0,
"pkt_pts": 9600,
"pkt_pts_time": "0.800801",
"pkt_dts": 9600,
"pkt_dts_time": "0.800801",
"best_effort_timestamp": 9600,
"best_effort_timestamp_time": "0.800801",
"pkt_duration": 200,
"pkt_duration_time": "0.016683",
"pkt_pos": "1445765",
"pkt_size": "20611",
"width": 3840,
"height": 2160,
"pix_fmt": "yuv420p10le",
"sample_aspect_ratio": "1:1",
"pict_type": "B",
"coded_picture_number": 0,
"display_picture_number": 0,
"interlaced_frame": 0,
"top_field_first": 0,
"repeat_pict": 0,
"color_range": "tv",
"color_space": "bt2020nc",
"color_primaries": "bt2020",
"color_transfer": "smpte2084",
"logs": [
{
"context": "hevc",
"level": 48,
"category": 6,
"message": "[hevc @ 0x55cb0242da80] nal_unit_type: 0(TRAIL_N), nuh_layer_id: 0, temporal_id: 0"
},
{
"context": "hevc",
"level": 48,
"category": 6,
"message": "[hevc @ 0x55cb0242da80] Output frame with POC 48."
},
{
"context": "hevc",
"level": 48,
"category": 6,
"message": "[hevc @ 0x55cb0242da80] Decoded frame with POC 49."
}
]
},
{
"media_type": "audio",
"stream_index": 1,
"key_frame": 1,
"pkt_pts": 38912,
"pkt_pts_time": "0.810667",
"pkt_dts": 38912,
"pkt_dts_time": "0.810667",
"best_effort_timestamp": 38912,
"best_effort_timestamp_time": "0.810667",
"pkt_duration": 1024,
"pkt_duration_time": "0.021333",
"pkt_pos": "1469166",
"pkt_size": "345",
"sample_fmt": "fltp",
"nb_samples": 1024,
"channels": 2,
"channel_layout": "stereo"
},
{
"media_type": "video",
"stream_index": 0,
"key_frame": 0,
"pkt_pts": 9800,
"pkt_pts_time": "0.817484",
"pkt_dts": 9800,
"pkt_dts_time": "0.817484",
"best_effort_timestamp": 9800,
"best_effort_timestamp_time": "0.817484",
"pkt_duration": 200,
"pkt_duration_time": "0.016683",
"pkt_pos": "1468028",
"pkt_size": "1138",
"width": 3840,
"height": 2160,
"pix_fmt": "yuv420p10le",
"sample_aspect_ratio": "1:1",
"pict_type": "B",
"coded_picture_number": 0,
"display_picture_number": 0,
"interlaced_frame": 0,
"top_field_first": 0,
"repeat_pict": 0,
"color_range": "tv",
"color_space": "bt2020nc",
"color_primaries": "bt2020",
"color_transfer": "smpte2084",
"logs": [
{
"context": "hevc",
"level": 48,
"category": 6,
"message": "[hevc @ 0x55cb0242da80] nal_unit_type: 1(TRAIL_R), nuh_layer_id: 0, temporal_id: 0"
},
{
"context": "hevc",
"level": 48,
"category": 6,
"message": "[hevc @ 0x55cb0242da80] Output frame with POC 49."
},
{
"context": "hevc",
"level": 48,
"category": 6,
"message": "[hevc @ 0x55cb0242da80] Decoded frame with POC 54."
}
]
},
{
"media_type": "audio",
"stream_index": 1,
"key_frame": 1,
"pkt_pts": 39936,
"pkt_pts_time": "0.832000",
"pkt_dts": 39936,
"pkt_dts_time": "0.832000",
"best_effort_timestamp": 39936,
"best_effort_timestamp_time": "0.832000",
"pkt_duration": 1024,
"pkt_duration_time": "0.021333",
"pkt_pos": "1519981",
"pkt_size": "338",
"sample_fmt": "fltp",
"nb_samples": 1024,
"channels": 2,
"channel_layout": "stereo"
},
{
"media_type": "video",
"stream_index": 0,
"key_frame": 0,
"pkt_pts": 10000,
"pkt_pts_time": "0.834168",
"pkt_dts": 10000,
"pkt_dts_time": "0.834168",
"best_effort_timestamp": 10000,
"best_effort_timestamp_time": "0.834168",
"pkt_duration": 200,
"pkt_duration_time": "0.016683",
"pkt_pos": "1393093",
"pkt_size": "52672",
"width": 3840,
"height": 2160,
"pix_fmt": "yuv420p10le",
"sample_aspect_ratio": "1:1",
"pict_type": "P",
"coded_picture_number": 0,
"display_picture_number": 0,
"interlaced_frame": 0,
"top_field_first": 0,
"repeat_pict": 0,
"color_range": "tv",
"color_space": "bt2020nc",
"color_primaries": "bt2020",
"color_transfer": "smpte2084",
"logs": [
{
"context": "hevc",
"level": 48,
"category": 6,
"message": "[hevc @ 0x55cb0242da80] nal_unit_type: 1(TRAIL_R), nuh_layer_id: 0, temporal_id: 0"
},
{
"context": "hevc",
"level": 48,
"category": 6,
"message": "[hevc @ 0x55cb0242da80] Output frame with POC 50."
},
{
"context": "hevc",
"level": 48,
"category": 6,
"message": "[hevc @ 0x55cb0242da80] Decoded frame with POC 52."
}
]
},
{
"media_type": "video",
"stream_index": 0,
"key_frame": 0,
"pkt_pts": 10200,
"pkt_pts_time": "0.850851",
"pkt_dts": 10200,
"pkt_dts_time": "0.850851",
"best_effort_timestamp": 10200,
"best_effort_timestamp_time": "0.850851",
"pkt_duration": 200,
"pkt_duration_time": "0.016683",
"pkt_pos": "1540868",
"pkt_size": "1017",
"width": 3840,
"height": 2160,
"pix_fmt": "yuv420p10le",
"sample_aspect_ratio": "1:1",
"pict_type": "B",
"coded_picture_number": 0,
"display_picture_number": 0,
"interlaced_frame": 0,
"top_field_first": 0,
"repeat_pict": 0,
"color_range": "tv",
"color_space": "bt2020nc",
"color_primaries": "bt2020",
"color_transfer": "smpte2084",
"logs": [
{
"context": "hevc",
"level": 48,
"category": 6,
"message": "[hevc @ 0x55cb0242da80] nal_unit_type: 0(TRAIL_N), nuh_layer_id: 0, temporal_id: 0"
},
{
"context": "hevc",
"level": 48,
"category": 6,
"message": "[hevc @ 0x55cb0242da80] Output frame with POC 51."
},
{
"context": "hevc",
"level": 48,
"category": 6,
"message": "[hevc @ 0x55cb0242da80] Decoded frame with POC 51."
}
]
},
{
"media_type": "audio",
"stream_index": 1,
"key_frame": 1,
"pkt_pts": 40960,
"pkt_pts_time": "0.853333",
"pkt_dts": 40960,
"pkt_dts_time": "0.853333",
"best_effort_timestamp": 40960,
"best_effort_timestamp_time": "0.853333",
"pkt_duration": 1024,
"pkt_duration_time": "0.021333",
"pkt_pos": "1541885",
"pkt_size": "341",
"sample_fmt": "fltp",
"nb_samples": 1024,
"channels": 2,
"channel_layout": "stereo"
},
{
"media_type": "video",
"stream_index": 0,
"key_frame": 0,
"pkt_pts": 10400,
"pkt_pts_time": "0.867534",
"pkt_dts": 10400,
"pkt_dts_time": "0.867534",
"best_effort_timestamp": 10400,
"best_effort_timestamp_time": "0.867534",
"pkt_duration": 200,
"pkt_duration_time": "0.016683",
"pkt_pos": "1520319",
"pkt_size": "20549",
"width": 3840,
"height": 2160,
"pix_fmt": "yuv420p10le",
"sample_aspect_ratio": "1:1",
"pict_type": "B",
"coded_picture_number": 0,
"display_picture_number": 0,
"interlaced_frame": 0,
"top_field_first": 0,
"repeat_pict": 0,
"color_range": "tv",
"color_space": "bt2020nc",
"color_primaries": "bt2020",
"color_transfer": "smpte2084",
"logs": [
{
"context": "hevc",
"level": 48,
"category": 6,
"message": "[hevc @ 0x55cb0242da80] nal_unit_type: 0(TRAIL_N), nuh_layer_id: 0, temporal_id: 0"
},
{
"context": "hevc",
"level": 48,
"category": 6,
"message": "[hevc @ 0x55cb0242da80] Output frame with POC 52."
},
{
"context": "hevc",
"level": 48,
"category": 6,
"message": "[hevc @ 0x55cb0242da80] Decoded frame with POC 53."
}
]
},
{
"media_type": "audio",
"stream_index": 1,
"key_frame": 1,
"pkt_pts": 41984,
"pkt_pts_time": "0.874667",
"pkt_dts": 41984,
"pkt_dts_time": "0.874667",
"best_effort_timestamp": 41984,
"best_effort_timestamp_time": "0.874667",
"pkt_duration": 1024,
"pkt_duration_time": "0.021333",
"pkt_pos": "1543439",
"pkt_size": "342",
"sample_fmt": "fltp",
"nb_samples": 1024,
"channels": 2,
"channel_layout": "stereo"
},
{
"media_type": "video",
"stream_index": 0,
"key_frame": 0,
"pkt_pts": 10600,
"pkt_pts_time": "0.884218",
"pkt_dts": 10600,
"pkt_dts_time": "0.884218",
"best_effort_timestamp": 10600,
"best_effort_timestamp_time": "0.884218",
"pkt_duration": 200,
"pkt_duration_time": "0.016683",
"pkt_pos": "1542226",
"pkt_size": "1213",
"width": 3840,
"height": 2160,
"pix_fmt": "yuv420p10le",
"sample_aspect_ratio": "1:1",
"pict_type": "B",
"coded_picture_number": 0,
"display_picture_number": 0,
"interlaced_frame": 0,
"top_field_first": 0,
"repeat_pict": 0,
"color_range": "tv",
"color_space": "bt2020nc",
"color_primaries": "bt2020",
"color_transfer": "smpte2084",
"logs": [
{
"context": "hevc",
"level": 48,
"category": 6,
"message": "[hevc @ 0x55cb0242da80] nal_unit_type: 1(TRAIL_R), nuh_layer_id: 0, temporal_id: 0"
},
{
"context": "hevc",
"level": 48,
"category": 6,
"message": "[hevc @ 0x55cb0242da80] Output frame with POC 53."
},
{
"context": "hevc",
"level": 48,
"category": 6,
"message": "[hevc @ 0x55cb0242da80] Decoded frame with POC 58."
}
]
},
{
"media_type": "audio",
"stream_index": 1,
"key_frame": 1,
"pkt_pts": 43008,
"pkt_pts_time": "0.896000",
"pkt_dts": 43008,
"pkt_dts_time": "0.896000",
"best_effort_timestamp": 43008,
"best_effort_timestamp_time": "0.896000",
"pkt_duration": 1024,
"pkt_duration_time": "0.021333",
"pkt_pos": "1594231",
"pkt_size": "416",
"sample_fmt": "fltp",
"nb_samples": 1024,
"channels": 2,
"channel_layout": "stereo"
},
{
"media_type": "video",
"stream_index": 0,
"key_frame": 0,
"pkt_pts": 10800,
"pkt_pts_time": "0.900901",
"pkt_dts": 10800,
"pkt_dts_time": "0.900901",
"best_effort_timestamp": 10800,
"best_effort_timestamp_time": "0.900901",
"pkt_duration": 200,
"pkt_duration_time": "0.016683",
"pkt_pos": "1469511",
"pkt_size": "50470",
"width": 3840,
"height": 2160,
"pix_fmt": "yuv420p10le",
"sample_aspect_ratio": "1:1",
"pict_type": "P",
"coded_picture_number": 0,
"display_picture_number": 0,
"interlaced_frame": 0,
"top_field_first": 0,
"repeat_pict": 0,
"color_range": "tv",
"color_space": "bt2020nc",
"color_primaries": "bt2020",
"color_transfer": "smpte2084",
"logs": [
{
"context": "hevc",
"level": 48,
"category": 6,
"message": "[hevc @ 0x55cb0242da80] nal_unit_type: 1(TRAIL_R), nuh_layer_id: 0, temporal_id: 0"
},
{
"context": "hevc",
"level": 48,
"category": 6,
"message": "[hevc @ 0x55cb0242da80] Output frame with POC 54."
},
{
"context": "hevc",
"level": 48,
"category": 6,
"message": "[hevc @ 0x55cb0242da80] Decoded frame with POC 56."
}
]
},
{
"media_type": "audio",
"stream_index": 1,
"key_frame": 1,
"pkt_pts": 44032,
"pkt_pts_time": "0.917333",
"pkt_dts": 44032,
"pkt_dts_time": "0.917333",
"best_effort_timestamp": 44032,
"best_effort_timestamp_time": "0.917333",
"pkt_duration": 1024,
"pkt_duration_time": "0.021333",
"pkt_pos": "1616895",
"pkt_size": "328",
"sample_fmt": "fltp",
"nb_samples": 1024,
"channels": 2,
"channel_layout": "stereo"
},
{
"media_type": "video",
"stream_index": 0,
"key_frame": 0,
"pkt_pts": 11000,
"pkt_pts_time": "0.917584",
"pkt_dts": 11000,
"pkt_dts_time": "0.917584",
"best_effort_timestamp": 11000,
"best_effort_timestamp_time": "0.917584",
"pkt_duration": 200,
"pkt_duration_time": "0.016683",
"pkt_pos": "1617223",
"pkt_size": "1235",
"width": 3840,
"height": 2160,
"pix_fmt": "yuv420p10le",
"sample_aspect_ratio": "1:1",
"pict_type": "B",
"coded_picture_number": 0,
"display_picture_number": 0,
"interlaced_frame": 0,
"top_field_first": 0,
"repeat_pict": 0,
"color_range": "tv",
"color_space": "bt2020nc",
"color_primaries": "bt2020",
"color_transfer": "smpte2084",
"logs": [
{
"context": "hevc",
"level": 48,
"category": 6,
"message": "[hevc @ 0x55cb0242da80] nal_unit_type: 0(TRAIL_N), nuh_layer_id: 0, temporal_id: 0"
},
{
"context": "hevc",
"level": 48,
"category": 6,
"message": "[hevc @ 0x55cb0242da80] Output frame with POC 55."
},
{
"context": "hevc",
"level": 48,
"category": 6,
"message": "[hevc @ 0x55cb0242da80] Decoded frame with POC 55."
}
]
},
{
"media_type": "video",
"stream_index": 0,
"key_frame": 0,
"pkt_pts": 11200,
"pkt_pts_time": "0.934268",
"pkt_dts": 11200,
"pkt_dts_time": "0.934268",
"best_effort_timestamp": 11200,
"best_effort_timestamp_time": "0.934268",
"pkt_duration": 200,
"pkt_duration_time": "0.016683",
"pkt_pos": "1594647",
"pkt_size": "22248",
"width": 3840,
"height": 2160,
"pix_fmt": "yuv420p10le",
"sample_aspect_ratio": "1:1",
"pict_type": "B",
"coded_picture_number": 0,
"display_pict