Skip to content

Instantly share code, notes, and snippets.

@LizGrauel
Created Feb 5, 2015
Embed
What would you like to do?
ExportFullLog
02-05 15:26:27.919: D/VideoRenderer(2765): Extracting audio track 1 of 2
02-05 15:26:27.966: D/FFMPEG(2765): /data/data/org.storymaker.app/app_bin/ffmpeg -y -i /storage/emulated/0/Liger/audio/15.24.05-15.24.48.mp4 -ar 22050 -ac 1 -vn /storage/emulated/0/Android/data/org.storymaker.app/files/render/1423167982692/0.wav
02-05 15:26:28.005: D/PublishFragment(2765): Extracting audio track 1 of 2
02-05 15:26:28.036: D/StoryMaker(2765): ffmpeg version 0.11.1 Copyright (c) 2000-2012 the FFmpeg developers
02-05 15:26:28.036: D/StoryMaker(2765): built on Nov 15 2013 00:50:10 with gcc 4.6 20120106 (prerelease)
02-05 15:26:28.036: D/StoryMaker(2765): configuration: --arch=arm --cpu=cortex-a8 --target-os=linux --enable-runtime-cpudetect --enable-small --prefix=/data/data/info.guardianproject.ffmpeg/app_opt --enable-pic --disable-shared --enable-static --cross-prefix=/home/n8fr8/dev/android/ndk//toolchains/arm-linux-androideabi-4.6/prebuilt/linux-x86_64/bin/arm-linux-androideabi- --sysroot=/home/n8fr8/dev/android/ndk//platforms/android-3/arch-arm --extra-cflags='-I../x264 -mfloat-abi=softfp -mfpu=neon' --extra-ldflags=-L../x264 --enable-version3 --enable-gpl --disable-doc --enable-yasm --enable-decoders --enable-encoders --enable-muxers --enable-demuxers --enable-parsers --enable-protocols --enable-filters --enable-avresample --enable-libfreetype --disable-indevs --enable-indev=lavfi --disable-outdevs --enable-hwaccels --enable-ffmpeg --disable-ffplay --disable-ffprobe --disable-ffserver --disable-network --enable-libx264 --enable-zlib --enable-muxer=md5
02-05 15:26:28.036: D/StoryMaker(2765): libavutil 51. 54.100 / 51. 54.100
02-05 15:26:28.036: D/StoryMaker(2765): libavcodec 54. 23.100 / 54. 23.100
02-05 15:26:28.036: D/StoryMaker(2765): libavformat 54. 6.100 / 54. 6.100
02-05 15:26:28.044: D/StoryMaker(2765): libavdevice 54. 0.100 / 54. 0.100
02-05 15:26:28.044: D/StoryMaker(2765): libavfilter 2. 77.100 / 2. 77.100
02-05 15:26:28.044: D/StoryMaker(2765): libswscale 2. 1.100 / 2. 1.100
02-05 15:26:28.044: D/StoryMaker(2765): libswresample 0. 15.100 / 0. 15.100
02-05 15:26:28.044: D/StoryMaker(2765): libpostproc 52. 0.100 / 52. 0.100
02-05 15:26:28.067: D/StoryMaker(2765): Input #0, mov,mp4,m4a,3gp,3g2,mj2, from '/storage/emulated/0/Liger/audio/15.24.05-15.24.48.mp4':
02-05 15:26:28.067: D/StoryMaker(2765): Metadata:
02-05 15:26:28.067: D/StoryMaker(2765): major_brand : isom
02-05 15:26:28.067: D/StoryMaker(2765): minor_version : 0
02-05 15:26:28.067: D/StoryMaker(2765): compatible_brands: isom3gp4
02-05 15:26:28.067: D/StoryMaker(2765): creation_time : 2015-02-05 20:24:53
02-05 15:26:28.067: D/StoryMaker(2765): Duration: 00:00:05.08, start: 0.000000, bitrate: 98 kb/s
02-05 15:26:28.067: D/StoryMaker(2765): Stream #0:0(eng): Audio: aac (mp4a / 0x6134706D), 44100 Hz, mono, s16, 96 kb/s
02-05 15:26:28.067: D/StoryMaker(2765): Metadata:
02-05 15:26:28.075: D/StoryMaker(2765): creation_time : 2015-02-05 20:24:53
02-05 15:26:28.075: D/StoryMaker(2765): handler_name : SoundHandle
02-05 15:26:28.091: D/StoryMaker(2765): [aformat @ 0xbfa0f0] auto-inserting filter 'auto-inserted resampler 0' between the filter 'src' and the filter 'aformat'
02-05 15:26:28.122: D/StoryMaker(2765): [aresample @ 0xbfa810] chl:mono fmt:s16 r:44100Hz -> chl:mono fmt:s16 r:22050Hz
02-05 15:26:28.130: D/StoryMaker(2765): Output #0, wav, to '/storage/emulated/0/Android/data/org.storymaker.app/files/render/1423167982692/0.wav':
02-05 15:26:28.130: D/StoryMaker(2765): Metadata:
02-05 15:26:28.130: D/StoryMaker(2765): major_brand : isom
02-05 15:26:28.130: D/StoryMaker(2765): minor_version : 0
02-05 15:26:28.130: D/StoryMaker(2765): compatible_brands: isom3gp4
02-05 15:26:28.130: D/StoryMaker(2765): creation_time : 2015-02-05 20:24:53
02-05 15:26:28.130: D/StoryMaker(2765): encoder : Lavf54.6.100
02-05 15:26:28.137: D/StoryMaker(2765): Stream #0:0(eng): Audio: pcm_s16le ([1][0][0][0] / 0x0001), 22050 Hz, mono, s16, 352 kb/s
02-05 15:26:28.137: D/StoryMaker(2765): Metadata:
02-05 15:26:28.137: D/StoryMaker(2765): creation_time : 2015-02-05 20:24:53
02-05 15:26:28.137: D/StoryMaker(2765): handler_name : SoundHandle
02-05 15:26:28.137: D/StoryMaker(2765): Stream mapping:
02-05 15:26:28.137: D/StoryMaker(2765): Stream #0:0 -> #0:0 (aac -> pcm_s16le)
02-05 15:26:28.137: D/StoryMaker(2765): Press [q] to stop, [?] for help
02-05 15:26:28.200: D/StoryMaker(2765): size= 219kB time=00:00:05.08 bitrate= 352.8kbits/s
02-05 15:26:28.200: D/StoryMaker(2765): video:0kB audio:219kB global headers:0kB muxing overhead 0.020512%
02-05 15:26:28.200: D/StoryMaker(2765): process complete; exit=0
02-05 15:26:28.239: V/SOX(2765): /data/data/org.storymaker.app/app_bin/sox /storage/emulated/0/Android/data/org.storymaker.app/files/render/1423167982692/0.wav -n stat
02-05 15:26:28.356: D/dalvikvm(2765): GC_CONCURRENT freed 2987K, 8% free 39152K/42172K, paused 7ms+13ms, total 80ms
02-05 15:26:28.380: D/webviewglue(2765): nativeDestroy view: 0x5d0088e0
02-05 15:26:28.395: D/webviewglue(2765): nativeDestroy view: 0x5d1a74e8
02-05 15:26:28.434: D/sox(2765): Samples read: 112128
02-05 15:26:28.434: D/sox(2765): Length (seconds): 5.085170
02-05 15:26:28.434: D/sox(2765): Scaled by: 2147483647.0
02-05 15:26:28.434: D/sox(2765): Maximum amplitude: 0.999969
02-05 15:26:28.434: D/sox(2765): Minimum amplitude: -1.000000
02-05 15:26:28.434: D/sox(2765): Midline amplitude: -0.000015
02-05 15:26:28.434: D/sox(2765): Mean norm: 0.028050
02-05 15:26:28.434: D/sox(2765): Mean amplitude: -0.001668
02-05 15:26:28.434: D/sox(2765): RMS amplitude: 0.062427
02-05 15:26:28.434: D/sox(2765): Maximum delta: 1.123230
02-05 15:26:28.434: D/sox(2765): Minimum delta: 0.000000
02-05 15:26:28.434: D/sox(2765): Mean delta: 0.005418
02-05 15:26:28.434: D/sox(2765): RMS delta: 0.025020
02-05 15:26:28.434: D/sox(2765): Rough frequency: 1406
02-05 15:26:28.434: D/sox(2765): Volume adjustment: 1.000
02-05 15:26:28.434: D/StoryMaker(2765): got clip 0 length: 5.08517
02-05 15:26:28.434: D/VideoRenderer(2765): Extracting audio track 2 of 2
02-05 15:26:28.481: D/PublishFragment(2765): Extracting audio track 2 of 2
02-05 15:26:28.481: D/FFMPEG(2765): /data/data/org.storymaker.app/app_bin/ffmpeg -y -i /storage/emulated/0/Liger/audio/15.25.05-15.25.00.mp4 -ar 22050 -ac 1 -vn /storage/emulated/0/Android/data/org.storymaker.app/files/render/1423167982692/1.wav
02-05 15:26:28.528: D/StoryMaker(2765): ffmpeg version 0.11.1 Copyright (c) 2000-2012 the FFmpeg developers
02-05 15:26:28.536: D/StoryMaker(2765): built on Nov 15 2013 00:50:10 with gcc 4.6 20120106 (prerelease)
02-05 15:26:28.536: D/StoryMaker(2765): configuration: --arch=arm --cpu=cortex-a8 --target-os=linux --enable-runtime-cpudetect --enable-small --prefix=/data/data/info.guardianproject.ffmpeg/app_opt --enable-pic --disable-shared --enable-static --cross-prefix=/home/n8fr8/dev/android/ndk//toolchains/arm-linux-androideabi-4.6/prebuilt/linux-x86_64/bin/arm-linux-androideabi- --sysroot=/home/n8fr8/dev/android/ndk//platforms/android-3/arch-arm --extra-cflags='-I../x264 -mfloat-abi=softfp -mfpu=neon' --extra-ldflags=-L../x264 --enable-version3 --enable-gpl --disable-doc --enable-yasm --enable-decoders --enable-encoders --enable-muxers --enable-demuxers --enable-parsers --enable-protocols --enable-filters --enable-avresample --enable-libfreetype --disable-indevs --enable-indev=lavfi --disable-outdevs --enable-hwaccels --enable-ffmpeg --disable-ffplay --disable-ffprobe --disable-ffserver --disable-network --enable-libx264 --enable-zlib --enable-muxer=md5
02-05 15:26:28.536: D/StoryMaker(2765): libavutil 51. 54.100 / 51. 54.100
02-05 15:26:28.536: D/StoryMaker(2765): libavcodec 54. 23.100 / 54. 23.100
02-05 15:26:28.536: D/StoryMaker(2765): libavformat 54. 6.100 / 54. 6.100
02-05 15:26:28.536: D/StoryMaker(2765): libavdevice 54. 0.100 / 54. 0.100
02-05 15:26:28.536: D/StoryMaker(2765): libavfilter 2. 77.100 / 2. 77.100
02-05 15:26:28.536: D/StoryMaker(2765): libswscale 2. 1.100 / 2. 1.100
02-05 15:26:28.536: D/StoryMaker(2765): libswresample 0. 15.100 / 0. 15.100
02-05 15:26:28.536: D/StoryMaker(2765): libpostproc 52. 0.100 / 52. 0.100
02-05 15:26:28.544: D/StoryMaker(2765): Input #0, mov,mp4,m4a,3gp,3g2,mj2, from '/storage/emulated/0/Liger/audio/15.25.05-15.25.00.mp4':
02-05 15:26:28.544: D/StoryMaker(2765): Metadata:
02-05 15:26:28.544: D/StoryMaker(2765): major_brand : isom
02-05 15:26:28.551: D/StoryMaker(2765): minor_version : 0
02-05 15:26:28.551: D/StoryMaker(2765): compatible_brands: isom3gp4
02-05 15:26:28.551: D/StoryMaker(2765): creation_time : 2015-02-05 20:25:08
02-05 15:26:28.551: D/StoryMaker(2765): Duration: 00:00:07.89, start: 0.000000, bitrate: 98 kb/s
02-05 15:26:28.551: D/StoryMaker(2765): Stream #0:0(eng): Audio: aac (mp4a / 0x6134706D), 44100 Hz, mono, s16, 96 kb/s
02-05 15:26:28.551: D/StoryMaker(2765): Metadata:
02-05 15:26:28.551: D/StoryMaker(2765): creation_time : 2015-02-05 20:25:08
02-05 15:26:28.551: D/StoryMaker(2765): handler_name : SoundHandle
02-05 15:26:28.551: D/StoryMaker(2765): [aformat @ 0xc04110] auto-inserting filter 'auto-inserted resampler 0' between the filter 'src' and the filter 'aformat'
02-05 15:26:28.583: D/StoryMaker(2765): [aresample @ 0xc03ef0] chl:mono fmt:s16 r:44100Hz -> chl:mono fmt:s16 r:22050Hz
02-05 15:26:28.591: D/StoryMaker(2765): Output #0, wav, to '/storage/emulated/0/Android/data/org.storymaker.app/files/render/1423167982692/1.wav':
02-05 15:26:28.591: D/StoryMaker(2765): Metadata:
02-05 15:26:28.591: D/StoryMaker(2765): major_brand : isom
02-05 15:26:28.591: D/StoryMaker(2765): minor_version : 0
02-05 15:26:28.591: D/StoryMaker(2765): compatible_brands: isom3gp4
02-05 15:26:28.591: D/StoryMaker(2765): creation_time : 2015-02-05 20:25:08
02-05 15:26:28.591: D/StoryMaker(2765): encoder : Lavf54.6.100
02-05 15:26:28.591: D/StoryMaker(2765): Stream #0:0(eng): Audio: pcm_s16le ([1][0][0][0] / 0x0001), 22050 Hz, mono, s16, 352 kb/s
02-05 15:26:28.591: D/StoryMaker(2765): Metadata:
02-05 15:26:28.591: D/StoryMaker(2765): creation_time : 2015-02-05 20:25:08
02-05 15:26:28.591: D/StoryMaker(2765): handler_name : SoundHandle
02-05 15:26:28.591: D/StoryMaker(2765): Stream mapping:
02-05 15:26:28.591: D/StoryMaker(2765): Stream #0:0 -> #0:0 (aac -> pcm_s16le)
02-05 15:26:28.591: D/StoryMaker(2765): Press [q] to stop, [?] for help
02-05 15:26:28.708: D/StoryMaker(2765): size= 340kB time=00:00:07.89 bitrate= 352.8kbits/s
02-05 15:26:28.708: D/StoryMaker(2765): video:0kB audio:340kB global headers:0kB muxing overhead 0.013212%
02-05 15:26:28.708: D/StoryMaker(2765): process complete; exit=0
02-05 15:26:28.739: V/SOX(2765): /data/data/org.storymaker.app/app_bin/sox /storage/emulated/0/Android/data/org.storymaker.app/files/render/1423167982692/1.wav -n stat
02-05 15:26:28.981: D/sox(2765): Samples read: 174080
02-05 15:26:28.981: D/sox(2765): Length (seconds): 7.894785
02-05 15:26:28.981: D/sox(2765): Scaled by: 2147483647.0
02-05 15:26:28.981: D/sox(2765): Maximum amplitude: 0.999969
02-05 15:26:28.981: D/sox(2765): Minimum amplitude: -1.000000
02-05 15:26:28.981: D/sox(2765): Midline amplitude: -0.000015
02-05 15:26:28.981: D/sox(2765): Mean norm: 0.016750
02-05 15:26:28.981: D/sox(2765): Mean amplitude: -0.001566
02-05 15:26:28.981: D/sox(2765): RMS amplitude: 0.044271
02-05 15:26:28.981: D/sox(2765): Maximum delta: 1.440765
02-05 15:26:28.981: D/sox(2765): Minimum delta: 0.000000
02-05 15:26:28.981: D/sox(2765): Mean delta: 0.002810
02-05 15:26:28.981: D/sox(2765): RMS delta: 0.018016
02-05 15:26:28.981: D/sox(2765): Rough frequency: 1428
02-05 15:26:28.989: D/sox(2765): Volume adjustment: 1.000
02-05 15:26:28.989: D/StoryMaker(2765): got clip 1 length: 7.894785
02-05 15:26:28.989: D/VideoRenderer(2765): Crossfading audio...
02-05 15:26:29.020: D/PublishFragment(2765): Crossfading audio...
02-05 15:26:29.028: V/SOX(2765): /data/data/org.storymaker.app/app_bin/sox /storage/emulated/0/Android/data/org.storymaker.app/files/render/1423167982692/0.wav -n stat
02-05 15:26:29.200: D/sox(2765): Samples read: 112128
02-05 15:26:29.200: D/sox(2765): Length (seconds): 5.085170
02-05 15:26:29.200: D/sox(2765): Scaled by: 2147483647.0
02-05 15:26:29.200: D/sox(2765): Maximum amplitude: 0.999969
02-05 15:26:29.200: D/sox(2765): Minimum amplitude: -1.000000
02-05 15:26:29.200: D/sox(2765): Midline amplitude: -0.000015
02-05 15:26:29.200: D/sox(2765): Mean norm: 0.028050
02-05 15:26:29.200: D/sox(2765): Mean amplitude: -0.001668
02-05 15:26:29.208: D/sox(2765): RMS amplitude: 0.062427
02-05 15:26:29.208: D/sox(2765): Maximum delta: 1.123230
02-05 15:26:29.208: D/sox(2765): Minimum delta: 0.000000
02-05 15:26:29.208: D/sox(2765): Mean delta: 0.005418
02-05 15:26:29.208: D/sox(2765): RMS delta: 0.025020
02-05 15:26:29.208: D/sox(2765): Rough frequency: 1406
02-05 15:26:29.208: D/sox(2765): Volume adjustment: 1.000
02-05 15:26:29.255: V/SOX(2765): /data/data/org.storymaker.app/app_bin/sox /storage/emulated/0/Android/data/org.storymaker.app/files/render/1423167982692/0.wav -e signed-integer -b 16 /storage/emulated/0/Android/data/org.storymaker.app/files/render/1423167982692/0.wav_trimmed.wav trim 4.085170 1.000000
02-05 15:26:29.317: D/StoryMaker(2765): process complete; exit=0
02-05 15:26:29.341: V/SOX(2765): /data/data/org.storymaker.app/app_bin/sox /storage/emulated/0/Android/data/org.storymaker.app/files/render/1423167982692/0.wav_trimmed.wav /storage/emulated/0/Android/data/org.storymaker.app/files/render/1423167982692/0.wav_trimmed.wav_faded.wav fade t 0.000000 1.000000 1.000000
02-05 15:26:29.434: D/StoryMaker(2765): process complete; exit=0
02-05 15:26:29.481: V/SOX(2765): /data/data/org.storymaker.app/app_bin/sox /storage/emulated/0/Android/data/org.storymaker.app/files/render/1423167982692/1.wav -e signed-integer -b 16 /storage/emulated/0/Android/data/org.storymaker.app/files/render/1423167982692/1.wav_trimmed.wav trim 0.000000 1.000000
02-05 15:26:29.544: D/StoryMaker(2765): process complete; exit=0
02-05 15:26:29.591: V/SOX(2765): /data/data/org.storymaker.app/app_bin/sox /storage/emulated/0/Android/data/org.storymaker.app/files/render/1423167982692/1.wav_trimmed.wav /storage/emulated/0/Android/data/org.storymaker.app/files/render/1423167982692/1.wav_trimmed.wav_faded.wav fade t 1.000000
02-05 15:26:29.708: D/StoryMaker(2765): process complete; exit=0
02-05 15:26:29.739: V/SOX(2765): /data/data/org.storymaker.app/app_bin/sox -m -v 1.0 /storage/emulated/0/Android/data/org.storymaker.app/files/render/1423167982692/0.wav_trimmed.wav_faded.wav -v 1.0 /storage/emulated/0/Android/data/org.storymaker.app/files/render/1423167982692/1.wav_trimmed.wav_faded.wav /storage/emulated/0/Android/data/org.storymaker.app/files/render/1423167982692/0.wav-x-1.wav.wav
02-05 15:26:29.817: D/StoryMaker(2765): process complete; exit=0
02-05 15:26:29.856: V/SOX(2765): /data/data/org.storymaker.app/app_bin/sox /storage/emulated/0/Android/data/org.storymaker.app/files/render/1423167982692/0.wav -e signed-integer -b 16 /storage/emulated/0/Android/data/org.storymaker.app/files/render/1423167982692/0.wav_trimmed.wav trim 0.000000 4.085170
02-05 15:26:29.919: D/StoryMaker(2765): process complete; exit=0
02-05 15:26:29.958: V/SOX(2765): /data/data/org.storymaker.app/app_bin/sox /storage/emulated/0/Android/data/org.storymaker.app/files/render/1423167982692/1.wav -e signed-integer -b 16 /storage/emulated/0/Android/data/org.storymaker.app/files/render/1423167982692/1.wav_trimmed.wav trim 1.000000
02-05 15:26:30.051: D/StoryMaker(2765): process complete; exit=0
02-05 15:26:30.091: V/SOX(2765): /data/data/org.storymaker.app/app_bin/sox /storage/emulated/0/Android/data/org.storymaker.app/files/render/1423167982692/0.wav_trimmed.wav /storage/emulated/0/Android/data/org.storymaker.app/files/render/1423167982692/0.wav-x-1.wav.wav /storage/emulated/0/Android/data/org.storymaker.app/files/render/1423167982692/1.wav_trimmed.wav /storage/emulated/0/Android/data/org.storymaker.app/files/render/1423167982692/0.wav
02-05 15:26:30.184: D/StoryMaker(2765): process complete; exit=0
02-05 15:26:30.192: D/VideoRenderer(2765): Crossfading audio: 2 of 2
02-05 15:26:30.223: D/VideoRenderer(2765): Fade full audio in and out...
02-05 15:26:30.239: D/PublishFragment(2765): Crossfading audio: 2 of 2
02-05 15:26:30.239: V/SOX(2765): /data/data/org.storymaker.app/app_bin/sox /storage/emulated/0/Android/data/org.storymaker.app/files/render/1423167982692/0.wav /storage/emulated/0/Android/data/org.storymaker.app/files/render/1423167982692/0.wav_faded.wav fade t 1.000000 0.000000 1.000000
02-05 15:26:30.278: D/PublishFragment(2765): Fade full audio in and out...
02-05 15:26:30.583: D/StoryMaker(2765): /data/data/org.storymaker.app/app_bin/sox WARN dither: dither clipped 12 samples; decrease volume?
02-05 15:26:30.583: D/StoryMaker(2765): process complete; exit=0
02-05 15:26:30.583: D/VideoRenderer(2765): Converting to output audio...
02-05 15:26:30.614: D/PublishFragment(2765): Converting to output audio...
02-05 15:26:30.622: D/FFMPEG(2765): /data/data/org.storymaker.app/app_bin/ffmpeg -y -i /storage/emulated/0/Android/data/org.storymaker.app/files/render/1423167982692/0.wav_faded.wav -vn -acodec aac -ab 64k -strict -2 /storage/emulated/0/Podcasts/Event+Highlights05022015152622.3gp
02-05 15:26:30.669: D/StoryMaker(2765): ffmpeg version 0.11.1 Copyright (c) 2000-2012 the FFmpeg developers
02-05 15:26:30.669: D/StoryMaker(2765): built on Nov 15 2013 00:50:10 with gcc 4.6 20120106 (prerelease)
02-05 15:26:30.669: D/StoryMaker(2765): configuration: --arch=arm --cpu=cortex-a8 --target-os=linux --enable-runtime-cpudetect --enable-small --prefix=/data/data/info.guardianproject.ffmpeg/app_opt --enable-pic --disable-shared --enable-static --cross-prefix=/home/n8fr8/dev/android/ndk//toolchains/arm-linux-androideabi-4.6/prebuilt/linux-x86_64/bin/arm-linux-androideabi- --sysroot=/home/n8fr8/dev/android/ndk//platforms/android-3/arch-arm --extra-cflags='-I../x264 -mfloat-abi=softfp -mfpu=neon' --extra-ldflags=-L../x264 --enable-version3 --enable-gpl --disable-doc --enable-yasm --enable-decoders --enable-encoders --enable-muxers --enable-demuxers --enable-parsers --enable-protocols --enable-filters --enable-avresample --enable-libfreetype --disable-indevs --enable-indev=lavfi --disable-outdevs --enable-hwaccels --enable-ffmpeg --disable-ffplay --disable-ffprobe --disable-ffserver --disable-network --enable-libx264 --enable-zlib --enable-muxer=md5
02-05 15:26:30.669: D/StoryMaker(2765): libavutil 51. 54.100 / 51. 54.100
02-05 15:26:30.676: D/StoryMaker(2765): libavcodec 54. 23.100 / 54. 23.100
02-05 15:26:30.676: D/StoryMaker(2765): libavformat 54. 6.100 / 54. 6.100
02-05 15:26:30.676: D/StoryMaker(2765): libavdevice 54. 0.100 / 54. 0.100
02-05 15:26:30.676: D/StoryMaker(2765): libavfilter 2. 77.100 / 2. 77.100
02-05 15:26:30.676: D/StoryMaker(2765): libswscale 2. 1.100 / 2. 1.100
02-05 15:26:30.676: D/StoryMaker(2765): libswresample 0. 15.100 / 0. 15.100
02-05 15:26:30.676: D/StoryMaker(2765): libpostproc 52. 0.100 / 52. 0.100
02-05 15:26:30.700: D/StoryMaker(2765): [wav @ 0xbfc3b0] max_analyze_duration 5000000 reached at 5015510
02-05 15:26:30.700: D/StoryMaker(2765): Guessed Channel Layout for Input Stream #0.0 : mono
02-05 15:26:30.700: D/StoryMaker(2765): Input #0, wav, from '/storage/emulated/0/Android/data/org.storymaker.app/files/render/1423167982692/0.wav_faded.wav':
02-05 15:26:30.700: D/StoryMaker(2765): Duration: 00:00:11.97, bitrate: 352 kb/s
02-05 15:26:30.700: D/StoryMaker(2765): Stream #0:0: Audio: pcm_s16le ([1][0][0][0] / 0x0001), 22050 Hz, mono, s16, 352 kb/s
02-05 15:26:31.395: D/StoryMaker(2765): [aformat @ 0xc2cba0] auto-inserting filter 'auto-inserted resampler 0' between the filter 'src' and the filter 'aformat'
02-05 15:26:31.395: D/StoryMaker(2765): [aresample @ 0xc167d0] chl:mono fmt:s16 r:22050Hz -> chl:mono fmt:flt r:22050Hz
02-05 15:26:31.419: D/StoryMaker(2765): Output #0, 3gp, to '/storage/emulated/0/Podcasts/Event+Highlights05022015152622.3gp':
02-05 15:26:31.419: D/StoryMaker(2765): Metadata:
02-05 15:26:31.419: D/StoryMaker(2765): encoder : Lavf54.6.100
02-05 15:26:31.426: D/StoryMaker(2765): Stream #0:0: Audio: aac (mp4a / 0x6134706D), 22050 Hz, mono, flt, 64 kb/s
02-05 15:26:31.426: D/StoryMaker(2765): Stream mapping:
02-05 15:26:31.426: D/StoryMaker(2765): Stream #0:0 -> #0:0 (pcm_s16le -> aac)
02-05 15:26:31.426: D/StoryMaker(2765): Press [q] to stop, [?] for help
02-05 15:26:32.036: D/StoryMaker(2765): size= 69kB time=00:00:09.56 bitrate= 59.0kbits/s
02-05 15:26:32.036: D/StoryMaker(2765): size= 88kB time=00:00:11.98 bitrate= 60.2kbits/s
02-05 15:26:32.036: D/StoryMaker(2765): video:0kB audio:86kB global headers:0kB muxing overhead 1.906636%
02-05 15:26:32.044: D/StoryMaker(2765): process complete; exit=0
02-05 15:26:32.317: D/JobBase(2765): onSuccess: /storage/emulated/0/Podcasts/Event+Highlights05022015152622.3gp
02-05 15:26:32.411: I/iu.UploadsManager(901): End new media; added: 0, uploading: 0, time: 50 ms
02-05 15:26:32.434: D/RenderService(2765): jobSucceeded: org.storymaker.app.model.Job@434e90f0, with code: /storage/emulated/0/Podcasts/Event+Highlights05022015152622.3gp
02-05 15:26:32.434: D/PublishController(2765): jobSucceeded: org.storymaker.app.model.Job@434e90f0, with code: /storage/emulated/0/Podcasts/Event+Highlights05022015152622.3gp
02-05 15:26:32.434: D/PublisherBase(2765): jobSucceeded: org.storymaker.app.model.Job@434e90f0
02-05 15:26:32.458: D/FacebookPublisher(2765): startUpload
02-05 15:26:33.325: D/FacebookSiteController(2765): Upload file: Entering upload
02-05 15:26:33.348: D/SiteController(2765): don't use tor
02-05 15:26:33.387: D/PublishFragment(2765): Uploading to Facebook...
02-05 15:26:33.731: D/PublishFragment(2765): Facebook uploading... 73%
02-05 15:26:33.755: D/PublishFragment(2765): Facebook uploading... 100%
02-05 15:26:35.341: D/FacebookSiteController(2765): successful media upload: 10100656278943750
02-05 15:26:35.348: D/JobBase(2765): onSuccess: 10100656278943750
02-05 15:26:36.958: D/UploadService(2765): jobSucceeded: org.storymaker.app.model.Job@4466e688, with code: 10100656278943750
02-05 15:26:36.958: D/PublishController(2765): jobSucceeded: org.storymaker.app.model.Job@4466e688, with code: 10100656278943750
02-05 15:26:36.966: D/PublisherBase(2765): jobSucceeded: org.storymaker.app.model.Job@4466e688
02-05 15:26:37.520: D/PublishFragment(2765): dialog for showing published url: https://facebook.com/10100654598840690/posts/10100656278943750
02-05 15:26:41.489: W/ThrottleService(377): unable to find stats for iface rmnet0
02-05 15:26:42.395: I/iu.UploadsManager(901): End new media; added: 0, uploading: 0, time: 54 ms
02-05 15:26:57.536: D/Request(2765): Warning: Sessionless Request needs token but missing either application ID or client token.
02-05 15:27:04.434: D/LightsService(377): Excessive delay setting light: 67ms
02-05 15:27:04.598: D/LightsService(377): Excessive delay setting light: 67ms
02-05 15:27:04.872: D/LightsService(377): Excessive delay setting light: 67ms
02-05 15:27:05.106: D/LightsService(377): Excessive delay setting light: 68ms
02-05 15:27:10.137: I/PowerManagerService(377): Going to sleep due to screen timeout...
02-05 15:27:11.044: D/SurfaceFlinger(126): Screen released, type=0 flinger=0x408d0318
02-05 15:27:11.184: D/dalvikvm(377): GC_FOR_ALLOC freed 1180K, 23% free 19371K/25048K, paused 83ms, total 85ms
02-05 15:27:16.200: D/PhoneStatusBar(463): disable: < expand icons alerts ticker system_info back home RECENT* clock search >
02-05 15:27:16.231: V/TAG(377): bug 7643792: fitSystemWindows([0,50][0,0])
02-05 15:27:16.559: D/PhoneStatusBar(463): disable: < expand icons alerts ticker system_info BACK* HOME* RECENT clock search >
02-05 15:27:22.887: D/KInfoc(1725): clear batch timer
02-05 15:27:22.887: D/KInfoc(1725): BATCH REPORTER STARTED ........
02-05 15:27:22.887: D/KInfoc(1725): set batch timer
Sign up for free to join this conversation on GitHub. Already have an account? Sign in to comment