Create a gist now

Instantly share code, notes, and snippets.

What would you like to do?
[~/Work]$ ffmpeg -i Test\ Upload-w9ffdT6m6TQ.mp4 rvm:ruby-1.9.3-p547
ffmpeg version 2.2.4 Copyright (c) 2000-2014 the FFmpeg developers
built on Jun 23 2014 16:31:17 with Apple LLVM version 5.1 (clang-503.0.40) (based on LLVM 3.4svn)
configuration: --prefix=/usr/local/Cellar/ffmpeg/2.2.4 --enable-shared --enable-pthreads --enable-gpl --enable-version3 --enable-nonfree --enable-hardcoded-tables --enable-avresample --enable-vda --cc=clang --host-cflags= --host-ldflags= --enable-libx264 --enable-libfaac --enable-libmp3lame --enable-libxvid
libavutil 52. 66.100 / 52. 66.100
libavcodec 55. 52.102 / 55. 52.102
libavformat 55. 33.100 / 55. 33.100
libavdevice 55. 10.100 / 55. 10.100
libavfilter 4. 2.100 / 4. 2.100
libavresample 1. 2. 0 / 1. 2. 0
libswscale 2. 5.102 / 2. 5.102
libswresample 0. 18.100 / 0. 18.100
libpostproc 52. 3.100 / 52. 3.100
Input #0, mov,mp4,m4a,3gp,3g2,mj2, from 'Test Upload-w9ffdT6m6TQ.mp4':
Metadata:
major_brand : mp42
minor_version : 0
compatible_brands: isommp42
creation_time : 2014-07-17 11:42:54
Duration: 00:02:23.73, start: 0.000000, bitrate: 143 kb/s
Stream #0:0(und): Video: h264 (Constrained Baseline) (avc1 / 0x31637661), yuv420p, 480x360 [SAR 1:1 DAR 4:3], 45 kb/s, 25 fps, 25 tbr, 25 tbn, 50 tbc (default)
Metadata:
handler_name : VideoHandler
Stream #0:1(und): Audio: aac (mp4a / 0x6134706D), 44100 Hz, stereo, fltp, 95 kb/s (default)
Metadata:
creation_time : 2014-07-17 11:42:54
handler_name : IsoMedia File Produced by Google, 5-11-2011
At least one output file must be specified
Conversion failed!
Sign up for free to join this conversation on GitHub. Already have an account? Sign in to comment