Skip to content

Instantly share code, notes, and snippets.

Embed
What would you like to do?
FFprobe output on generated file
*** Format and streams ***
vm@vm-VirtualBox:~/Documents$ ffmpeg-git-build/install/bin/ffprobe test.mp4 -show_streams -show_format
ffprobe version N-92510-gfa08345e88 Copyright (c) 2007-2018 the FFmpeg developers
built with gcc 7 (Ubuntu 7.3.0-27ubuntu1~18.04)
configuration: --prefix=install
libavutil 56. 23.101 / 56. 23.101
libavcodec 58. 39.100 / 58. 39.100
libavformat 58. 22.100 / 58. 22.100
libavdevice 58. 6.100 / 58. 6.100
libavfilter 7. 46.100 / 7. 46.100
libswscale 5. 4.100 / 5. 4.100
libswresample 3. 4.100 / 3. 4.100
[mpeg4 @ 0x55eef9456b40] time_increment_bits 4 is invalid in relation to the current bitstream, this is likely caused by a missing VOL header
[mpeg4 @ 0x55eef9456b40] time_increment_bits set to 14 bits, based on bitstream analysis
[mpeg4 @ 0x55eef9456b40] looks like this file was encoded with (divx4/(old)xvid/opendivx) -> forcing low_delay flag
[mov,mp4,m4a,3gp,3g2,mj2 @ 0x55eef9454dc0] decoding for stream 0 failed
[mov,mp4,m4a,3gp,3g2,mj2 @ 0x55eef9454dc0] Could not find codec parameters for stream 0 (Video: mpeg4 (mp4v / 0x7634706D), yuv420p, 121 kb/s): unspecified size
Consider increasing the value for the 'analyzeduration' and 'probesize' options
Input #0, mov,mp4,m4a,3gp,3g2,mj2, from 'test.mp4':
Metadata:
major_brand : isom
minor_version : 512
compatible_brands: isomiso2mp41
encoder : Lavf58.22.100
Duration: 00:00:10.00, start: 0.000000, bitrate: 123 kb/s
Stream #0:0(und): Video: mpeg4 (mp4v / 0x7634706D), yuv420p, 121 kb/s, 25.10 fps, 25 tbr, 12800 tbn, 12800 tbc (default)
Metadata:
handler_name : VideoHandler
[STREAM]
index=0
codec_name=mpeg4
codec_long_name=MPEG-4 part 2
profile=unknown
codec_type=video
codec_time_base=10/251
codec_tag_string=mp4v
codec_tag=0x7634706d
width=0
height=0
coded_width=0
coded_height=0
has_b_frames=0
sample_aspect_ratio=N/A
display_aspect_ratio=N/A
pix_fmt=yuv420p
level=-99
color_range=unknown
color_space=unknown
color_transfer=unknown
color_primaries=unknown
chroma_location=left
field_order=unknown
timecode=N/A
refs=1
quarter_sample=false
divx_packed=false
id=N/A
r_frame_rate=25/1
avg_frame_rate=251/10
time_base=1/12800
start_pts=0
start_time=0.000000
duration_ts=128000
duration=10.000000
bit_rate=121569
max_bit_rate=5242880
bits_per_raw_sample=N/A
nb_frames=251
nb_read_frames=N/A
nb_read_packets=N/A
DISPOSITION:default=1
DISPOSITION:dub=0
DISPOSITION:original=0
DISPOSITION:comment=0
DISPOSITION:lyrics=0
DISPOSITION:karaoke=0
DISPOSITION:forced=0
DISPOSITION:hearing_impaired=0
DISPOSITION:visual_impaired=0
DISPOSITION:clean_effects=0
DISPOSITION:attached_pic=0
DISPOSITION:timed_thumbnails=0
TAG:language=und
TAG:handler_name=VideoHandler
[/STREAM]
[FORMAT]
filename=test.mp4
nb_streams=1
nb_programs=0
format_name=mov,mp4,m4a,3gp,3g2,mj2
format_long_name=QuickTime / MOV
start_time=0.000000
duration=10.000000
size=153863
bit_rate=123090
probe_score=100
TAG:major_brand=isom
TAG:minor_version=512
TAG:compatible_brands=isomiso2mp41
TAG:encoder=Lavf58.22.100
[/FORMAT]
*** Frames ***
vm@vm-VirtualBox:~/Documents$ ffmpeg-git-build/install/bin/ffprobe test.mp4 -show_frames
ffprobe version N-92510-gfa08345e88 Copyright (c) 2007-2018 the FFmpeg developers
built with gcc 7 (Ubuntu 7.3.0-27ubuntu1~18.04)
configuration: --prefix=install
libavutil 56. 23.101 / 56. 23.101
libavcodec 58. 39.100 / 58. 39.100
libavformat 58. 22.100 / 58. 22.100
libavdevice 58. 6.100 / 58. 6.100
libavfilter 7. 46.100 / 7. 46.100
libswscale 5. 4.100 / 5. 4.100
libswresample 3. 4.100 / 3. 4.100
[mpeg4 @ 0x557030793b40] time_increment_bits 4 is invalid in relation to the current bitstream, this is likely caused by a missing VOL header
[mpeg4 @ 0x557030793b40] time_increment_bits set to 14 bits, based on bitstream analysis
[mpeg4 @ 0x557030793b40] looks like this file was encoded with (divx4/(old)xvid/opendivx) -> forcing low_delay flag
[mov,mp4,m4a,3gp,3g2,mj2 @ 0x557030791dc0] decoding for stream 0 failed
[mov,mp4,m4a,3gp,3g2,mj2 @ 0x557030791dc0] Could not find codec parameters for stream 0 (Video: mpeg4 (mp4v / 0x7634706D), yuv420p, 121 kb/s): unspecified size
Consider increasing the value for the 'analyzeduration' and 'probesize' options
Input #0, mov,mp4,m4a,3gp,3g2,mj2, from 'test.mp4':
Metadata:
major_brand : isom
minor_version : 512
compatible_brands: isomiso2mp41
encoder : Lavf58.22.100
Duration: 00:00:10.00, start: 0.000000, bitrate: 123 kb/s
Stream #0:0(und): Video: mpeg4 (mp4v / 0x7634706D), yuv420p, 121 kb/s, 25.10 fps, 25 tbr, 12800 tbn, 12800 tbc (default)
Metadata:
handler_name : VideoHandler
[mpeg4 @ 0x5570307bab80] time_increment_bits 4 is invalid in relation to the current bitstream, this is likely caused by a missing VOL header
[mpeg4 @ 0x5570307bab80] time_increment_bits set to 14 bits, based on bitstream analysis
[mpeg4 @ 0x5570307bab80] looks like this file was encoded with (divx4/(old)xvid/opendivx) -> forcing low_delay flag
[mpeg4 @ 0x5570307bab80] [IMGUTILS @ 0x7ffee3bba420] Picture size 0x0 is invalid
[mpeg4 @ 0x5570307bab80] video_get_buffer: image parameters invalid
[mpeg4 @ 0x5570307bab80] get_buffer() failed
[mpeg4 @ 0x5570307bab80] thread_get_buffer() failed
[mpeg4 @ 0x5570307bab80] get_buffer() failed (-22 (nil))
[mpeg4 @ 0x5570307bab80] [IMGUTILS @ 0x7ffee3bba420] Picture size 0x0 is invalid
[mpeg4 @ 0x5570307bab80] video_get_buffer: image parameters invalid
[mpeg4 @ 0x5570307bab80] get_buffer() failed
[mpeg4 @ 0x5570307bab80] thread_get_buffer() failed
[mpeg4 @ 0x5570307bab80] get_buffer() failed (-22 (nil))
[mpeg4 @ 0x5570307bab80] [IMGUTILS @ 0x7ffee3bba420] Picture size 0x0 is invalid
[mpeg4 @ 0x5570307bab80] video_get_buffer: image parameters invalid
[mpeg4 @ 0x5570307bab80] get_buffer() failed
[mpeg4 @ 0x5570307bab80] thread_get_buffer() failed
[mpeg4 @ 0x5570307bab80] get_buffer() failed (-22 (nil))
[mpeg4 @ 0x5570307bab80] [IMGUTILS @ 0x7ffee3bba420] Picture size 0x0 is invalid
[mpeg4 @ 0x5570307bab80] video_get_buffer: image parameters invalid
[mpeg4 @ 0x5570307bab80] get_buffer() failed
[mpeg4 @ 0x5570307bab80] thread_get_buffer() failed
[mpeg4 @ 0x5570307bab80] get_buffer() failed (-22 (nil))
[mpeg4 @ 0x5570307bab80] [IMGUTILS @ 0x7ffee3bba420] Picture size 0x0 is invalid
[mpeg4 @ 0x5570307bab80] video_get_buffer: image parameters invalid
[mpeg4 @ 0x5570307bab80] get_buffer() failed
[mpeg4 @ 0x5570307bab80] thread_get_buffer() failed
[mpeg4 @ 0x5570307bab80] get_buffer() failed (-22 (nil))
[mpeg4 @ 0x5570307bab80] [IMGUTILS @ 0x7ffee3bba420] Picture size 0x0 is invalid
[mpeg4 @ 0x5570307bab80] video_get_buffer: image parameters invalid
[mpeg4 @ 0x5570307bab80] get_buffer() failed
[mpeg4 @ 0x5570307bab80] thread_get_buffer() failed
[mpeg4 @ 0x5570307bab80] get_buffer() failed (-22 (nil))
[mpeg4 @ 0x5570307bab80] [IMGUTILS @ 0x7ffee3bba420] Picture size 0x0 is invalid
[mpeg4 @ 0x5570307bab80] video_get_buffer: image parameters invalid
[mpeg4 @ 0x5570307bab80] get_buffer() failed
[mpeg4 @ 0x5570307bab80] thread_get_buffer() failed
[mpeg4 @ 0x5570307bab80] get_buffer() failed (-22 (nil))
[mpeg4 @ 0x5570307bab80] [IMGUTILS @ 0x7ffee3bba420] Picture size 0x0 is invalid
[mpeg4 @ 0x5570307bab80] video_get_buffer: image parameters invalid
[mpeg4 @ 0x5570307bab80] get_buffer() failed
[mpeg4 @ 0x5570307bab80] thread_get_buffer() failed
[mpeg4 @ 0x5570307bab80] get_buffer() failed (-22 (nil))
[mpeg4 @ 0x5570307bab80] [IMGUTILS @ 0x7ffee3bba420] Picture size 0x0 is invalid
[mpeg4 @ 0x5570307bab80] video_get_buffer: image parameters invalid
[mpeg4 @ 0x5570307bab80] get_buffer() failed
[mpeg4 @ 0x5570307bab80] thread_get_buffer() failed
[mpeg4 @ 0x5570307bab80] get_buffer() failed (-22 (nil))
[mpeg4 @ 0x5570307bab80] [IMGUTILS @ 0x7ffee3bba420] Picture size 0x0 is invalid
[mpeg4 @ 0x5570307bab80] video_get_buffer: image parameters invalid
[mpeg4 @ 0x5570307bab80] get_buffer() failed
[mpeg4 @ 0x5570307bab80] thread_get_buffer() failed
[mpeg4 @ 0x5570307bab80] get_buffer() failed (-22 (nil))
[mpeg4 @ 0x5570307bab80] [IMGUTILS @ 0x7ffee3bba420] Picture size 0x0 is invalid
[mpeg4 @ 0x5570307bab80] video_get_buffer: image parameters invalid
[mpeg4 @ 0x5570307bab80] get_buffer() failed
[mpeg4 @ 0x5570307bab80] thread_get_buffer() failed
[mpeg4 @ 0x5570307bab80] get_buffer() failed (-22 (nil))
[mpeg4 @ 0x5570307bab80] [IMGUTILS @ 0x7ffee3bba420] Picture size 0x0 is invalid
[mpeg4 @ 0x5570307bab80] video_get_buffer: image parameters invalid
[mpeg4 @ 0x5570307bab80] get_buffer() failed
[mpeg4 @ 0x5570307bab80] thread_get_buffer() failed
[mpeg4 @ 0x5570307bab80] get_buffer() failed (-22 (nil))
[mpeg4 @ 0x5570307bab80] [IMGUTILS @ 0x7ffee3bba420] Picture size 0x0 is invalid
[mpeg4 @ 0x5570307bab80] video_get_buffer: image parameters invalid
[mpeg4 @ 0x5570307bab80] get_buffer() failed
[mpeg4 @ 0x5570307bab80] thread_get_buffer() failed
[mpeg4 @ 0x5570307bab80] get_buffer() failed (-22 (nil))
[mpeg4 @ 0x5570307bab80] [IMGUTILS @ 0x7ffee3bba420] Picture size 0x0 is invalid
[mpeg4 @ 0x5570307bab80] video_get_buffer: image parameters invalid
[mpeg4 @ 0x5570307bab80] get_buffer() failed
[mpeg4 @ 0x5570307bab80] thread_get_buffer() failed
[mpeg4 @ 0x5570307bab80] get_buffer() failed (-22 (nil))
..... Repeats for all frames
Sign up for free to join this conversation on GitHub. Already have an account? Sign in to comment