secret
Created

  • Download Gist
gistfile1.sh
Shell
1 2 3 4 5 6 7 8 9 10 11 12 13 14 15 16
japsu@helios ~/Media/Temp $ ffprobe 120610-1-001.avi
ffprobe version 0.7.6-4:0.7.6-0ubuntu0.11.10.1, Copyright (c) 2007-2011 the Libav developers
built on Jun 12 2012 16:44:09 with gcc 4.6.1
configuration: --extra-version='4:0.7.6-0ubuntu0.11.10.1' --arch=amd64 --prefix=/usr --enable-vdpau --enable-bzlib --enable-libgsm --enable-libschroedinger --enable-libspeex --enable-libtheora --enable-libvorbis --enable-pthreads --enable-zlib --enable-libvpx --enable-runtime-cpudetect --enable-vaapi --enable-gpl --enable-postproc --enable-swscale --enable-x11grab --enable-libdc1394 --enable-shared --disable-static
libavutil 51. 7. 0 / 51. 7. 0
libavcodec 53. 6. 0 / 53. 6. 0
libavformat 53. 3. 0 / 53. 3. 0
libavdevice 53. 0. 0 / 53. 0. 0
libavfilter 2. 4. 0 / 2. 4. 0
libswscale 2. 0. 0 / 2. 0. 0
libpostproc 52. 0. 0 / 52. 0. 0
[dv @ 0xefb8a0] Estimating duration from bitrate, this may be inaccurate
Input #0, dv, from '120610-1-001.avi':
Duration: 02:08:36.84, start: 0.000000, bitrate: 28799 kb/s
Stream #0.0: Video: dvvideo, yuv420p, 720x576, 28800 kb/s, PAR 64:45 DAR 16:9, 25 tbr, 25 tbn, 25 tbc
Stream #0.1: Audio: pcm_s16le, 48000 Hz, 2 channels, s16, 1536 kb/s

Please sign in to comment on this gist.

Something went wrong with that request. Please try again.