Skip to content

Instantly share code, notes, and snippets.

Embed
What would you like to do?
Input #0, mov,mp4,m4a,3gp,3g2,mj2, from 'Canon-00006.MTS.mp4':
Metadata:
major_brand : isom
minor_version : 512
compatible_brands: isomiso2avc1mp41
encoder : Lavf55.12.0
Duration: 00:00:29.54, start: 0.000000, bitrate: 4798 kb/s
Stream #0:0(und): Video: h264 (High) (avc1 / 0x31637661), yuv420p, 1440x1080 [SAR 4:3 DAR 16:9], 4534 kb/s, 59.94 fps, 59.94 tbr, 90k tbn, 59.94 tbc (default)
Metadata:
handler_name : VideoHandler
Stream #0:1(und): Audio: ac3 (ac-3 / 0x332D6361), 48000 Hz, stereo, fltp, 256 kb/s (default)
Metadata:
handler_name : SoundHandler
Sign up for free to join this conversation on GitHub. Already have an account? Sign in to comment
You can’t perform that action at this time.