Skip to content

Instantly share code, notes, and snippets.

Embed
What would you like to do?
cue file for “People In The Box/Weather Report”
REM GENRE Rock
REM DATE 2013
PERFORMER "People In The Box"
TITLE "Weather Report"
FILE "People_In_The_Box-Weather_Report.wav" WAVE
TRACK 01 AUDIO
TITLE "気球"
PERFORMER "People In The Box"
INDEX 01 00:00:00
TRACK 02 AUDIO
TITLE "砂漠"
PERFORMER "People In The Box"
INDEX 01 05:15:00
TRACK 03 AUDIO
TITLE "亀裂"
PERFORMER "People In The Box"
INDEX 01 09:41:00
TRACK 04 AUDIO
TITLE "岩"
PERFORMER "People In The Box"
INDEX 01 10:43:00
TRACK 05 AUDIO
TITLE "皿 (ハッピーファミリー)"
PERFORMER "People In The Box"
INDEX 01 12:53:00
TRACK 06 AUDIO
TITLE "起爆"
PERFORMER "People In The Box"
INDEX 01 17:30:00
TRACK 07 AUDIO
TITLE "投擲"
PERFORMER "People In The Box"
INDEX 01 19:44:00
TRACK 08 AUDIO
TITLE "穴"
PERFORMER "People In The Box"
INDEX 01 23:19:00
TRACK 09 AUDIO
TITLE "空地"
PERFORMER "People In The Box"
INDEX 01 26:01:00
TRACK 10 AUDIO
TITLE "塔 (エンパイアステートメント)"
PERFORMER "People In The Box"
INDEX 01 28:49:00
TRACK 11 AUDIO
TITLE "真夜中"
PERFORMER "People In The Box"
INDEX 01 34:18:00
TRACK 12 AUDIO
TITLE "夏至"
PERFORMER "People In The Box"
INDEX 01 39:51:00
TRACK 13 AUDIO
TITLE "潜水"
PERFORMER "People In The Box"
INDEX 01 43:50:00
TRACK 14 AUDIO
TITLE "新聞"
PERFORMER "People In The Box"
INDEX 01 47:06:00
TRACK 15 AUDIO
TITLE "大陸"
PERFORMER "People In The Box"
INDEX 01 51:39:00
TRACK 16 AUDIO
TITLE "船"
PERFORMER "People In The Box"
INDEX 01 53:23:00
TRACK 17 AUDIO
TITLE "脱皮中"
PERFORMER "People In The Box"
INDEX 01 55:37:00
TRACK 18 AUDIO
TITLE "脱皮後"
PERFORMER "People In The Box"
INDEX 01 56:00:00
TRACK 19 AUDIO
TITLE "大砂漠"
PERFORMER "People In The Box"
INDEX 01 58:21:00
TRACK 20 AUDIO
TITLE "鉱山"
PERFORMER "People In The Box"
INDEX 01 61:19:00
TRACK 21 AUDIO
TITLE "開拓地"
PERFORMER "People In The Box"
INDEX 01 65:54:00
Sign up for free to join this conversation on GitHub. Already have an account? Sign in to comment
You can’t perform that action at this time.