Skip to content

Instantly share code, notes, and snippets.

@rcombs
Created Nov 10, 2013
Embed
What would you like to do?
ffmpeg version N-58014-g199b8fb Copyright (c) 2000-2013 the FFmpeg developers
built on Nov 10 2013 13:44:54 with clang version 3.2 (tags/RELEASE_32/final)
configuration: --enable-gpl --enable-version3 --enable-nonfree --enable-postproc --enable-libass --enable-libfdk-aac --enable-libfreetype --enable-libmp3lame --enable-libopencore-amrnb --enable-libopencore-amrwb --enable-libopenjpeg --enable-openssl --enable-libtheora --enable-libvorbis --enable-libvpx --enable-libx264 --enable-libxvid --prefix=/usr/local --enable-static --enable-shared --cc=clang
libavutil 52. 52.100 / 52. 52.100
libavcodec 55. 41.100 / 55. 41.100
libavformat 55. 21.100 / 55. 21.100
libavdevice 55. 5.100 / 55. 5.100
libavfilter 3. 90.102 / 3. 90.102
libswscale 2. 5.101 / 2. 5.101
libswresample 0. 17.104 / 0. 17.104
libpostproc 52. 3.100 / 52. 3.100
[matroska,webm @ 0x808d940] Unknown entry 0x6E67
Last message repeated 1 times
Input #0, matroska,webm, from 'Toradora 01.mkv':
Metadata:
title : Toradora 01
creation_time : 2012-01-21 12:02:02
Duration: 00:22:10.46, start: 0.000000, bitrate: 3874 kb/s
Chapter #0.0: start 0.000000, end 81.998000
Metadata:
title : Prologue
Chapter #0.1: start 0.000000, end 90.000000
Metadata:
title : OP
Chapter #0.2: start 82.040000, end 1315.022000
Metadata:
title : Toradora 01
Chapter #0.3: start 1315.059000, end 1325.032000
Metadata:
title : Preview
Stream #0:0: Video: h264 (High 10), yuv420p10le, 1280x720, SAR 1:1 DAR 16:9, 23.98 fps, 23.98 tbr, 1k tbn, 47.95 tbc (default)
Metadata:
title : Toradora 01
Stream #0:1(jpn): Audio: flac, 48000 Hz, stereo, s16 (default)
Metadata:
title : 2.0 FLAC
Stream #0:2(eng): Subtitle: ssa (default)
Metadata:
title : English
Codec 0x18000 is not in the full list.
Stream #0:3: Attachment: unknown_codec
Metadata:
filename : ANNA____.ttf
mimetype : application/x-truetype-font
Codec 0x18000 is not in the full list.
Stream #0:4: Attachment: unknown_codec
Metadata:
filename : annifont.ttf
mimetype : application/x-truetype-font
Codec 0x18000 is not in the full list.
Stream #0:5: Attachment: unknown_codec
Metadata:
filename : AUBREY1__.TTF
mimetype : application/x-truetype-font
Codec 0x18000 is not in the full list.
Stream #0:6: Attachment: unknown_codec
Metadata:
filename : BEATSVIL.TTF
mimetype : application/x-truetype-font
Codec 0x18000 is not in the full list.
Stream #0:7: Attachment: unknown_codec
Metadata:
filename : Budhand.ttf
mimetype : application/x-truetype-font
Codec 0x18000 is not in the full list.
Stream #0:8: Attachment: unknown_codec
Metadata:
filename : Complete_in_Him.ttf
mimetype : application/x-truetype-font
Codec 0x18000 is not in the full list.
Stream #0:9: Attachment: unknown_codec
Metadata:
filename : Essai.ttf
mimetype : application/x-truetype-font
Codec 0x18000 is not in the full list.
Stream #0:10: Attachment: unknown_codec
Metadata:
filename : Jambono-Regular.ttf
mimetype : application/x-truetype-font
Codec 0x18000 is not in the full list.
Stream #0:11: Attachment: unknown_codec
Metadata:
filename : RotisWTF.ttf
mimetype : application/x-truetype-font
Codec 0x18000 is not in the full list.
Stream #0:12: Attachment: unknown_codec
Metadata:
filename : STREET__.ttf
mimetype : application/x-truetype-font
Codec 0x18000 is not in the full list.
Stream #0:13: Attachment: unknown_codec
Metadata:
filename : ToraEpTitles.ttf
mimetype : application/x-truetype-font
Codec 0x18000 is not in the full list.
Stream #0:14: Attachment: unknown_codec
Metadata:
filename : VAGRoundedStd-Light.ttf
mimetype : application/x-truetype-font
[libx264 @ 0x81c9f40] using SAR=1/1
[libx264 @ 0x81c9f40] using cpu capabilities: MMX2 SSE2Fast SSSE3 SSE4.2 AVX AVX2 FMA3 LZCNT BMI2
[libx264 @ 0x81c9f40] profile Constrained Baseline, level 3.1
[libx264 @ 0x81c9f40] 264 - core 138 r2358M 9e941d1 - H.264/MPEG-4 AVC codec - Copyleft 2003-2013 - http://www.videolan.org/x264.html - options: cabac=0 ref=1 deblock=0:0:0 analyse=0:0 me=dia subme=0 psy=1 psy_rd=1.00:0.00 mixed_ref=0 me_range=16 chroma_me=1 trellis=0 8x8dct=0 cqm=0 deadzone=21,11 fast_pskip=1 chroma_qp_offset=0 threads=6 lookahead_threads=1 sliced_threads=0 nr=0 decimate=1 interlaced=0 bluray_compat=0 constrained_intra=0 bframes=0 weightp=0 keyint=250 keyint_min=23 scenecut=0 intra_refresh=0 rc=crf mbtree=0 crf=23.0 qcomp=0.60 qpmin=0 qpmax=69 qpstep=4 ip_ratio=1.40 aq=0
Output #0, mp4, to 'out.mp4':
Metadata:
title : Toradora 01
encoder : Lavf55.21.100
Chapter #0.0: start 0.000000, end 81.998000
Metadata:
title : Prologue
Chapter #0.1: start 0.000000, end 90.000000
Metadata:
title : OP
Chapter #0.2: start 82.040000, end 1315.022000
Metadata:
title : Toradora 01
Chapter #0.3: start 1315.059000, end 1325.032000
Metadata:
title : Preview
Stream #0:0: Video: h264 (libx264) ([33][0][0][0] / 0x0021), yuv420p, 1280x720 [SAR 1:1 DAR 16:9], q=-1--1, 24k tbn, 23.98 tbc (default)
Metadata:
title : Toradora 01
Stream #0:1(jpn): Audio: aac (libfdk_aac) ([64][0][0][0] / 0x0040), 48000 Hz, stereo, s16, 139 kb/s (default)
Metadata:
title : 2.0 FLAC
Stream mapping:
Stream #0:0 -> #0:0 (h264 -> libx264)
Stream #0:1 -> #0:1 (flac -> libfdk_aac)
Press [q] to stop, [?] for help
frame= 70 fps=0.0 q=21.0 size= 447kB time=00:00:03.54 bitrate=1033.7kbits/s frame= 151 fps=150 q=21.0 size= 693kB time=00:00:06.27 bitrate= 905.6kbits/s frame= 239 fps=158 q=20.0 size= 1870kB time=00:00:10.36 bitrate=1478.0kbits/s frame= 318 fps=158 q=22.0 size= 2757kB time=00:00:13.43 bitrate=1680.8kbits/s frame= 403 fps=160 q=18.0 size= 3502kB time=00:00:17.10 bitrate=1676.9kbits/s frame= 484 fps=161 q=19.0 size= 3935kB time=00:00:20.43 bitrate=1577.3kbits/s frame= 575 fps=164 q=22.0 size= 4576kB time=00:00:24.44 bitrate=1533.4kbits/s frame= 667 fps=166 q=20.0 size= 5483kB time=00:00:28.28 bitrate=1588.0kbits/s frame= 767 fps=170 q=19.0 size= 6054kB time=00:00:32.29 bitrate=1535.4kbits/s frame= 845 fps=167 q=22.0 size= 6754kB time=00:00:35.45 bitrate=1560.5kbits/s frame= 936 fps=169 q=20.0 size= 7921kB time=00:00:39.38 bitrate=1647.7kbits/s frame= 1022 fps=168 q=19.0 size= 8586kB time=00:00:42.96 bitrate=1637.1kbits/s frame= 1123 fps=171 q=21.0 size= 9406kB time=00:00:46.80 bitrate=1646.2kbits/s frame= 1202 fps=170 q=17.0 size= 10050kB time=00:00:50.73 bitrate=1622.9kbits/s frame= 1312 fps=173 q=17.0 size= 10701kB time=00:00:55.08 bitrate=1591.5kbits/s frame= 1403 fps=173 q=19.0 size= 11201kB time=00:00:59.00 bitrate=1555.0kbits/s frame= 1498 fps=174 q=18.0 size= 11950kB time=00:01:02.67 bitrate=1561.9kbits/s frame= 1575 fps=173 q=19.0 size= 12590kB time=00:01:05.83 bitrate=1566.6kbits/s frame= 1671 fps=174 q=22.0 size= 13211kB time=00:01:09.67 bitrate=1553.2kbits/s frame= 1745 fps=173 q=21.0 size= 14258kB time=00:01:13.25 bitrate=1594.4kbits/s frame= 1837 fps=173 q=21.0 size= 15020kB time=00:01:16.67 bitrate=1604.9kbits/s frame= 1921 fps=173 q=20.0 size= 15742kB time=00:01:20.51 bitrate=1601.8kbits/s frame= 2020 fps=174 q=18.0 size= 16416kB time=00:01:24.18 bitrate=1597.6kbits/s frame= 2101 fps=173 q=18.0 size= 16907kB time=00:01:27.50 bitrate=1582.7kbits/s frame= 2197 fps=174 q=19.0 size= 17455kB time=00:01:31.94 bitrate=1555.2kbits/s frame= 2284 fps=174 q=22.0 size= 17945kB time=00:01:35.53 bitrate=1538.9kbits/s frame= 2376 fps=174 q=19.0 size= 18623kB time=00:01:39.37 bitrate=1535.3kbits/s frame= 2452 fps=173 q=19.0 size= 19095kB time=00:01:42.44 bitrate=1527.0kbits/s frame= 2548 fps=174 q=19.0 size= 19718kB time=00:01:46.28 bitrate=1519.8kbits/s frame= 2639 fps=174 q=18.0 size= 20195kB time=00:01:50.20 bitrate=1501.1kbits/s frame= 2735 fps=175 q=18.0 size= 20818kB time=00:01:54.30 bitrate=1492.0kbits/s frame= 2826 fps=175 q=17.0 size= 21435kB time=00:01:57.88 bitrate=1489.5kbits/s frame= 2914 fps=175 q=18.0 size= 21940kB time=00:02:01.81 bitrate=1475.5kbits/s frame= 2986 fps=174 q=20.0 size= 22499kB time=00:02:05.14 bitrate=1472.8kbits/s frame= 3075 fps=174 q=21.0 size= 23697kB time=00:02:08.29 bitrate=1513.1kbits/s frame= 3151 fps=173 q=21.0 size= 24465kB time=00:02:11.62 bitrate=1522.6kbits/s frame= 3230 fps=173 q=20.0 size= 25185kB time=00:02:15.21 bitrate=1525.9kbits/s frame= 3312 fps=173 q=19.0 size= 25911kB time=00:02:18.70 bitrate=1530.3kbits/s frame= 3404 fps=173 q=21.0 size= 26718kB time=00:02:22.37 bitrate=1537.3kbits/s frame= 3476 fps=172 q=25.0 size= 28415kB time=00:02:25.02 bitrate=1605.1kbits/s frame= 3548 fps=172 q=18.0 size= 30341kB time=00:02:28.43 bitrate=1674.5kbits/s frame= 3641 fps=172 q=17.0 size= 30944kB time=00:02:32.36 bitrate=1663.8kbits/s frame= 3733 fps=172 q=20.0 size= 31687kB time=00:02:35.69 bitrate=1667.3kbits/s frame= 3824 fps=172 q=19.0 size= 32380kB time=00:02:39.44 bitrate=1663.6kbits/s frame= 3904 fps=172 q=25.0 size= 32944kB time=00:02:43.11 bitrate=1654.5kbits/s frame= 3988 fps=172 q=18.0 size= 34383kB time=00:02:46.61 bitrate=1690.6kbits/s frame= 4071 fps=172 q=23.0 size= 35487kB time=00:02:50.11 bitrate=1709.0kbits/s frame= 4163 fps=172 q=21.0 size= 36575kB time=00:02:53.69 bitrate=1725.0kbits/s frame= 4239 fps=172 q=22.0 size= 37398kB time=00:02:57.10 bitrate=1729.8kbits/s frame= 4316 fps=171 q=22.0 size= 38906kB time=00:03:00.18 bitrate=1768.9kbits/s frame= 4397 fps=171 q=18.0 size= 40227kB time=00:03:03.50 bitrate=1795.8kbits/s frame= 4492 fps=171 q=19.0 size= 41025kB time=00:03:07.34 bitrate=1793.8kbits/s frame= 4561 fps=171 q=20.0 size= 41472kB time=00:03:10.84 bitrate=1780.2kbits/s frame= 4660 fps=171 q=21.0 size= 42305kB time=00:03:14.51 bitrate=1781.7kbits/s frame= 4748 fps=171 q=23.0 size= 43352kB time=00:03:18.01 bitrate=1793.5kbits/s frame= 4836 fps=171 q=21.0 size= 44831kB time=00:03:22.36 bitrate=1814.8kbits/s frame= 4910 fps=171 q=21.0 size= 46102kB time=00:03:24.92 bitrate=1842.9kbits/s frame= 4996 fps=171 q=19.0 size= 47550kB time=00:03:28.93 bitrate=1864.3kbits/s frame= 5078 fps=171 q=19.0 size= 48098kB time=00:03:32.52 bitrate=1854.0kbits/s frame= 5173 fps=171 q=19.0 size= 48632kB time=00:03:35.76 bitrate=1846.4kbits/s frame= 5253 fps=171 q=15.0 size= 49278kB time=00:03:39.51 bitrate=1839.0kbits/s frame= 5353 fps=171 q=22.0 size= 50272kB time=00:03:43.61 bitrate=1841.7kbits/s frame= 5429 fps=171 q=19.0 size= 51056kB time=00:03:46.77 bitrate=1844.4kbits/s frame= 5519 fps=171 q=18.0 size= 51701kB time=00:03:50.18 bitrate=1840.0kbits/s frame= 5597 fps=171 q=19.0 size= 52314kB time=00:03:53.68 bitrate=1833.9kbits/s frame= 5689 fps=171 q=17.0 size= 52933kB time=00:03:57.69 bitrate=1824.3kbits/s frame= 5771 fps=171 q=23.0 size= 54054kB time=00:04:00.93 bitrate=1837.9kbits/s frame= 5857 fps=171 q=21.0 size= 55601kB time=00:04:04.60 bitrate=1862.1kbits/s frame= 5932 fps=171 q=22.0 size= 56952kB time=00:04:07.67 bitrate=1883.7kbits/s frame= 6001 fps=170 q=23.0 size= 58289kB time=00:04:10.41 bitrate=1906.9kbits/s frame= 6083 fps=170 q=18.0 size= 59322kB time=00:04:14.16 bitrate=1912.0kbits/s frame= 6167 fps=170 q=20.0 size= 59788kB time=00:04:17.91 bitrate=1899.0kbits/s frame= 6250 fps=170 q=19.0 size= 60178kB time=00:04:21.07 bitrate=1888.3kbits/s frame= 6335 fps=170 q=21.0 size= 60719kB time=00:04:24.66 bitrate=1879.4kbits/s frame= 6419 fps=170 q=25.0 size= 61462kB time=00:04:27.81 bitrate=1880.0kbits/s frame= 6515 fps=170 q=18.0 size= 62445kB time=00:04:31.91 bitrate=1881.3kbits/s frame= 6599 fps=170 q=19.0 size= 63239kB time=00:04:35.41 bitrate=1881.0kbits/s frame= 6688 fps=170 q=18.0 size= 63789kB time=00:04:39.50 bitrate=1869.6kbits/s frame= 6782 fps=170 q=19.0 size= 64596kB time=00:04:43.00 bitrate=1869.8kbits/s frame= 6877 fps=170 q=23.0 size= 65261kB time=00:04:47.10 bitrate=1862.1kbits/s frame= 6956 fps=170 q=23.0 size= 66007kB time=00:04:50.26 bitrate=1862.9kbits/s frame= 7045 fps=170 q=20.0 size= 66862kB time=00:04:54.18 bitrate=1861.9kbits/s frame= 7129 fps=170 q=21.0 size= 67476kB time=00:04:57.85 bitrate=1855.8kbits/s frame= 7225 fps=171 q=20.0 size= 68153kB time=00:05:01.86 bitrate=1849.5kbits/s frame= 7305 fps=170 q=25.0 size= 68899kB time=00:05:04.85 bitrate=1851.5kbits/s frame= 7393 fps=171 q=18.0 size= 70741kB time=00:05:08.69 bitrate=1877.3kbits/s frame= 7475 fps=170 q=22.0 size= 71301kB time=00:05:11.93 bitrate=1872.5kbits/s frame= 7556 fps=170 q=21.0 size= 72254kB time=00:05:15.69 bitrate=1874.9kbits/s frame= 7628 fps=170 q=23.0 size= 73381kB time=00:05:18.42 bitrate=1887.9kbits/s frame= 7708 fps=170 q=19.0 size= 75266kB time=00:05:21.57 bitrate=1917.4kbits/s frame= 7798 fps=170 q=21.0 size= 76818kB time=00:05:25.67 bitrate=1932.3kbits/s frame= 7891 fps=170 q=19.0 size= 77652kB time=00:05:29.25 bitrate=1932.0kbits/s frame= 7966 fps=170 q=20.0 size= 78080kB time=00:05:32.50 bitrate=1923.7kbits/s frame= 8045 fps=170 q=24.0 size= 79155kB time=00:05:35.82 bitrate=1930.9kbits/s frame= 8132 fps=170 q=18.0 size= 79908kB time=00:05:39.32 bitrate=1929.1kbits/s frame= 8228 fps=170 q=18.0 size= 80232kB time=00:05:43.16 bitrate=1915.3kbits/s frame= 8308 fps=170 q=17.0 size= 80915kB time=00:05:46.49 bitrate=1913.0kbits/s frame= 8389 fps=170 q=19.0 size= 82379kB time=00:05:50.33 bitrate=1926.3kbits/s frame= 8471 fps=170 q=19.0 size= 83153kB time=00:05:53.74 bitrate=1925.6kbits/s frame= 8549 fps=170 q=22.0 size= 84442kB time=00:05:57.07 bitrate=1937.3kbits/s frame= 8629 fps=169 q=23.0 size= 85929kB time=00:05:59.97 bitrate=1955.5kbits/s frame= 8710 fps=169 q=19.0 size= 87349kB time=00:06:03.73 bitrate=1967.3kbits/s frame= 8791 fps=169 q=23.0 size= 89614kB time=00:06:07.40 bitrate=1998.1kbits/s frame= 8870 fps=169 q=20.0 size= 91813kB time=00:06:10.64 bitrate=2029.2kbits/s frame= 8966 fps=169 q=23.0 size= 92576kB time=00:06:14.14 bitrate=2027.0kbits/s frame= 9034 fps=169 q=18.0 size= 93802kB time=00:06:16.70 bitrate=2039.9kbits/s frame= 9120 fps=169 q=18.0 size= 94430kB time=00:06:20.37 bitrate=2033.7kbits/s frame= 9196 fps=169 q=18.0 size= 95188kB time=00:06:24.04 bitrate=2030.5kbits/s frame= 9281 fps=169 q=21.0 size= 95957kB time=00:06:27.02 bitrate=2031.1kbits/s frame= 9365 fps=169 q=18.0 size= 97048kB time=00:06:31.03 bitrate=2033.1kbits/s frame= 9460 fps=169 q=18.0 size= 97477kB time=00:06:34.53 bitrate=2024.0kbits/s frame= 9543 fps=169 q=19.0 size= 97984kB time=00:06:38.46 bitrate=2014.5kbits/s frame= 9642 fps=169 q=17.0 size= 98590kB time=00:06:42.38 bitrate=2007.1kbits/s frame= 9733 fps=169 q=17.0 size= 98910kB time=00:06:46.05 bitrate=1995.4kbits/s frame= 9834 fps=170 q=20.0 size= 99341kB time=00:06:50.15 bitrate=1984.1kbits/s frame= 9922 fps=170 q=19.0 size= 99957kB time=00:06:53.99 bitrate=1977.9kbits/s frame=10004 fps=170 q=24.0 size= 100604kB time=00:06:57.57 bitrate=1973.6kbits/s frame=10083 fps=170 q=22.0 size= 101538kB time=00:07:00.56 bitrate=1977.8kbits/s frame=10166 fps=169 q=22.0 size= 103293kB time=00:07:04.06 bitrate=1995.4kbits/s frame=10251 fps=169 q=18.0 size= 104257kB time=00:07:07.90 bitrate=1996.0kbits/s frame=10348 fps=170 q=18.0 size= 104882kB time=00:07:11.48 bitrate=1991.2kbits/s frame=10438 fps=170 q=19.0 size= 105336kB time=00:07:15.75 bitrate=1980.3kbits/s frame=10528 fps=170 q=18.0 size= 105821kB time=00:07:19.33 bitrate=1973.2kbits/s frame=10612 fps=170 q=20.0 size= 106257kB time=00:07:23.17 bitrate=1964.1kbits/s frame=10700 fps=170 q=17.0 size= 106674kB time=00:07:26.42 bitrate=1957.5kbits/s frame=10773 fps=170 q=20.0 size= 107814kB time=00:07:29.91 bitrate=1963.0kbits/s frame=10866 fps=170 q=18.0 size= 108436kB time=00:07:33.07 bitrate=1960.6kbits/s frame=10927 fps=169 q=21.0 size= 108687kB time=00:07:35.63 bitrate=1954.1kbits/s frame=11009 fps=169 q=18.0 size= 109213kB time=00:07:39.05 bitrate=1949.0kbits/s frame=11091 fps=169 q=21.0 size= 109742kB time=00:07:42.63 bitrate=1943.2kbits/s frame=11193 fps=170 q=18.0 size= 110557kB time=00:07:46.81 bitrate=1940.1kbits/s frame=11286 fps=170 q=17.0 size= 111065kB time=00:07:50.91 bitrate=1932.1kbits/s frame=11381 fps=170 q=18.0 size= 111498kB time=00:07:55.26 bitrate=1921.9kbits/s frame=11474 fps=170 q=17.0 size= 111909kB time=00:07:58.59 bitrate=1915.5kbits/s frame=11566 fps=170 q=21.0 size= 112578kB time=00:08:02.34 bitrate=1912.0kbits/s frame=11646 fps=170 q=21.0 size= 113286kB time=00:08:06.10 bitrate=1909.1kbits/s frame=11725 fps=170 q=17.0 size= 113861kB time=00:08:09.42 bitrate=1905.8kbits/s frame=11816 fps=170 q=22.0 size= 114296kB time=00:08:12.92 bitrate=1899.5kbits/s frame=11892 fps=170 q=14.0 size= 114877kB time=00:08:16.25 bitrate=1896.4kbits/s frame=11980 fps=170 q=18.0 size= 115510kB time=00:08:20.09 bitrate=1892.1kbits/s frame=12056 fps=170 q=19.0 size= 116099kB time=00:08:23.33 bitrate=1889.6kbits/s frame=12141 fps=170 q=18.0 size= 116733kB time=00:08:26.41 bitrate=1888.3kbits/s frame=12237 fps=170 q=21.0 size= 117316kB time=00:08:30.50 bitrate=1882.5kbits/s frame=12328 fps=170 q=20.0 size= 118022kB time=00:08:34.77 bitrate=1878.2kbits/s frame=12418 fps=170 q=17.0 size= 118645kB time=00:08:38.01 bitrate=1876.3kbits/s frame=12501 fps=170 q=20.0 size= 119196kB time=00:08:41.42 bitrate=1872.6kbits/s frame=12582 fps=170 q=20.0 size= 119991kB time=00:08:44.67 bitrate=1873.5kbits/s frame=12667 fps=170 q=18.0 size= 120533kB time=00:08:48.42 bitrate=1868.6kbits/s frame=12753 fps=170 q=14.0 size= 120818kB time=00:08:52.43 bitrate=1858.9kbits/s frame=12853 fps=170 q=17.0 size= 121325kB time=00:08:56.27 bitrate=1853.3kbits/s frame=12948 fps=170 q=20.0 size= 122078kB time=00:09:00.37 bitrate=1850.7kbits/s frame=13032 fps=170 q=19.0 size= 122705kB time=00:09:03.78 bitrate=1848.5kbits/s frame=13110 fps=170 q=18.0 size= 123252kB time=00:09:07.02 bitrate=1845.7kbits/s frame=13197 fps=170 q=19.0 size= 123877kB time=00:09:10.78 bitrate=1842.5kbits/s frame=13285 fps=170 q=20.0 size= 125398kB time=00:09:14.28 bitrate=1853.3kbits/s frame=13356 fps=170 q=21.0 size= 125767kB time=00:09:17.35 bitrate=1848.5kbits/s frame=13443 fps=170 q=19.0 size= 126258kB time=00:09:20.93 bitrate=1843.9kbits/s frame=13534 fps=170 q=20.0 size= 127004kB time=00:09:24.86 bitrate=1841.9kbits/s frame=13617 fps=170 q=21.0 size= 127550kB time=00:09:28.19 bitrate=1839.0kbits/s frame=13700 fps=170 q=20.0 size= 128202kB time=00:09:31.51 bitrate=1837.6kbits/s frame=13785 fps=170 q=18.0 size= 128886kB time=00:09:35.53 bitrate=1834.5kbits/s frame=13883 fps=170 q=19.0 size= 129355kB time=00:09:39.19 bitrate=1829.6kbits/s frame=13985 fps=170 q=17.0 size= 130031kB time=00:09:43.46 bitrate=1825.7kbits/s frame=14078 fps=170 q=19.0 size= 130799kB time=00:09:47.56 bitrate=1823.6kbits/s frame=14171 fps=170 q=21.0 size= 131324kB time=00:09:51.23 bitrate=1819.6kbits/s frame=14261 fps=170 q=21.0 size= 132197kB time=00:09:54.90 bitrate=1820.4kbits/s frame=14348 fps=170 q=19.0 size= 132693kB time=00:09:58.57 bitrate=1816.0kbits/s frame=14445 fps=171 q=20.0 size= 133445kB time=00:10:02.40 bitrate=1814.7kbits/s frame=14538 fps=171 q=21.0 size= 134186kB time=00:10:06.25 bitrate=1813.2kbits/s frame=14612 fps=170 q=23.0 size= 135137kB time=00:10:09.92 bitrate=1815.1kbits/s frame=14704 fps=171 q=20.0 size= 136008kB time=00:10:13.41 bitrate=1816.3kbits/s frame=14794 fps=171 q=19.0 size= 136818kB time=00:10:16.91 bitrate=1816.8kbits/s frame=14872 fps=171 q=18.0 size= 137247kB time=00:10:20.33 bitrate=1812.5kbits/s frame=14970 fps=171 q=14.0 size= 137774kB time=00:10:24.51 bitrate=1807.2kbits/s frame=15069 fps=171 q=16.0 size= 138133kB time=00:10:28.86 bitrate=1799.4kbits/s frame=15165 fps=171 q=19.0 size= 138541kB time=00:10:32.44 bitrate=1794.5kbits/s frame=15246 fps=171 q=19.0 size= 138979kB time=00:10:36.37 bitrate=1789.1kbits/s frame=15332 fps=171 q=17.0 size= 139261kB time=00:10:39.61 bitrate=1783.6kbits/s frame=15426 fps=171 q=24.0 size= 139536kB time=00:10:43.37 bitrate=1776.7kbits/s frame=15498 fps=171 q=23.0 size= 141087kB time=00:10:46.44 bitrate=1787.9kbits/s frame=15574 fps=171 q=17.0 size= 142683kB time=00:10:50.02 bitrate=1798.2kbits/s frame=15678 fps=171 q=17.0 size= 143067kB time=00:10:54.29 bitrate=1791.3kbits/s frame=15770 fps=171 q=16.0 size= 143486kB time=00:10:57.87 bitrate=1786.7kbits/s frame=15854 fps=171 q=21.0 size= 144082kB time=00:11:01.37 bitrate=1784.6kbits/s frame=15931 fps=171 q=19.0 size= 144688kB time=00:11:04.78 bitrate=1782.9kbits/s frame=16024 fps=171 q=18.0 size= 145437kB time=00:11:08.88 bitrate=1781.2kbits/s frame=16105 fps=171 q=19.0 size= 145844kB time=00:11:11.61 bitrate=1778.9kbits/s frame=16184 fps=171 q=21.0 size= 146435kB time=00:11:15.71 bitrate=1775.3kbits/s frame=16263 fps=171 q=20.0 size= 147214kB time=00:11:18.52 bitrate=1777.3kbits/s frame=16352 fps=171 q=22.0 size= 147988kB time=00:11:22.36 bitrate=1776.6kbits/s frame=16434 fps=171 q=22.0 size= 148726kB time=00:11:25.43 bitrate=1777.5kbits/s frame=16512 fps=171 q=22.0 size= 150192kB time=00:11:28.59 bitrate=1786.8kbits/s frame=16587 fps=171 q=19.0 size= 151154kB time=00:11:32.26 bitrate=1788.7kbits/s frame=16683 fps=171 q=20.0 size= 152259kB time=00:11:36.27 bitrate=1791.4kbits/s frame=16759 fps=171 q=22.0 size= 153261kB time=00:11:39.43 bitrate=1795.0kbits/s frame=16831 fps=170 q=24.0 size= 154330kB time=00:11:42.42 bitrate=1799.9kbits/s frame=16906 fps=170 q=22.0 size= 155535kB time=00:11:45.40 bitrate=1806.2kbits/s frame=16990 fps=170 q=19.0 size= 157264kB time=00:11:48.90 bitrate=1817.3kbits/s frame=17067 fps=170 q=21.0 size= 158384kB time=00:11:52.14 bitrate=1821.9kbits/s frame=17157 fps=170 q=19.0 size= 159206kB time=00:11:55.64 bitrate=1822.4kbits/s frame=17232 fps=170 q=21.0 size= 160124kB time=00:11:59.06 bitrate=1824.2kbits/s frame=17313 fps=170 q=18.0 size= 160974kB time=00:12:02.64 bitrate=1824.8kbits/s frame=17396 fps=170 q=17.0 size= 161437kB time=00:12:06.05 bitrate=1821.5kbits/s frame=17462 fps=170 q=17.0 size= 161778kB time=00:12:08.27 bitrate=1819.8kbits/s frame=17534 fps=170 q=23.0 size= 162738kB time=00:12:11.26 bitrate=1823.1kbits/s frame=17611 fps=170 q=19.0 size= 163577kB time=00:12:14.50 bitrate=1824.4kbits/s frame=17689 fps=170 q=20.0 size= 164227kB time=00:12:17.66 bitrate=1823.8kbits/s frame=17762 fps=169 q=19.0 size= 164897kB time=00:12:21.33 bitrate=1822.2kbits/s frame=17853 fps=170 q=18.0 size= 165394kB time=00:12:24.66 bitrate=1819.5kbits/s frame=17943 fps=170 q=19.0 size= 165966kB time=00:12:28.50 bitrate=1816.4kbits/s frame=18022 fps=170 q=25.0 size= 166807kB time=00:12:31.99 bitrate=1817.1kbits/s frame=18106 fps=169 q=19.0 size= 167375kB time=00:12:35.49 bitrate=1814.9kbits/s frame=18189 fps=169 q=22.0 size= 167905kB time=00:12:38.91 bitrate=1812.4kbits/s frame=18265 fps=169 q=25.0 size= 168739kB time=00:12:41.89 bitrate=1814.3kbits/s frame=18332 fps=169 q=26.0 size= 170722kB time=00:12:44.88 bitrate=1828.4kbits/s frame=18411 fps=169 q=19.0 size= 172221kB time=00:12:48.21 bitrate=1836.5kbits/s frame=18506 fps=169 q=20.0 size= 172884kB time=00:12:52.48 bitrate=1833.4kbits/s frame=18597 fps=169 q=17.0 size= 173450kB time=00:12:56.06 bitrate=1830.9kbits/s frame=18680 fps=169 q=22.0 size= 174578kB time=00:12:59.47 bitrate=1834.7kbits/s frame=18754 fps=169 q=24.0 size= 175615kB time=00:13:02.63 bitrate=1838.2kbits/s frame=18852 fps=169 q=19.0 size= 176249kB time=00:13:06.73 bitrate=1835.2kbits/s frame=18939 fps=169 q=23.0 size= 176739kB time=00:13:10.05 bitrate=1832.6kbits/s frame=19020 fps=169 q=23.0 size= 177713kB time=00:13:13.72 bitrate=1834.2kbits/s frame=19098 fps=169 q=20.0 size= 178778kB time=00:13:16.45 bitrate=1838.8kbits/s frame=19178 fps=169 q=20.0 size= 179356kB time=00:13:20.21 bitrate=1836.1kbits/s frame=19263 fps=169 q=22.0 size= 179781kB time=00:13:23.71 bitrate=1832.5kbits/s frame=19354 fps=169 q=22.0 size= 180564kB time=00:13:27.46 bitrate=1831.9kbits/s frame=19427 fps=169 q=22.0 size= 181521kB time=00:13:30.53 bitrate=1834.6kbits/s frame=19511 fps=169 q=23.0 size= 182453kB time=00:13:33.95 bitrate=1836.3kbits/s frame=19584 fps=169 q=20.0 size= 182984kB time=00:13:37.27 bitrate=1834.1kbits/s frame=19672 fps=169 q=20.0 size= 183271kB time=00:13:40.52 bitrate=1829.8kbits/s frame=19744 fps=169 q=20.0 size= 184124kB time=00:13:43.85 bitrate=1830.8kbits/s frame=19828 fps=169 q=20.0 size= 185281kB time=00:13:47.43 bitrate=1834.4kbits/s frame=19908 fps=169 q=20.0 size= 185627kB time=00:13:50.76 bitrate=1830.4kbits/s frame=19991 fps=169 q=21.0 size= 186003kB time=00:13:54.43 bitrate=1826.1kbits/s frame=20069 fps=169 q=20.0 size= 186602kB time=00:13:56.99 bitrate=1826.4kbits/s frame=20150 fps=169 q=19.0 size= 187050kB time=00:14:00.31 bitrate=1823.5kbits/s frame=20235 fps=169 q=19.0 size= 187513kB time=00:14:04.41 bitrate=1819.1kbits/s frame=20330 fps=169 q=19.0 size= 188189kB time=00:14:08.17 bitrate=1817.6kbits/s frame=20403 fps=169 q=21.0 size= 188815kB time=00:14:11.32 bitrate=1816.9kbits/s frame=20483 fps=169 q=21.0 size= 189775kB time=00:14:14.57 bitrate=1819.2kbits/s frame=20570 fps=169 q=22.0 size= 190434kB time=00:14:18.32 bitrate=1817.5kbits/s frame=20659 fps=169 q=22.0 size= 190800kB time=00:14:21.73 bitrate=1813.8kbits/s frame=20741 fps=169 q=20.0 size= 191189kB time=00:14:25.49 bitrate=1809.6kbits/s frame=20809 fps=168 q=21.0 size= 191685kB time=00:14:28.05 bitrate=1809.0kbits/s frame=20895 fps=168 q=20.0 size= 192317kB time=00:14:31.55 bitrate=1807.6kbits/s frame=20981 fps=168 q=20.0 size= 192673kB time=00:14:35.13 bitrate=1803.6kbits/s frame=21064 fps=168 q=19.0 size= 193090kB time=00:14:38.54 bitrate=1800.5kbits/s frame=21146 fps=168 q=19.0 size= 193474kB time=00:14:42.30 bitrate=1796.4kbits/s frame=21228 fps=168 q=19.0 size= 193984kB time=00:14:45.71 bitrate=1794.2kbits/s frame=21316 fps=168 q=19.0 size= 194851kB time=00:14:49.38 bitrate=1794.7kbits/s frame=21405 fps=169 q=18.0 size= 195355kB time=00:14:52.96 bitrate=1792.2kbits/s frame=21493 fps=169 q=18.0 size= 195719kB time=00:14:56.72 bitrate=1788.0kbits/s frame=21579 fps=169 q=19.0 size= 196336kB time=00:15:00.48 bitrate=1786.1kbits/s frame=21664 fps=169 q=20.0 size= 196974kB time=00:15:03.89 bitrate=1785.2kbits/s frame=21744 fps=169 q=22.0 size= 197706kB time=00:15:07.22 bitrate=1785.2kbits/s frame=21819 fps=168 q=20.0 size= 198548kB time=00:15:09.95 bitrate=1787.5kbits/s frame=21918 fps=169 q=19.0 size= 199072kB time=00:15:14.56 bitrate=1783.2kbits/s frame=22002 fps=169 q=23.0 size= 199768kB time=00:15:17.97 bitrate=1782.7kbits/s frame=22090 fps=169 q=19.0 size= 201223kB time=00:15:21.64 bitrate=1788.6kbits/s frame=22174 fps=169 q=23.0 size= 202132kB time=00:15:24.79 bitrate=1790.5kbits/s frame=22262 fps=169 q=22.0 size= 203358kB time=00:15:28.72 bitrate=1793.8kbits/s frame=22341 fps=169 q=22.0 size= 204204kB time=00:15:32.30 bitrate=1794.3kbits/s frame=22431 fps=169 q=22.0 size= 205326kB time=00:15:35.72 bitrate=1797.6kbits/s frame=22503 fps=168 q=19.0 size= 206147kB time=00:15:38.96 bitrate=1798.5kbits/s frame=22595 fps=169 q=24.0 size= 206834kB time=00:15:42.80 bitrate=1797.2kbits/s frame=22670 fps=168 q=19.0 size= 207473kB time=00:15:46.13 bitrate=1796.4kbits/s frame=22771 fps=169 q=19.0 size= 208199kB time=00:15:49.71 bitrate=1795.9kbits/s frame=22848 fps=169 q=19.0 size= 208841kB time=00:15:53.55 bitrate=1794.2kbits/s frame=22944 fps=169 q=19.0 size= 209675kB time=00:15:56.97 bitrate=1794.9kbits/s frame=23024 fps=169 q=19.0 size= 210417kB time=00:16:00.55 bitrate=1794.5kbits/s frame=23103 fps=169 q=21.0 size= 211111kB time=00:16:04.05 bitrate=1793.9kbits/s frame=23187 fps=169 q=23.0 size= 212015kB time=00:16:07.12 bitrate=1795.9kbits/s frame=23257 fps=168 q=21.0 size= 212952kB time=00:16:10.36 bitrate=1797.8kbits/s frame=23344 fps=168 q=20.0 size= 213628kB time=00:16:13.61 bitrate=1797.5kbits/s frame=23422 fps=168 q=20.0 size= 214040kB time=00:16:17.27 bitrate=1794.2kbits/s frame=23505 fps=168 q=23.0 size= 214669kB time=00:16:20.35 bitrate=1793.8kbits/s frame=23595 fps=168 q=21.0 size= 215803kB time=00:16:24.36 bitrate=1795.9kbits/s frame=23682 fps=168 q=21.0 size= 216557kB time=00:16:27.68 bitrate=1796.1kbits/s frame=23760 fps=168 q=20.0 size= 217102kB time=00:16:30.84 bitrate=1794.9kbits/s frame=23844 fps=168 q=21.0 size= 217844kB time=00:16:34.60 bitrate=1794.3kbits/s frame=23916 fps=168 q=21.0 size= 218475kB time=00:16:37.75 bitrate=1793.8kbits/s frame=23992 fps=168 q=23.0 size= 219144kB time=00:16:41.00 bitrate=1793.4kbits/s frame=24063 fps=168 q=21.0 size= 220016kB time=00:16:44.24 bitrate=1794.8kbits/s frame=24149 fps=168 q=20.0 size= 220799kB time=00:16:47.82 bitrate=1794.7kbits/s frame=24239 fps=168 q=18.0 size= 221227kB time=00:16:50.98 bitrate=1792.6kbits/s frame=24335 fps=168 q=16.0 size= 221837kB time=00:16:55.25 bitrate=1790.0kbits/s frame=24403 fps=168 q=21.0 size= 222311kB time=00:16:58.32 bitrate=1788.4kbits/s frame=24486 fps=168 q=18.0 size= 222737kB time=00:17:01.48 bitrate=1786.3kbits/s frame=24581 fps=168 q=18.0 size= 223247kB time=00:17:05.57 bitrate=1783.2kbits/s frame=24665 fps=168 q=22.0 size= 223739kB time=00:17:08.82 bitrate=1781.5kbits/s frame=24740 fps=168 q=18.0 size= 224184kB time=00:17:12.31 bitrate=1779.0kbits/s frame=24836 fps=168 q=19.0 size= 224667kB time=00:17:15.73 bitrate=1777.0kbits/s frame=24928 fps=168 q=16.0 size= 225244kB time=00:17:20.17 bitrate=1773.9kbits/s frame=25023 fps=168 q=16.0 size= 225696kB time=00:17:24.43 bitrate=1770.2kbits/s frame=25109 fps=168 q=18.0 size= 226020kB time=00:17:27.67 bitrate=1767.3kbits/s frame=25205 fps=168 q=17.0 size= 226811kB time=00:17:31.17 bitrate=1767.6kbits/s frame=25300 fps=168 q=17.0 size= 227462kB time=00:17:35.44 bitrate=1765.5kbits/s frame=25407 fps=169 q=18.0 size= 228050kB time=00:17:39.88 bitrate=1762.6kbits/s frame=25491 fps=169 q=18.0 size= 228453kB time=00:17:43.21 bitrate=1760.2kbits/s frame=25591 fps=169 q=23.0 size= 229072kB time=00:17:47.73 bitrate=1757.5kbits/s frame=25681 fps=169 q=17.0 size= 229906kB time=00:17:51.74 bitrate=1757.3kbits/s frame=25785 fps=169 q=18.0 size= 230263kB time=00:17:55.32 bitrate=1754.2kbits/s frame=25870 fps=169 q=16.0 size= 230688kB time=00:17:59.25 bitrate=1751.0kbits/s frame=25974 fps=169 q=19.0 size= 231037kB time=00:18:03.69 bitrate=1746.5kbits/s frame=26060 fps=169 q=20.0 size= 232006kB time=00:18:06.84 bitrate=1748.7kbits/s frame=26162 fps=169 q=22.0 size= 232748kB time=00:18:11.37 bitrate=1747.0kbits/s frame=26231 fps=169 q=17.0 size= 233136kB time=00:18:14.61 bitrate=1744.8kbits/s frame=26335 fps=169 q=17.0 size= 233660kB time=00:18:18.62 bitrate=1742.3kbits/s frame=26427 fps=169 q=17.0 size= 234118kB time=00:18:22.29 bitrate=1739.9kbits/s frame=26524 fps=169 q=20.0 size= 234703kB time=00:18:26.64 bitrate=1737.4kbits/s frame=26597 fps=169 q=17.0 size= 235234kB time=00:18:29.46 bitrate=1736.9kbits/s frame=26697 fps=169 q=19.0 size= 235694kB time=00:18:34.15 bitrate=1733.0kbits/s frame=26779 fps=169 q=17.0 size= 236385kB time=00:18:37.39 bitrate=1733.0kbits/s frame=26879 fps=169 q=17.0 size= 236788kB time=00:18:41.23 bitrate=1730.0kbits/s frame=26965 fps=169 q=18.0 size= 237327kB time=00:18:44.90 bitrate=1728.3kbits/s frame=27047 fps=169 q=22.0 size= 238345kB time=00:18:48.31 bitrate=1730.5kbits/s frame=27123 fps=169 q=19.0 size= 239566kB time=00:18:51.47 bitrate=1734.5kbits/s frame=27203 fps=169 q=21.0 size= 240274kB time=00:18:54.63 bitrate=1734.8kbits/s frame=27276 fps=169 q=19.0 size= 241788kB time=00:18:57.62 bitrate=1741.1kbits/s frame=27367 fps=169 q=20.0 size= 242330kB time=00:19:01.80 bitrate=1738.6kbits/s frame=27441 fps=169 q=20.0 size= 242759kB time=00:19:04.87 bitrate=1737.0kbits/s frame=27529 fps=169 q=19.0 size= 243348kB time=00:19:08.20 bitrate=1736.2kbits/s frame=27610 fps=169 q=19.0 size= 243755kB time=00:19:11.44 bitrate=1734.2kbits/s frame=27694 fps=169 q=19.0 size= 244211kB time=00:19:15.45 bitrate=1731.4kbits/s frame=27782 fps=169 q=21.0 size= 244978kB time=00:19:18.78 bitrate=1731.9kbits/s frame=27866 fps=169 q=16.0 size= 245402kB time=00:19:22.70 bitrate=1729.0kbits/s frame=27952 fps=169 q=16.0 size= 245696kB time=00:19:26.03 bitrate=1726.1kbits/s frame=28029 fps=169 q=22.0 size= 247089kB time=00:19:29.36 bitrate=1731.0kbits/s frame=28107 fps=169 q=21.0 size= 247980kB time=00:19:32.69 bitrate=1732.3kbits/s frame=28166 fps=169 q=28.0 size= 250050kB time=00:19:34.91 bitrate=1743.5kbits/s frame=28237 fps=169 q=22.0 size= 251747kB time=00:19:37.89 bitrate=1750.8kbits/s frame=28317 fps=169 q=23.0 size= 252543kB time=00:19:41.56 bitrate=1750.9kbits/s frame=28406 fps=169 q=19.0 size= 253238kB time=00:19:44.81 bitrate=1750.9kbits/s frame=28490 fps=169 q=18.0 size= 253724kB time=00:19:48.65 bitrate=1748.6kbits/s frame=28565 fps=169 q=22.0 size= 254667kB time=00:19:51.89 bitrate=1750.4kbits/s frame=28643 fps=169 q=19.0 size= 255781kB time=00:19:54.79 bitrate=1753.7kbits/s frame=28737 fps=169 q=21.0 size= 256386kB time=00:19:58.89 bitrate=1751.9kbits/s frame=28823 fps=169 q=21.0 size= 257695kB time=00:20:02.56 bitrate=1755.5kbits/s frame=28922 fps=169 q=24.0 size= 258217kB time=00:20:06.48 bitrate=1753.3kbits/s frame=29001 fps=169 q=21.0 size= 259042kB time=00:20:09.89 bitrate=1753.9kbits/s frame=29092 fps=169 q=20.0 size= 260021kB time=00:20:13.48 bitrate=1755.4kbits/s frame=29176 fps=169 q=18.0 size= 260323kB time=00:20:16.89 bitrate=1752.5kbits/s frame=29264 fps=169 q=18.0 size= 260799kB time=00:20:20.56 bitrate=1750.4kbits/s frame=29349 fps=169 q=20.0 size= 261160kB time=00:20:24.06 bitrate=1747.8kbits/s frame=29434 fps=169 q=22.0 size= 262119kB time=00:20:28.15 bitrate=1748.4kbits/s frame=29500 fps=169 q=22.0 size= 263171kB time=00:20:30.63 bitrate=1751.9kbits/s frame=29586 fps=169 q=18.0 size= 264187kB time=00:20:34.30 bitrate=1753.4kbits/s frame=29678 fps=169 q=19.0 size= 264905kB time=00:20:37.97 bitrate=1753.0kbits/s frame=29775 fps=169 q=19.0 size= 265557kB time=00:20:42.32 bitrate=1751.1kbits/s frame=29863 fps=169 q=21.0 size= 266323kB time=00:20:46.08 bitrate=1750.9kbits/s frame=29947 fps=169 q=20.0 size= 267169kB time=00:20:49.32 bitrate=1751.9kbits/s frame=30032 fps=169 q=17.0 size= 267823kB time=00:20:52.90 bitrate=1751.1kbits/s frame=30129 fps=169 q=22.0 size= 268375kB time=00:20:56.66 bitrate=1749.5kbits/s frame=30205 fps=169 q=22.0 size= 269071kB time=00:21:00.50 bitrate=1748.7kbits/s frame=30288 fps=169 q=22.0 size= 269880kB time=00:21:03.31 bitrate=1750.0kbits/s frame=30366 fps=169 q=19.0 size= 270480kB time=00:21:06.98 bitrate=1748.9kbits/s frame=30444 fps=169 q=19.0 size= 270806kB time=00:21:10.22 bitrate=1746.5kbits/s frame=30539 fps=169 q=18.0 size= 271389kB time=00:21:14.23 bitrate=1744.7kbits/s frame=30628 fps=169 q=20.0 size= 272111kB time=00:21:17.65 bitrate=1744.7kbits/s frame=30724 fps=169 q=19.0 size= 272525kB time=00:21:22.09 bitrate=1741.3kbits/s frame=30805 fps=169 q=21.0 size= 273331kB time=00:21:24.73 bitrate=1742.9kbits/s frame=30886 fps=169 q=20.0 size= 274527kB time=00:21:28.23 bitrate=1745.7kbits/s frame=30970 fps=169 q=18.0 size= 275010kB time=00:21:32.15 bitrate=1743.5kbits/s frame=31069 fps=169 q=18.0 size= 275498kB time=00:21:35.91 bitrate=1741.5kbits/s frame=31151 fps=169 q=18.0 size= 275831kB time=00:21:39.32 bitrate=1739.1kbits/s frame=31244 fps=169 q=19.0 size= 276394kB time=00:21:43.33 bitrate=1737.2kbits/s frame=31320 fps=169 q=20.0 size= 277433kB time=00:21:46.49 bitrate=1739.6kbits/s frame=31411 fps=169 q=20.0 size= 278657kB time=00:21:50.84 bitrate=1741.4kbits/s frame=31490 fps=169 q=19.0 size= 279033kB time=00:21:53.66 bitrate=1740.0kbits/s frame=31585 fps=169 q=20.0 size= 280140kB time=00:21:57.33 bitrate=1742.1kbits/s frame=31662 fps=169 q=23.0 size= 281639kB time=00:22:00.48 bitrate=1747.2kbits/s frame=31756 fps=169 q=21.0 size= 282414kB time=00:22:04.50 bitrate=1746.7kbits/s frame=31770 fps=169 q=-1.0 Lsize= 283426kB time=00:22:05.07 bitrate=1752.2kbits/s
video:260123kB audio:22587kB subtitle:0 global headers:0kB muxing overhead 0.252835%
[libx264 @ 0x81c9f40] frame I:128 Avg QP:16.89 size: 87671
[libx264 @ 0x81c9f40] frame P:31642 Avg QP:19.73 size: 8063
[libx264 @ 0x81c9f40] mb I I16..4: 100.0% 0.0% 0.0%
[libx264 @ 0x81c9f40] mb P I16..4: 6.8% 0.0% 0.0% P16..4: 23.6% 0.0% 0.0% 0.0% 0.0% skip:69.6%
[libx264 @ 0x81c9f40] coded y,uvDC,uvAC intra: 33.2% 31.7% 8.2% inter: 8.6% 7.9% 0.5%
[libx264 @ 0x81c9f40] i16 v,h,dc,p: 45% 25% 17% 12%
[libx264 @ 0x81c9f40] i8c dc,h,v,p: 53% 18% 24% 5%
[libx264 @ 0x81c9f40] kb/s:1608.16
Sign up for free to join this conversation on GitHub. Already have an account? Sign in to comment