Skip to content

Instantly share code, notes, and snippets.

@rcombs
Created Nov 10, 2013
Embed
What would you like to do?
General
Complete name : out.mp4
Format : MPEG-4
Format profile : Base Media
Codec ID : isom
File size : 277 MiB
Duration : 22mn 5s
Overall bit rate : 1 752 Kbps
Movie name : Toradora 01
Writing application : Lavf55.21.100
Video
ID : 1
Format : AVC
Format/Info : Advanced Video Codec
Format profile : Baseline@L3.1
Format settings, CABAC : No
Format settings, ReFrames : 1 frame
Codec ID : avc1
Codec ID/Info : Advanced Video Coding
Duration : 22mn 5s
Bit rate : 1 608 Kbps
Width : 1 280 pixels
Height : 720 pixels
Display aspect ratio : 16:9
Frame rate mode : Constant
Frame rate : 23.976 fps
Color space : YUV
Chroma subsampling : 4:2:0
Bit depth : 8 bits
Scan type : Progressive
Bits/(Pixel*Frame) : 0.073
Stream size : 254 MiB (92%)
Writing library : x264 core 138 r2358M 9e941d1
Encoding settings : cabac=0 / ref=1 / deblock=0:0:0 / analyse=0:0 / me=dia / subme=0 / psy=1 / psy_rd=1.00:0.00 / mixed_ref=0 / me_range=16 / chroma_me=1 / trellis=0 / 8x8dct=0 / cqm=0 / deadzone=21,11 / fast_pskip=1 / chroma_qp_offset=0 / threads=6 / lookahead_threads=1 / sliced_threads=0 / nr=0 / decimate=1 / interlaced=0 / bluray_compat=0 / constrained_intra=0 / bframes=0 / weightp=0 / keyint=250 / keyint_min=23 / scenecut=0 / intra_refresh=0 / rc=crf / mbtree=0 / crf=23.0 / qcomp=0.60 / qpmin=0 / qpmax=69 / qpstep=4 / ip_ratio=1.40 / aq=0
Audio
ID : 2
Format : AAC
Format/Info : Advanced Audio Codec
Format profile : LC
Codec ID : 40
Duration : 22mn 5s
Bit rate mode : Constant
Bit rate : 140 Kbps
Channel(s) : 2 channels
Channel positions : Front: L R
Sampling rate : 48.0 KHz
Compression mode : Lossy
Stream size : 22.1 MiB (8%)
Language : Japanese
Text
ID : 3
Format : Apple text
Codec ID : text
Duration : 22mn 5s
Bit rate mode : Variable
Bit rate : 0
Stream size : 36.0 Bytes (0%)
Language : English
Menu
00:00:00.000 : Prologue / OP
00:01:22.040 : Toradora 01
00:21:55.059 : Preview
Sign up for free to join this conversation on GitHub. Already have an account? Sign in to comment