Skip to content

Instantly share code, notes, and snippets.

Embed
What would you like to do?
ffmpeg -loglevel debug -i s2.ts -filter:v 'setpts=900000+PTS-STARTPTS' -qscale 0 s2_shift.avi works as desired but ffmpeg -loglevel debug -i s2.ts -filter:v 'setpts=900000+PTS-STARTPTS' -qscale 0 s2_shift.ts generates odd time stamps also Duration: 00:00:19.96, start: 1.400000, bitrate: 11990 kb/s is incorrect for the source which has timestamp…
Mark-Essels-iMac:public messel$ ffmpeg -loglevel debug -i s2.ts -filter:v 'setpts=900000+PTS-STARTPTS' -qscale 0 s2_shift.avi
ffmpeg version 1.1 Copyright (c) 2000-2013 the FFmpeg developers
built on Mar 13 2013 10:35:55 with Apple LLVM version 4.2 (clang-425.0.24) (based on LLVM 3.2svn)
configuration: --prefix=/usr/local/Cellar/ffmpeg/1.1 --enable-shared --enable-pthreads --enable-gpl --enable-version3 --enable-nonfree --enable-hardcoded-tables --enable-avresample --cc=cc --host-cflags= --host-ldflags= --enable-libx264 --enable-libfaac --enable-libmp3lame --enable-libxvid
libavutil 52. 13.100 / 52. 13.100
libavcodec 54. 86.100 / 54. 86.100
libavformat 54. 59.106 / 54. 59.106
libavdevice 54. 3.102 / 54. 3.102
libavfilter 3. 32.100 / 3. 32.100
libswscale 2. 1.103 / 2. 1.103
libswresample 0. 17.102 / 0. 17.102
libpostproc 52. 2.100 / 52. 2.100
Splitting the commandline.
Reading option '-loglevel' ... matched as option 'loglevel' (set libav* logging level) with argument 'debug'.
Reading option '-i' ... matched as input file with argument 's2.ts'.
Reading option '-filter:v' ... matched as option 'filter' (set stream filterchain) with argument 'setpts=900000+PTS-STARTPTS'.
Reading option '-qscale' ... matched as option 'qscale' (use fixed quality scale (VBR)) with argument '0'.
Reading option 's2_shift.avi' ... matched as output file.
Finished splitting the commandline.
Parsing a group of options: global .
Applying option loglevel (set libav* logging level) with argument debug.
Successfully parsed a group of options.
Parsing a group of options: input file s2.ts.
Successfully parsed a group of options.
Opening an input file: s2.ts.
[mpegts @ 0x7faf2b032600] Format mpegts probed with size=2048 and score=100
[mpegts @ 0x7faf2b032600] stream=0 stream_type=1b pid=100 prog_reg_desc=
[mpegts @ 0x7faf2b032600] File position before avformat_find_stream_info() is 0
[h264 @ 0x7faf2b03ac00] Current profile doesn't provide more RBSP data in PPS, skipping
Last message repeated 1 times
[mpegts @ 0x7faf2b032600] max_analyze_duration 5000000 reached at 5000000
[mpegts @ 0x7faf2b032600] File position after avformat_find_stream_info() is 0
Input #0, mpegts, from 's2.ts':
Duration: 00:00:09.96, start: 0.000000, bitrate: 2672 kb/s
Program 1
Metadata:
service_name : Service01
service_provider: FFmpeg
Stream #0:0[0x100], 122, 1/90000: Video: h264 (Constrained Baseline) ([27][0][0][0] / 0x001B), yuv420p, 1280x720, 1/48, 24 fps, 24 tbr, 90k tbn, 48 tbc
Successfully openened the file.
Parsing a group of options: output file s2_shift.avi.
Applying option filter:v (set stream filterchain) with argument setpts=900000+PTS-STARTPTS.
Applying option qscale (use fixed quality scale (VBR)) with argument 0.
Please use -q:a or -q:v, -qscale is ambiguous
Successfully parsed a group of options.
Opening an output file: s2_shift.avi.
File 's2_shift.avi' already exists. Overwrite ? [y/N] y
Successfully openened the file.
[buffer @ 0x7faf2ac12fc0] Setting entry with key 'video_size' to value '1280x720'
[buffer @ 0x7faf2ac12fc0] Setting entry with key 'pix_fmt' to value '0'
[buffer @ 0x7faf2ac12fc0] Setting entry with key 'time_base' to value '1/90000'
[buffer @ 0x7faf2ac12fc0] Setting entry with key 'pixel_aspect' to value '0/1'
[buffer @ 0x7faf2ac12fc0] Setting entry with key 'sws_param' to value 'flags=2'
[buffer @ 0x7faf2ac12fc0] Setting entry with key 'frame_rate' to value '24/1'
[graph 0 input from stream 0:0 @ 0x7faf2ac13080] w:1280 h:720 pixfmt:yuv420p tb:1/90000 fr:24/1 sar:0/1 sws_param:flags=2
[graph 0 input from stream 0:0 @ 0x7faf2ac13080] TB:0.000011 FRAME_RATE:24.000000 SAMPLE_RATE:nan
[mpeg4 @ 0x7faf2b033200] detected 4 logical cores
[mpeg4 @ 0x7faf2b033200] intra_quant_bias = 0 inter_quant_bias = -64
[h264 @ 0x7faf2b03ac00] detected 4 logical cores
Output #0, avi, to 's2_shift.avi':
Metadata:
ISFT : Lavf54.59.106
Stream #0:0, 0, 1/24: Video: mpeg4 (FMP4 / 0x34504D46), yuv420p, 1280x720, 1/24, q=2-31, 200 kb/s, 24 tbn, 24 tbc
Stream mapping:
Stream #0:0 -> #0:0 (h264 -> mpeg4)
Press [q] to stop, [?] for help
[h264 @ 0x7faf2b03ac00] Current profile doesn't provide more RBSP data in PPS, skipping
[h264 @ 0x7faf2c0aac00] Using externally provided dimensions
[Parsed_setpts_0 @ 0x7faf2ac118c0] N:0 PTS:0 T:0.000000 POS:564 INTERLACED:0 -> PTS:900000 T:10.000000
[Parsed_setpts_0 @ 0x7faf2ac118c0] N:1 PTS:3750 T:0.041667 POS:88172 INTERLACED:0 -> PTS:903750 T:10.041667
[Parsed_setpts_0 @ 0x7faf2ac118c0] N:2 PTS:7500 T:0.083333 POS:109040 INTERLACED:0 -> PTS:907500 T:10.083333
[Parsed_setpts_0 @ 0x7faf2ac118c0] N:3 PTS:11250 T:0.125000 POS:134608 INTERLACED:0 -> PTS:911250 T:10.125000
[Parsed_setpts_0 @ 0x7faf2ac118c0] N:4 PTS:15000 T:0.166667 POS:153032 INTERLACED:0 -> PTS:915000 T:10.166667
[Parsed_setpts_0 @ 0x7faf2ac118c0] N:5 PTS:18750 T:0.208333 POS:154724 INTERLACED:0 -> PTS:918750 T:10.208333
[Parsed_setpts_0 @ 0x7faf2ac118c0] N:6 PTS:22500 T:0.250000 POS:214696 INTERLACED:0 -> PTS:922500 T:10.250000
[Parsed_setpts_0 @ 0x7faf2ac118c0] N:7 PTS:26250 T:0.291667 POS:218080 INTERLACED:0 -> PTS:926250 T:10.291667
[Parsed_setpts_0 @ 0x7faf2ac118c0] N:8 PTS:30000 T:0.333333 POS:228608 INTERLACED:0 -> PTS:930000 T:10.333333
[Parsed_setpts_0 @ 0x7faf2ac118c0] N:9 PTS:33750 T:0.375000 POS:244776 INTERLACED:0 -> PTS:933750 T:10.375000
[Parsed_setpts_0 @ 0x7faf2ac118c0] N:10 PTS:37500 T:0.416667 POS:268088 INTERLACED:0 -> PTS:937500 T:10.416667
[Parsed_setpts_0 @ 0x7faf2ac118c0] N:11 PTS:41250 T:0.458333 POS:282564 INTERLACED:0 -> PTS:941250 T:10.458333
[Parsed_setpts_0 @ 0x7faf2ac118c0] N:12 PTS:45000 T:0.500000 POS:299296 INTERLACED:0 -> PTS:945000 T:10.500000
[Parsed_setpts_0 @ 0x7faf2ac118c0] N:13 PTS:48750 T:0.541667 POS:311892 INTERLACED:0 -> PTS:948750 T:10.541667
[Parsed_setpts_0 @ 0x7faf2ac118c0] N:14 PTS:52500 T:0.583333 POS:328624 INTERLACED:0 -> PTS:952500 T:10.583333
[Parsed_setpts_0 @ 0x7faf2ac118c0] N:15 PTS:56250 T:0.625000 POS:345168 INTERLACED:0 -> PTS:956250 T:10.625000
[Parsed_setpts_0 @ 0x7faf2ac118c0] N:16 PTS:60000 T:0.666667 POS:362652 INTERLACED:0 -> PTS:960000 T:10.666667
[Parsed_setpts_0 @ 0x7faf2ac118c0] N:17 PTS:63750 T:0.708333 POS:377128 INTERLACED:0 -> PTS:963750 T:10.708333
[Parsed_setpts_0 @ 0x7faf2ac118c0] N:18 PTS:67500 T:0.750000 POS:392168 INTERLACED:0 -> PTS:967500 T:10.750000
[Parsed_setpts_0 @ 0x7faf2ac118c0] N:19 PTS:71250 T:0.791667 POS:402508 INTERLACED:0 -> PTS:971250 T:10.791667
[Parsed_setpts_0 @ 0x7faf2ac118c0] N:20 PTS:75000 T:0.833333 POS:423752 INTERLACED:0 -> PTS:975000 T:10.833333
[Parsed_setpts_0 @ 0x7faf2ac118c0] N:21 PTS:78750 T:0.875000 POS:434092 INTERLACED:0 -> PTS:978750 T:10.875000
[Parsed_setpts_0 @ 0x7faf2ac118c0] N:22 PTS:82500 T:0.916667 POS:449132 INTERLACED:0 -> PTS:982500 T:10.916667
[Parsed_setpts_0 @ 0x7faf2ac118c0] N:23 PTS:86250 T:0.958333 POS:466804 INTERLACED:0 -> PTS:986250 T:10.958333
[Parsed_setpts_0 @ 0x7faf2ac118c0] N:24 PTS:90000 T:1.000000 POS:480340 INTERLACED:0 -> PTS:990000 T:11.000000
[Parsed_setpts_0 @ 0x7faf2ac118c0] N:25 PTS:93750 T:1.041667 POS:490304 INTERLACED:0 -> PTS:993750 T:11.041667
[Parsed_setpts_0 @ 0x7faf2ac118c0] N:26 PTS:97500 T:1.083333 POS:500456 INTERLACED:0 -> PTS:997500 T:11.083333
[Parsed_setpts_0 @ 0x7faf2ac118c0] N:27 PTS:101250 T:1.125000 POS:513616 INTERLACED:0 -> PTS:1001250 T:11.125000
[Parsed_setpts_0 @ 0x7faf2ac118c0] N:28 PTS:105000 T:1.166667 POS:527716 INTERLACED:0 -> PTS:1005000 T:11.166667
[Parsed_setpts_0 @ 0x7faf2ac118c0] N:29 PTS:108750 T:1.208333 POS:538244 INTERLACED:0 -> PTS:1008750 T:11.208333
[Parsed_setpts_0 @ 0x7faf2ac118c0] N:30 PTS:112500 T:1.250000 POS:549524 INTERLACED:0 -> PTS:1012500 T:11.250000
[Parsed_setpts_0 @ 0x7faf2ac118c0] N:31 PTS:116250 T:1.291667 POS:561556 INTERLACED:0 -> PTS:1016250 T:11.291667
[Parsed_setpts_0 @ 0x7faf2ac118c0] N:32 PTS:120000 T:1.333333 POS:582988 INTERLACED:0 -> PTS:1020000 T:11.333333
[Parsed_setpts_0 @ 0x7faf2ac118c0] N:33 PTS:123750 T:1.375000 POS:593704 INTERLACED:0 -> PTS:1023750 T:11.375000
[Parsed_setpts_0 @ 0x7faf2ac118c0] N:34 PTS:127500 T:1.416667 POS:602540 INTERLACED:0 -> PTS:1027500 T:11.416667
[Parsed_setpts_0 @ 0x7faf2ac118c0] N:35 PTS:131250 T:1.458333 POS:614196 INTERLACED:0 -> PTS:1031250 T:11.458333
[Parsed_setpts_0 @ 0x7faf2ac118c0] N:36 PTS:135000 T:1.500000 POS:627356 INTERLACED:0 -> PTS:1035000 T:11.500000
[Parsed_setpts_0 @ 0x7faf2ac118c0] N:37 PTS:138750 T:1.541667 POS:639576 INTERLACED:0 -> PTS:1038750 T:11.541667
[Parsed_setpts_0 @ 0x7faf2ac118c0] N:38 PTS:142500 T:1.583333 POS:648788 INTERLACED:0 -> PTS:1042500 T:11.583333
[Parsed_setpts_0 @ 0x7faf2ac118c0] N:39 PTS:146250 T:1.625000 POS:663264 INTERLACED:0 -> PTS:1046250 T:11.625000
[Parsed_setpts_0 @ 0x7faf2ac118c0] N:40 PTS:150000 T:1.666667 POS:678116 INTERLACED:0 -> PTS:1050000 T:11.666667
[Parsed_setpts_0 @ 0x7faf2ac118c0] N:41 PTS:153750 T:1.708333 POS:690712 INTERLACED:0 -> PTS:1053750 T:11.708333
[Parsed_setpts_0 @ 0x7faf2ac118c0] N:42 PTS:157500 T:1.750000 POS:702368 INTERLACED:0 -> PTS:1057500 T:11.750000
[Parsed_setpts_0 @ 0x7faf2ac118c0] N:43 PTS:161250 T:1.791667 POS:713460 INTERLACED:0 -> PTS:1061250 T:11.791667
[Parsed_setpts_0 @ 0x7faf2ac118c0] N:44 PTS:165000 T:1.833333 POS:726056 INTERLACED:0 -> PTS:1065000 T:11.833333
[Parsed_setpts_0 @ 0x7faf2ac118c0] N:45 PTS:168750 T:1.875000 POS:739780 INTERLACED:0 -> PTS:1068750 T:11.875000
[Parsed_setpts_0 @ 0x7faf2ac118c0] N:46 PTS:172500 T:1.916667 POS:751060 INTERLACED:0 -> PTS:1072500 T:11.916667
[Parsed_setpts_0 @ 0x7faf2ac118c0] N:47 PTS:176250 T:1.958333 POS:764408 INTERLACED:0 -> PTS:1076250 T:11.958333
[Parsed_setpts_0 @ 0x7faf2ac118c0] N:48 PTS:180000 T:2.000000 POS:779824 INTERLACED:0 -> PTS:1080000 T:12.000000
[Parsed_setpts_0 @ 0x7faf2ac118c0] N:49 PTS:183750 T:2.041667 POS:789600 INTERLACED:0 -> PTS:1083750 T:12.041667
[Parsed_setpts_0 @ 0x7faf2ac118c0] N:50 PTS:187500 T:2.083333 POS:804452 INTERLACED:0 -> PTS:1087500 T:12.083333
[Parsed_setpts_0 @ 0x7faf2ac118c0] N:51 PTS:191250 T:2.125000 POS:816108 INTERLACED:0 -> PTS:1091250 T:12.125000
[Parsed_setpts_0 @ 0x7faf2ac118c0] N:52 PTS:195000 T:2.166667 POS:830396 INTERLACED:0 -> PTS:1095000 T:12.166667
[Parsed_setpts_0 @ 0x7faf2ac118c0] N:53 PTS:198750 T:2.208333 POS:842992 INTERLACED:0 -> PTS:1098750 T:12.208333
[Parsed_setpts_0 @ 0x7faf2ac118c0] N:54 PTS:202500 T:2.250000 POS:854460 INTERLACED:0 -> PTS:1102500 T:12.250000
[Parsed_setpts_0 @ 0x7faf2ac118c0] N:55 PTS:206250 T:2.291667 POS:865364 INTERLACED:0 -> PTS:1106250 T:12.291667
[Parsed_setpts_0 @ 0x7faf2ac118c0] N:56 PTS:210000 T:2.333333 POS:886608 INTERLACED:0 -> PTS:1110000 T:12.333333
[Parsed_setpts_0 @ 0x7faf2ac118c0] N:57 PTS:213750 T:2.375000 POS:896196 INTERLACED:0 -> PTS:1113750 T:12.375000
[Parsed_setpts_0 @ 0x7faf2ac118c0] N:58 PTS:217500 T:2.416667 POS:908416 INTERLACED:0 -> PTS:1117500 T:12.416667
[Parsed_setpts_0 @ 0x7faf2ac118c0] N:59 PTS:221250 T:2.458333 POS:921388 INTERLACED:0 -> PTS:1121250 T:12.458333
[Parsed_setpts_0 @ 0x7faf2ac118c0] N:60 PTS:225000 T:2.500000 POS:933420 INTERLACED:0 -> PTS:1125000 T:12.500000
[Parsed_setpts_0 @ 0x7faf2ac118c0] N:61 PTS:228750 T:2.541667 POS:944700 INTERLACED:0 -> PTS:1128750 T:12.541667
[Parsed_setpts_0 @ 0x7faf2ac118c0] N:62 PTS:232500 T:2.583333 POS:955228 INTERLACED:0 -> PTS:1132500 T:12.583333
[Parsed_setpts_0 @ 0x7faf2ac118c0] N:63 PTS:236250 T:2.625000 POS:969140 INTERLACED:0 -> PTS:1136250 T:12.625000
[Parsed_setpts_0 @ 0x7faf2ac118c0] N:64 PTS:240000 T:2.666667 POS:980796 INTERLACED:0 -> PTS:1140000 T:12.666667
[Parsed_setpts_0 @ 0x7faf2ac118c0] N:65 PTS:243750 T:2.708333 POS:993580 INTERLACED:0 -> PTS:1143750 T:12.708333
[Parsed_setpts_0 @ 0x7faf2ac118c0] N:66 PTS:247500 T:2.750000 POS:1005800 INTERLACED:0 -> PTS:1147500 T:12.750000
N:67 PTS:251250 T:2.791667 POS:1020464 INTERLACED:0 -> PTS:1151250 T:12.791667/s
[Parsed_setpts_0 @ 0x7faf2ac118c0] N:68 PTS:255000 T:2.833333 POS:1030992 INTERLACED:0 -> PTS:1155000 T:12.833333
[Parsed_setpts_0 @ 0x7faf2ac118c0] N:69 PTS:258750 T:2.875000 POS:1044340 INTERLACED:0 -> PTS:1158750 T:12.875000
[Parsed_setpts_0 @ 0x7faf2ac118c0] N:70 PTS:262500 T:2.916667 POS:1054680 INTERLACED:0 -> PTS:1162500 T:12.916667
[Parsed_setpts_0 @ 0x7faf2ac118c0] N:71 PTS:266250 T:2.958333 POS:1069344 INTERLACED:0 -> PTS:1166250 T:12.958333
[Parsed_setpts_0 @ 0x7faf2ac118c0] N:72 PTS:270000 T:3.000000 POS:1082692 INTERLACED:0 -> PTS:1170000 T:13.000000
[Parsed_setpts_0 @ 0x7faf2ac118c0] N:73 PTS:273750 T:3.041667 POS:1094348 INTERLACED:0 -> PTS:1173750 T:13.041667
[Parsed_setpts_0 @ 0x7faf2ac118c0] N:74 PTS:277500 T:3.083333 POS:1104688 INTERLACED:0 -> PTS:1177500 T:13.083333
[Parsed_setpts_0 @ 0x7faf2ac118c0] N:75 PTS:281250 T:3.125000 POS:1118036 INTERLACED:0 -> PTS:1181250 T:13.125000
[Parsed_setpts_0 @ 0x7faf2ac118c0] N:76 PTS:285000 T:3.166667 POS:1130444 INTERLACED:0 -> PTS:1185000 T:13.166667
[Parsed_setpts_0 @ 0x7faf2ac118c0] N:77 PTS:288750 T:3.208333 POS:1142852 INTERLACED:0 -> PTS:1188750 T:13.208333
[Parsed_setpts_0 @ 0x7faf2ac118c0] N:78 PTS:292500 T:3.250000 POS:1153380 INTERLACED:0 -> PTS:1192500 T:13.250000
[h264 @ 0x7faf2b03ac00] Current profile doesn't provide more RBSP data in PPS, skipping
[Parsed_setpts_0 @ 0x7faf2ac118c0] N:79 PTS:296250 T:3.291667 POS:1167104 INTERLACED:0 -> PTS:1196250 T:13.291667
[Parsed_setpts_0 @ 0x7faf2ac118c0] N:80 PTS:300000 T:3.333333 POS:1186092 INTERLACED:0 -> PTS:1200000 T:13.333333
[Parsed_setpts_0 @ 0x7faf2ac118c0] N:81 PTS:303750 T:3.375000 POS:1204704 INTERLACED:0 -> PTS:1203750 T:13.375000
[Parsed_setpts_0 @ 0x7faf2ac118c0] N:82 PTS:307500 T:3.416667 POS:1222376 INTERLACED:0 -> PTS:1207500 T:13.416667
[Parsed_setpts_0 @ 0x7faf2ac118c0] N:83 PTS:311250 T:3.458333 POS:1224256 INTERLACED:0 -> PTS:1211250 T:13.458333
[Parsed_setpts_0 @ 0x7faf2ac118c0] N:84 PTS:315000 T:3.500000 POS:1303592 INTERLACED:0 -> PTS:1215000 T:13.500000
[Parsed_setpts_0 @ 0x7faf2ac118c0] N:85 PTS:318750 T:3.541667 POS:1312428 INTERLACED:0 -> PTS:1218750 T:13.541667
[Parsed_setpts_0 @ 0x7faf2ac118c0] N:86 PTS:322500 T:3.583333 POS:1325964 INTERLACED:0 -> PTS:1222500 T:13.583333
[Parsed_setpts_0 @ 0x7faf2ac118c0] N:87 PTS:326250 T:3.625000 POS:1337996 INTERLACED:0 -> PTS:1226250 T:13.625000
[Parsed_setpts_0 @ 0x7faf2ac118c0] N:88 PTS:330000 T:3.666667 POS:1351908 INTERLACED:0 -> PTS:1230000 T:13.666667
[Parsed_setpts_0 @ 0x7faf2ac118c0] N:89 PTS:333750 T:3.708333 POS:1361872 INTERLACED:0 -> PTS:1233750 T:13.708333
[Parsed_setpts_0 @ 0x7faf2ac118c0] N:90 PTS:337500 T:3.750000 POS:1374844 INTERLACED:0 -> PTS:1237500 T:13.750000
[Parsed_setpts_0 @ 0x7faf2ac118c0] N:91 PTS:341250 T:3.791667 POS:1386500 INTERLACED:0 -> PTS:1241250 T:13.791667
[Parsed_setpts_0 @ 0x7faf2ac118c0] N:92 PTS:345000 T:3.833333 POS:1401164 INTERLACED:0 -> PTS:1245000 T:13.833333
[Parsed_setpts_0 @ 0x7faf2ac118c0] N:93 PTS:348750 T:3.875000 POS:1411880 INTERLACED:0 -> PTS:1248750 T:13.875000
[Parsed_setpts_0 @ 0x7faf2ac118c0] N:94 PTS:352500 T:3.916667 POS:1431432 INTERLACED:0 -> PTS:1252500 T:13.916667
[Parsed_setpts_0 @ 0x7faf2ac118c0] N:95 PTS:356250 T:3.958333 POS:1441960 INTERLACED:0 -> PTS:1256250 T:13.958333
[Parsed_setpts_0 @ 0x7faf2ac118c0] N:96 PTS:360000 T:4.000000 POS:1455496 INTERLACED:0 -> PTS:1260000 T:14.000000
[Parsed_setpts_0 @ 0x7faf2ac118c0] N:97 PTS:363750 T:4.041667 POS:1466588 INTERLACED:0 -> PTS:1263750 T:14.041667
[Parsed_setpts_0 @ 0x7faf2ac118c0] N:98 PTS:367500 T:4.083333 POS:1486892 INTERLACED:0 -> PTS:1267500 T:14.083333
[Parsed_setpts_0 @ 0x7faf2ac118c0] N:99 PTS:371250 T:4.125000 POS:1497984 INTERLACED:0 -> PTS:1271250 T:14.125000
[Parsed_setpts_0 @ 0x7faf2ac118c0] N:100 PTS:375000 T:4.166667 POS:1512460 INTERLACED:0 -> PTS:1275000 T:14.166667
[Parsed_setpts_0 @ 0x7faf2ac118c0] N:101 PTS:378750 T:4.208333 POS:1524116 INTERLACED:0 -> PTS:1278750 T:14.208333
[Parsed_setpts_0 @ 0x7faf2ac118c0] N:102 PTS:382500 T:4.250000 POS:1545736 INTERLACED:0 -> PTS:1282500 T:14.250000
[Parsed_setpts_0 @ 0x7faf2ac118c0] N:103 PTS:386250 T:4.291667 POS:1557392 INTERLACED:0 -> PTS:1286250 T:14.291667
[Parsed_setpts_0 @ 0x7faf2ac118c0] N:104 PTS:390000 T:4.333333 POS:1571492 INTERLACED:0 -> PTS:1290000 T:14.333333
[Parsed_setpts_0 @ 0x7faf2ac118c0] N:105 PTS:393750 T:4.375000 POS:1581080 INTERLACED:0 -> PTS:1293750 T:14.375000
[Parsed_setpts_0 @ 0x7faf2ac118c0] N:106 PTS:397500 T:4.416667 POS:1599692 INTERLACED:0 -> PTS:1297500 T:14.416667
[Parsed_setpts_0 @ 0x7faf2ac118c0] N:107 PTS:401250 T:4.458333 POS:1610220 INTERLACED:0 -> PTS:1301250 T:14.458333
[Parsed_setpts_0 @ 0x7faf2ac118c0] N:108 PTS:405000 T:4.500000 POS:1624508 INTERLACED:0 -> PTS:1305000 T:14.500000
[Parsed_setpts_0 @ 0x7faf2ac118c0] N:109 PTS:408750 T:4.541667 POS:1635788 INTERLACED:0 -> PTS:1308750 T:14.541667
[Parsed_setpts_0 @ 0x7faf2ac118c0] N:110 PTS:412500 T:4.583333 POS:1654964 INTERLACED:0 -> PTS:1312500 T:14.583333
[Parsed_setpts_0 @ 0x7faf2ac118c0] N:111 PTS:416250 T:4.625000 POS:1664740 INTERLACED:0 -> PTS:1316250 T:14.625000
[Parsed_setpts_0 @ 0x7faf2ac118c0] N:112 PTS:420000 T:4.666667 POS:1676020 INTERLACED:0 -> PTS:1320000 T:14.666667
[Parsed_setpts_0 @ 0x7faf2ac118c0] N:113 PTS:423750 T:4.708333 POS:1685984 INTERLACED:0 -> PTS:1323750 T:14.708333
[Parsed_setpts_0 @ 0x7faf2ac118c0] N:114 PTS:427500 T:4.750000 POS:1699708 INTERLACED:0 -> PTS:1327500 T:14.750000
[Parsed_setpts_0 @ 0x7faf2ac118c0] N:115 PTS:431250 T:4.791667 POS:1709672 INTERLACED:0 -> PTS:1331250 T:14.791667
[Parsed_setpts_0 @ 0x7faf2ac118c0] N:116 PTS:435000 T:4.833333 POS:1720388 INTERLACED:0 -> PTS:1335000 T:14.833333
[Parsed_setpts_0 @ 0x7faf2ac118c0] N:117 PTS:438750 T:4.875000 POS:1733548 INTERLACED:0 -> PTS:1338750 T:14.875000
[Parsed_setpts_0 @ 0x7faf2ac118c0] N:118 PTS:442500 T:4.916667 POS:1751220 INTERLACED:0 -> PTS:1342500 T:14.916667
[Parsed_setpts_0 @ 0x7faf2ac118c0] N:119 PTS:446250 T:4.958333 POS:1761748 INTERLACED:0 -> PTS:1346250 T:14.958333
[Parsed_setpts_0 @ 0x7faf2ac118c0] N:120 PTS:450000 T:5.000000 POS:1773028 INTERLACED:0 -> PTS:1350000 T:15.000000
[Parsed_setpts_0 @ 0x7faf2ac118c0] N:121 PTS:453750 T:5.041667 POS:1782804 INTERLACED:0 -> PTS:1353750 T:15.041667
[Parsed_setpts_0 @ 0x7faf2ac118c0] N:122 PTS:457500 T:5.083333 POS:1797656 INTERLACED:0 -> PTS:1357500 T:15.083333
[Parsed_setpts_0 @ 0x7faf2ac118c0] N:123 PTS:461250 T:5.125000 POS:1811004 INTERLACED:0 -> PTS:1361250 T:15.125000
[Parsed_setpts_0 @ 0x7faf2ac118c0] N:124 PTS:465000 T:5.166667 POS:1825668 INTERLACED:0 -> PTS:1365000 T:15.166667
[Parsed_setpts_0 @ 0x7faf2ac118c0] N:125 PTS:468750 T:5.208333 POS:1835256 INTERLACED:0 -> PTS:1368750 T:15.208333
N:126 PTS:472500 T:5.250000 POS:1851236 INTERLACED:0 -> PTS:1372500 T:15.250000s
[Parsed_setpts_0 @ 0x7faf2ac118c0] N:127 PTS:476250 T:5.291667 POS:1861388 INTERLACED:0 -> PTS:1376250 T:15.291667
[Parsed_setpts_0 @ 0x7faf2ac118c0] N:128 PTS:480000 T:5.333333 POS:1876428 INTERLACED:0 -> PTS:1380000 T:15.333333
[Parsed_setpts_0 @ 0x7faf2ac118c0] N:129 PTS:483750 T:5.375000 POS:1886392 INTERLACED:0 -> PTS:1383750 T:15.375000
[Parsed_setpts_0 @ 0x7faf2ac118c0] N:130 PTS:487500 T:5.416667 POS:1902372 INTERLACED:0 -> PTS:1387500 T:15.416667
[Parsed_setpts_0 @ 0x7faf2ac118c0] N:131 PTS:491250 T:5.458333 POS:1913088 INTERLACED:0 -> PTS:1391250 T:15.458333
[Parsed_setpts_0 @ 0x7faf2ac118c0] N:132 PTS:495000 T:5.500000 POS:1925872 INTERLACED:0 -> PTS:1395000 T:15.500000
[Parsed_setpts_0 @ 0x7faf2ac118c0] N:133 PTS:498750 T:5.541667 POS:1934520 INTERLACED:0 -> PTS:1398750 T:15.541667
[Parsed_setpts_0 @ 0x7faf2ac118c0] N:134 PTS:502500 T:5.583333 POS:1961592 INTERLACED:0 -> PTS:1402500 T:15.583333
[Parsed_setpts_0 @ 0x7faf2ac118c0] N:135 PTS:506250 T:5.625000 POS:1973812 INTERLACED:0 -> PTS:1406250 T:15.625000
[Parsed_setpts_0 @ 0x7faf2ac118c0] N:136 PTS:510000 T:5.666667 POS:1985092 INTERLACED:0 -> PTS:1410000 T:15.666667
[Parsed_setpts_0 @ 0x7faf2ac118c0] N:137 PTS:513750 T:5.708333 POS:1996748 INTERLACED:0 -> PTS:1413750 T:15.708333
[Parsed_setpts_0 @ 0x7faf2ac118c0] N:138 PTS:517500 T:5.750000 POS:2012352 INTERLACED:0 -> PTS:1417500 T:15.750000
[Parsed_setpts_0 @ 0x7faf2ac118c0] N:139 PTS:521250 T:5.791667 POS:2022316 INTERLACED:0 -> PTS:1421250 T:15.791667
[Parsed_setpts_0 @ 0x7faf2ac118c0] N:140 PTS:525000 T:5.833333 POS:2034348 INTERLACED:0 -> PTS:1425000 T:15.833333
[Parsed_setpts_0 @ 0x7faf2ac118c0] N:141 PTS:528750 T:5.875000 POS:2043184 INTERLACED:0 -> PTS:1428750 T:15.875000
[Parsed_setpts_0 @ 0x7faf2ac118c0] N:142 PTS:532500 T:5.916667 POS:2057096 INTERLACED:0 -> PTS:1432500 T:15.916667
[Parsed_setpts_0 @ 0x7faf2ac118c0] N:143 PTS:536250 T:5.958333 POS:2067436 INTERLACED:0 -> PTS:1436250 T:15.958333
[Parsed_setpts_0 @ 0x7faf2ac118c0] N:144 PTS:540000 T:6.000000 POS:2079092 INTERLACED:0 -> PTS:1440000 T:16.000000
[Parsed_setpts_0 @ 0x7faf2ac118c0] N:145 PTS:543750 T:6.041667 POS:2088116 INTERLACED:0 -> PTS:1443750 T:16.041667
[Parsed_setpts_0 @ 0x7faf2ac118c0] N:146 PTS:547500 T:6.083333 POS:2103156 INTERLACED:0 -> PTS:1447500 T:16.083333
[Parsed_setpts_0 @ 0x7faf2ac118c0] N:147 PTS:551250 T:6.125000 POS:2114060 INTERLACED:0 -> PTS:1451250 T:16.125000
[Parsed_setpts_0 @ 0x7faf2ac118c0] N:148 PTS:555000 T:6.166667 POS:2127972 INTERLACED:0 -> PTS:1455000 T:16.166667
[Parsed_setpts_0 @ 0x7faf2ac118c0] N:149 PTS:558750 T:6.208333 POS:2140192 INTERLACED:0 -> PTS:1458750 T:16.208333
[Parsed_setpts_0 @ 0x7faf2ac118c0] N:150 PTS:562500 T:6.250000 POS:2160308 INTERLACED:0 -> PTS:1462500 T:16.250000
[Parsed_setpts_0 @ 0x7faf2ac118c0] N:151 PTS:566250 T:6.291667 POS:2171400 INTERLACED:0 -> PTS:1466250 T:16.291667
[Parsed_setpts_0 @ 0x7faf2ac118c0] N:152 PTS:570000 T:6.333333 POS:2185876 INTERLACED:0 -> PTS:1470000 T:16.333333
[Parsed_setpts_0 @ 0x7faf2ac118c0] N:153 PTS:573750 T:6.375000 POS:2195652 INTERLACED:0 -> PTS:1473750 T:16.375000
[Parsed_setpts_0 @ 0x7faf2ac118c0] N:154 PTS:577500 T:6.416667 POS:2212008 INTERLACED:0 -> PTS:1477500 T:16.416667
[Parsed_setpts_0 @ 0x7faf2ac118c0] N:155 PTS:581250 T:6.458333 POS:2222160 INTERLACED:0 -> PTS:1481250 T:16.458333
[Parsed_setpts_0 @ 0x7faf2ac118c0] N:156 PTS:585000 T:6.500000 POS:2233440 INTERLACED:0 -> PTS:1485000 T:16.500000
[Parsed_setpts_0 @ 0x7faf2ac118c0] N:157 PTS:588750 T:6.541667 POS:2242840 INTERLACED:0 -> PTS:1488750 T:16.541667
[Parsed_setpts_0 @ 0x7faf2ac118c0] N:158 PTS:592500 T:6.583333 POS:2269912 INTERLACED:0 -> PTS:1492500 T:16.583333
[Parsed_setpts_0 @ 0x7faf2ac118c0] N:159 PTS:596250 T:6.625000 POS:2279688 INTERLACED:0 -> PTS:1496250 T:16.625000
[Parsed_setpts_0 @ 0x7faf2ac118c0] N:160 PTS:600000 T:6.666667 POS:2290968 INTERLACED:0 -> PTS:1500000 T:16.666667
[Parsed_setpts_0 @ 0x7faf2ac118c0] N:161 PTS:603750 T:6.708333 POS:2301684 INTERLACED:0 -> PTS:1503750 T:16.708333
[Parsed_setpts_0 @ 0x7faf2ac118c0] N:162 PTS:607500 T:6.750000 POS:2317288 INTERLACED:0 -> PTS:1507500 T:16.750000
[Parsed_setpts_0 @ 0x7faf2ac118c0] N:163 PTS:611250 T:6.791667 POS:2327064 INTERLACED:0 -> PTS:1511250 T:16.791667
[Parsed_setpts_0 @ 0x7faf2ac118c0] N:164 PTS:615000 T:6.833333 POS:2339472 INTERLACED:0 -> PTS:1515000 T:16.833333
[Parsed_setpts_0 @ 0x7faf2ac118c0] N:165 PTS:618750 T:6.875000 POS:2352632 INTERLACED:0 -> PTS:1518750 T:16.875000
[Parsed_setpts_0 @ 0x7faf2ac118c0] N:166 PTS:622500 T:6.916667 POS:2370492 INTERLACED:0 -> PTS:1522500 T:16.916667
[Parsed_setpts_0 @ 0x7faf2ac118c0] N:167 PTS:626250 T:6.958333 POS:2382712 INTERLACED:0 -> PTS:1526250 T:16.958333
[Parsed_setpts_0 @ 0x7faf2ac118c0] N:168 PTS:630000 T:7.000000 POS:2395308 INTERLACED:0 -> PTS:1530000 T:17.000000
[Parsed_setpts_0 @ 0x7faf2ac118c0] N:169 PTS:633750 T:7.041667 POS:2406400 INTERLACED:0 -> PTS:1533750 T:17.041667
[Parsed_setpts_0 @ 0x7faf2ac118c0] N:170 PTS:637500 T:7.083333 POS:2422944 INTERLACED:0 -> PTS:1537500 T:17.083333
[Parsed_setpts_0 @ 0x7faf2ac118c0] N:171 PTS:641250 T:7.125000 POS:2433096 INTERLACED:0 -> PTS:1541250 T:17.125000
[Parsed_setpts_0 @ 0x7faf2ac118c0] N:172 PTS:645000 T:7.166667 POS:2446444 INTERLACED:0 -> PTS:1545000 T:17.166667
[Parsed_setpts_0 @ 0x7faf2ac118c0] N:173 PTS:648750 T:7.208333 POS:2456784 INTERLACED:0 -> PTS:1548750 T:17.208333
[Parsed_setpts_0 @ 0x7faf2ac118c0] N:174 PTS:652500 T:7.250000 POS:2475208 INTERLACED:0 -> PTS:1552500 T:17.250000
[Parsed_setpts_0 @ 0x7faf2ac118c0] N:175 PTS:656250 T:7.291667 POS:2485548 INTERLACED:0 -> PTS:1556250 T:17.291667
[Parsed_setpts_0 @ 0x7faf2ac118c0] N:176 PTS:660000 T:7.333333 POS:2497768 INTERLACED:0 -> PTS:1560000 T:17.333333
[Parsed_setpts_0 @ 0x7faf2ac118c0] N:177 PTS:663750 T:7.375000 POS:2508296 INTERLACED:0 -> PTS:1563750 T:17.375000
[Parsed_setpts_0 @ 0x7faf2ac118c0] N:178 PTS:667500 T:7.416667 POS:2525028 INTERLACED:0 -> PTS:1567500 T:17.416667
[Parsed_setpts_0 @ 0x7faf2ac118c0] N:179 PTS:671250 T:7.458333 POS:2534804 INTERLACED:0 -> PTS:1571250 T:17.458333
[Parsed_setpts_0 @ 0x7faf2ac118c0] N:180 PTS:675000 T:7.500000 POS:2549092 INTERLACED:0 -> PTS:1575000 T:17.500000
[Parsed_setpts_0 @ 0x7faf2ac118c0] N:181 PTS:678750 T:7.541667 POS:2558116 INTERLACED:0 -> PTS:1578750 T:17.541667
[Parsed_setpts_0 @ 0x7faf2ac118c0] N:182 PTS:682500 T:7.583333 POS:2581428 INTERLACED:0 -> PTS:1582500 T:17.583333
N:183 PTS:686250 T:7.625000 POS:2591392 INTERLACED:0 -> PTS:1586250 T:17.625000s
[Parsed_setpts_0 @ 0x7faf2ac118c0] N:184 PTS:690000 T:7.666667 POS:2602672 INTERLACED:0 -> PTS:1590000 T:17.666667
[Parsed_setpts_0 @ 0x7faf2ac118c0] N:185 PTS:693750 T:7.708333 POS:2612260 INTERLACED:0 -> PTS:1593750 T:17.708333
[Parsed_setpts_0 @ 0x7faf2ac118c0] N:186 PTS:697500 T:7.750000 POS:2625232 INTERLACED:0 -> PTS:1597500 T:17.750000
[Parsed_setpts_0 @ 0x7faf2ac118c0] N:187 PTS:701250 T:7.791667 POS:2636888 INTERLACED:0 -> PTS:1601250 T:17.791667
[Parsed_setpts_0 @ 0x7faf2ac118c0] N:188 PTS:705000 T:7.833333 POS:2648732 INTERLACED:0 -> PTS:1605000 T:17.833333
[Parsed_setpts_0 @ 0x7faf2ac118c0] N:189 PTS:708750 T:7.875000 POS:2660012 INTERLACED:0 -> PTS:1608750 T:17.875000
[Parsed_setpts_0 @ 0x7faf2ac118c0] N:190 PTS:712500 T:7.916667 POS:2675616 INTERLACED:0 -> PTS:1612500 T:17.916667
[Parsed_setpts_0 @ 0x7faf2ac118c0] N:191 PTS:716250 T:7.958333 POS:2687272 INTERLACED:0 -> PTS:1616250 T:17.958333
[Parsed_setpts_0 @ 0x7faf2ac118c0] N:192 PTS:720000 T:8.000000 POS:2701560 INTERLACED:0 -> PTS:1620000 T:18.000000
[Parsed_setpts_0 @ 0x7faf2ac118c0] N:193 PTS:723750 T:8.041667 POS:2711900 INTERLACED:0 -> PTS:1623750 T:18.041667
[Parsed_setpts_0 @ 0x7faf2ac118c0] N:194 PTS:727500 T:8.083333 POS:2726940 INTERLACED:0 -> PTS:1627500 T:18.083333
[Parsed_setpts_0 @ 0x7faf2ac118c0] N:195 PTS:731250 T:8.125000 POS:2736528 INTERLACED:0 -> PTS:1631250 T:18.125000
[Parsed_setpts_0 @ 0x7faf2ac118c0] N:196 PTS:735000 T:8.166667 POS:2750816 INTERLACED:0 -> PTS:1635000 T:18.166667
[Parsed_setpts_0 @ 0x7faf2ac118c0] N:197 PTS:738750 T:8.208333 POS:2761532 INTERLACED:0 -> PTS:1638750 T:18.208333
[Parsed_setpts_0 @ 0x7faf2ac118c0] N:198 PTS:742500 T:8.250000 POS:2773376 INTERLACED:0 -> PTS:1642500 T:18.250000
[Parsed_setpts_0 @ 0x7faf2ac118c0] N:199 PTS:746250 T:8.291667 POS:2787100 INTERLACED:0 -> PTS:1646250 T:18.291667
[Parsed_setpts_0 @ 0x7faf2ac118c0] N:200 PTS:750000 T:8.333333 POS:2799696 INTERLACED:0 -> PTS:1650000 T:18.333333
[Parsed_setpts_0 @ 0x7faf2ac118c0] N:201 PTS:753750 T:8.375000 POS:2810412 INTERLACED:0 -> PTS:1653750 T:18.375000
[Parsed_setpts_0 @ 0x7faf2ac118c0] N:202 PTS:757500 T:8.416667 POS:2823948 INTERLACED:0 -> PTS:1657500 T:18.416667
[Parsed_setpts_0 @ 0x7faf2ac118c0] N:203 PTS:761250 T:8.458333 POS:2836356 INTERLACED:0 -> PTS:1661250 T:18.458333
[Parsed_setpts_0 @ 0x7faf2ac118c0] N:204 PTS:765000 T:8.500000 POS:2851772 INTERLACED:0 -> PTS:1665000 T:18.500000
[Parsed_setpts_0 @ 0x7faf2ac118c0] N:205 PTS:768750 T:8.541667 POS:2861360 INTERLACED:0 -> PTS:1668750 T:18.541667
[Parsed_setpts_0 @ 0x7faf2ac118c0] N:206 PTS:772500 T:8.583333 POS:2889372 INTERLACED:0 -> PTS:1672500 T:18.583333
[Parsed_setpts_0 @ 0x7faf2ac118c0] N:207 PTS:776250 T:8.625000 POS:2901028 INTERLACED:0 -> PTS:1676250 T:18.625000
[Parsed_setpts_0 @ 0x7faf2ac118c0] N:208 PTS:780000 T:8.666667 POS:2912872 INTERLACED:0 -> PTS:1680000 T:18.666667
[Parsed_setpts_0 @ 0x7faf2ac118c0] N:209 PTS:783750 T:8.708333 POS:2923964 INTERLACED:0 -> PTS:1683750 T:18.708333
[Parsed_setpts_0 @ 0x7faf2ac118c0] N:210 PTS:787500 T:8.750000 POS:2936372 INTERLACED:0 -> PTS:1687500 T:18.750000
[Parsed_setpts_0 @ 0x7faf2ac118c0] N:211 PTS:791250 T:8.791667 POS:2947464 INTERLACED:0 -> PTS:1691250 T:18.791667
[Parsed_setpts_0 @ 0x7faf2ac118c0] N:212 PTS:795000 T:8.833333 POS:2959684 INTERLACED:0 -> PTS:1695000 T:18.833333
[Parsed_setpts_0 @ 0x7faf2ac118c0] N:213 PTS:798750 T:8.875000 POS:2969460 INTERLACED:0 -> PTS:1698750 T:18.875000
[Parsed_setpts_0 @ 0x7faf2ac118c0] N:214 PTS:802500 T:8.916667 POS:2980928 INTERLACED:0 -> PTS:1702500 T:18.916667
[Parsed_setpts_0 @ 0x7faf2ac118c0] N:215 PTS:806250 T:8.958333 POS:2994276 INTERLACED:0 -> PTS:1706250 T:18.958333
[Parsed_setpts_0 @ 0x7faf2ac118c0] N:216 PTS:810000 T:9.000000 POS:3006684 INTERLACED:0 -> PTS:1710000 T:19.000000
[Parsed_setpts_0 @ 0x7faf2ac118c0] N:217 PTS:813750 T:9.041667 POS:3017588 INTERLACED:0 -> PTS:1713750 T:19.041667
[Parsed_setpts_0 @ 0x7faf2ac118c0] N:218 PTS:817500 T:9.083333 POS:3032816 INTERLACED:0 -> PTS:1717500 T:19.083333
[Parsed_setpts_0 @ 0x7faf2ac118c0] N:219 PTS:821250 T:9.125000 POS:3044096 INTERLACED:0 -> PTS:1721250 T:19.125000
[Parsed_setpts_0 @ 0x7faf2ac118c0] N:220 PTS:825000 T:9.166667 POS:3058196 INTERLACED:0 -> PTS:1725000 T:19.166667
[Parsed_setpts_0 @ 0x7faf2ac118c0] N:221 PTS:828750 T:9.208333 POS:3068536 INTERLACED:0 -> PTS:1728750 T:19.208333
[Parsed_setpts_0 @ 0x7faf2ac118c0] N:222 PTS:832500 T:9.250000 POS:3081884 INTERLACED:0 -> PTS:1732500 T:19.250000
[Parsed_setpts_0 @ 0x7faf2ac118c0] N:223 PTS:836250 T:9.291667 POS:3094668 INTERLACED:0 -> PTS:1736250 T:19.291667
[Parsed_setpts_0 @ 0x7faf2ac118c0] N:224 PTS:840000 T:9.333333 POS:3105008 INTERLACED:0 -> PTS:1740000 T:19.333333
[Parsed_setpts_0 @ 0x7faf2ac118c0] N:225 PTS:843750 T:9.375000 POS:3116476 INTERLACED:0 -> PTS:1743750 T:19.375000
[h264 @ 0x7faf2b03ac00] Current profile doesn't provide more RBSP data in PPS, skipping
[Parsed_setpts_0 @ 0x7faf2ac118c0] N:226 PTS:847500 T:9.416667 POS:3130200 INTERLACED:0 -> PTS:1747500 T:19.416667
[Parsed_setpts_0 @ 0x7faf2ac118c0] N:227 PTS:851250 T:9.458333 POS:3142608 INTERLACED:0 -> PTS:1751250 T:19.458333
[Parsed_setpts_0 @ 0x7faf2ac118c0] N:228 PTS:855000 T:9.500000 POS:3155580 INTERLACED:0 -> PTS:1755000 T:19.500000
[Parsed_setpts_0 @ 0x7faf2ac118c0] N:229 PTS:858750 T:9.541667 POS:3164792 INTERLACED:0 -> PTS:1758750 T:19.541667
[Parsed_setpts_0 @ 0x7faf2ac118c0] N:230 PTS:862500 T:9.583333 POS:3168928 INTERLACED:0 -> PTS:1762500 T:19.583333
[Parsed_setpts_0 @ 0x7faf2ac118c0] N:231 PTS:866250 T:9.625000 POS:3199196 INTERLACED:0 -> PTS:1766250 T:19.625000
[Parsed_setpts_0 @ 0x7faf2ac118c0] N:232 PTS:870000 T:9.666667 POS:3218184 INTERLACED:0 -> PTS:1770000 T:19.666667
[Parsed_setpts_0 @ 0x7faf2ac118c0] N:233 PTS:873750 T:9.708333 POS:3229840 INTERLACED:0 -> PTS:1773750 T:19.708333
[Parsed_setpts_0 @ 0x7faf2ac118c0] N:234 PTS:877500 T:9.750000 POS:3248264 INTERLACED:0 -> PTS:1777500 T:19.750000
[Parsed_setpts_0 @ 0x7faf2ac118c0] N:235 PTS:881250 T:9.791667 POS:3260672 INTERLACED:0 -> PTS:1781250 T:19.791667
[Parsed_setpts_0 @ 0x7faf2ac118c0] N:236 PTS:885000 T:9.833333 POS:3280224 INTERLACED:0 -> PTS:1785000 T:19.833333
[Parsed_setpts_0 @ 0x7faf2ac118c0] N:237 PTS:888750 T:9.875000 POS:3291316 INTERLACED:0 -> PTS:1788750 T:19.875000
[Parsed_setpts_0 @ 0x7faf2ac118c0] N:238 PTS:892500 T:9.916667 POS:3304476 INTERLACED:0 -> PTS:1792500 T:19.916667
[Parsed_setpts_0 @ 0x7faf2ac118c0] N:239 PTS:896250 T:9.958333 POS:3314440 INTERLACED:0 -> PTS:1796250 T:19.958333
[output stream 0:0 @ 0x7faf2ac132c0] EOF on sink link output stream 0:0:default.
No more output streams to write to, finishing.
frame= 240 fps=120 q=0.0 Lsize= 19938kB time=00:00:20.00 bitrate=8166.5kbits/s
video:19921kB audio:0kB subtitle:0 global headers:0kB muxing overhead 0.084955%
Statistics: 5412044 bytes read, 2 seeks
Mark-Essels-iMac:public messel$
Mark-Essels-iMac:public messel$ ffprobe -show_frames s2_shift.avi
ffprobe version 1.1 Copyright (c) 2007-2013 the FFmpeg developers
built on Mar 13 2013 10:35:55 with Apple LLVM version 4.2 (clang-425.0.24) (based on LLVM 3.2svn)
configuration: --prefix=/usr/local/Cellar/ffmpeg/1.1 --enable-shared --enable-pthreads --enable-gpl --enable-version3 --enable-nonfree --enable-hardcoded-tables --enable-avresample --cc=cc --host-cflags= --host-ldflags= --enable-libx264 --enable-libfaac --enable-libmp3lame --enable-libxvid
libavutil 52. 13.100 / 52. 13.100
libavcodec 54. 86.100 / 54. 86.100
libavformat 54. 59.106 / 54. 59.106
libavdevice 54. 3.102 / 54. 3.102
libavfilter 3. 32.100 / 3. 32.100
libswscale 2. 1.103 / 2. 1.103
libswresample 0. 17.102 / 0. 17.102
libpostproc 52. 2.100 / 52. 2.100
Input #0, avi, from 's2_shift.avi':
Metadata:
encoder : Lavf54.59.106
Duration: 00:00:20.00, start: 0.000000, bitrate: 8166 kb/s
Stream #0:0: Video: mpeg4 (Simple Profile) (FMP4 / 0x34504D46), yuv420p, 1280x720 [SAR 1:1 DAR 16:9], 24 tbr, 24 tbn, 24 tbc
[FRAME]
media_type=video
key_frame=1
pkt_pts=240
pkt_pts_time=10.000000
pkt_dts=240
pkt_dts_time=10.000000
pkt_duration=1
pkt_duration_time=0.041667
pkt_pos=7602
pkt_size=128212
width=1280
height=720
pix_fmt=yuv420p
sample_aspect_ratio=1:1
pict_type=I
coded_picture_number=0
display_picture_number=0
interlaced_frame=0
top_field_first=0
repeat_pict=0
reference=3
[/FRAME]
[FRAME]
media_type=video
key_frame=0
pkt_pts=241
pkt_pts_time=10.041667
pkt_dts=241
pkt_dts_time=10.041667
pkt_duration=1
pkt_duration_time=0.041667
pkt_pos=135822
pkt_size=63304
width=1280
height=720
pix_fmt=yuv420p
sample_aspect_ratio=1:1
pict_type=P
coded_picture_number=1
display_picture_number=0
interlaced_frame=0
top_field_first=0
repeat_pict=0
reference=3
[/FRAME]
[FRAME]
media_type=video
key_frame=0
pkt_pts=242
pkt_pts_time=10.083333
pkt_dts=242
pkt_dts_time=10.083333
pkt_duration=1
pkt_duration_time=0.041667
pkt_pos=199134
pkt_size=54238
width=1280
height=720
pix_fmt=yuv420p
sample_aspect_ratio=1:1
pict_type=P
coded_picture_number=2
display_picture_number=0
interlaced_frame=0
top_field_first=0
repeat_pict=0
reference=3
[/FRAME]
[FRAME]
media_type=video
key_frame=0
pkt_pts=243
pkt_pts_time=10.125000
pkt_dts=243
pkt_dts_time=10.125000
pkt_duration=1
pkt_duration_time=0.041667
pkt_pos=253380
pkt_size=54935
width=1280
height=720
pix_fmt=yuv420p
sample_aspect_ratio=1:1
pict_type=P
coded_picture_number=3
display_picture_number=0
interlaced_frame=0
top_field_first=0
repeat_pict=0
reference=3
[/FRAME]
[FRAME]
media_type=video
key_frame=0
pkt_pts=244
pkt_pts_time=10.166667
pkt_dts=244
pkt_dts_time=10.166667
pkt_duration=1
pkt_duration_time=0.041667
pkt_pos=308324
pkt_size=5402
width=1280
height=720
pix_fmt=yuv420p
sample_aspect_ratio=1:1
pict_type=P
coded_picture_number=4
display_picture_number=0
interlaced_frame=0
top_field_first=0
repeat_pict=0
reference=3
[/FRAME]
[FRAME]
media_type=video
key_frame=0
pkt_pts=245
pkt_pts_time=10.208333
pkt_dts=245
pkt_dts_time=10.208333
pkt_duration=1
pkt_duration_time=0.041667
pkt_pos=313734
pkt_size=70785
width=1280
height=720
pix_fmt=yuv420p
sample_aspect_ratio=1:1
pict_type=P
coded_picture_number=5
display_picture_number=0
interlaced_frame=0
top_field_first=0
repeat_pict=0
reference=3
[/FRAME]
[FRAME]
media_type=video
key_frame=0
pkt_pts=246
pkt_pts_time=10.250000
pkt_dts=246
pkt_dts_time=10.250000
pkt_duration=1
pkt_duration_time=0.041667
pkt_pos=384528
pkt_size=13841
width=1280
height=720
pix_fmt=yuv420p
sample_aspect_ratio=1:1
pict_type=P
coded_picture_number=6
display_picture_number=0
interlaced_frame=0
top_field_first=0
repeat_pict=0
reference=3
[/FRAME]
[FRAME]
media_type=video
key_frame=0
pkt_pts=247
pkt_pts_time=10.291667
pkt_dts=247
pkt_dts_time=10.291667
pkt_duration=1
pkt_duration_time=0.041667
pkt_pos=398378
pkt_size=15064
width=1280
height=720
pix_fmt=yuv420p
sample_aspect_ratio=1:1
pict_type=P
coded_picture_number=7
display_picture_number=0
interlaced_frame=0
top_field_first=0
repeat_pict=0
reference=3
[/FRAME]
[FRAME]
media_type=video
key_frame=0
pkt_pts=248
pkt_pts_time=10.333333
pkt_dts=248
pkt_dts_time=10.333333
pkt_duration=1
pkt_duration_time=0.041667
pkt_pos=413450
pkt_size=15863
width=1280
height=720
pix_fmt=yuv420p
sample_aspect_ratio=1:1
pict_type=P
coded_picture_number=8
display_picture_number=0
interlaced_frame=0
top_field_first=0
repeat_pict=0
reference=3
[/FRAME]
[FRAME]
media_type=video
key_frame=0
pkt_pts=249
pkt_pts_time=10.375000
pkt_dts=249
pkt_dts_time=10.375000
pkt_duration=1
pkt_duration_time=0.041667
pkt_pos=429322
pkt_size=22180
width=1280
height=720
pix_fmt=yuv420p
sample_aspect_ratio=1:1
pict_type=P
coded_picture_number=9
display_picture_number=0
interlaced_frame=0
top_field_first=0
repeat_pict=0
reference=3
[/FRAME]
[FRAME]
media_type=video
key_frame=0
pkt_pts=250
pkt_pts_time=10.416667
pkt_dts=250
pkt_dts_time=10.416667
pkt_duration=1
pkt_duration_time=0.041667
pkt_pos=451510
pkt_size=16850
width=1280
height=720
pix_fmt=yuv420p
sample_aspect_ratio=1:1
pict_type=P
coded_picture_number=10
display_picture_number=0
interlaced_frame=0
top_field_first=0
repeat_pict=0
reference=3
[/FRAME]
[FRAME]
media_type=video
key_frame=0
pkt_pts=251
pkt_pts_time=10.458333
pkt_dts=251
pkt_dts_time=10.458333
pkt_duration=1
pkt_duration_time=0.041667
pkt_pos=468368
pkt_size=17201
width=1280
height=720
pix_fmt=yuv420p
sample_aspect_ratio=1:1
pict_type=P
coded_picture_number=11
display_picture_number=0
interlaced_frame=0
top_field_first=0
repeat_pict=0
reference=3
[/FRAME]
[FRAME]
media_type=video
key_frame=1
pkt_pts=252
pkt_pts_time=10.500000
pkt_dts=252
pkt_dts_time=10.500000
pkt_duration=1
pkt_duration_time=0.041667
pkt_pos=485578
pkt_size=58871
width=1280
height=720
pix_fmt=yuv420p
sample_aspect_ratio=1:1
pict_type=I
coded_picture_number=12
display_picture_number=0
interlaced_frame=0
top_field_first=0
repeat_pict=0
reference=3
[/FRAME]
[FRAME]
media_type=video
key_frame=0
pkt_pts=253
pkt_pts_time=10.541667
pkt_dts=253
pkt_dts_time=10.541667
pkt_duration=1
pkt_duration_time=0.041667
pkt_pos=544458
pkt_size=19281
width=1280
height=720
pix_fmt=yuv420p
sample_aspect_ratio=1:1
pict_type=P
coded_picture_number=13
display_picture_number=0
interlaced_frame=0
top_field_first=0
repeat_pict=0
reference=3
[/FRAME]
[FRAME]
media_type=video
key_frame=0
pkt_pts=254
pkt_pts_time=10.583333
pkt_dts=254
pkt_dts_time=10.583333
pkt_duration=1
pkt_duration_time=0.041667
pkt_pos=563748
pkt_size=21122
width=1280
height=720
pix_fmt=yuv420p
sample_aspect_ratio=1:1
pict_type=P
coded_picture_number=14
display_picture_number=0
interlaced_frame=0
top_field_first=0
repeat_pict=0
reference=3
[/FRAME]
[FRAME]
media_type=video
key_frame=0
pkt_pts=255
pkt_pts_time=10.625000
pkt_dts=255
pkt_dts_time=10.625000
pkt_duration=1
pkt_duration_time=0.041667
pkt_pos=584878
pkt_size=21995
width=1280
height=720
pix_fmt=yuv420p
sample_aspect_ratio=1:1
pict_type=P
coded_picture_number=15
display_picture_number=0
interlaced_frame=0
top_field_first=0
repeat_pict=0
reference=3
[/FRAME]
[FRAME]
media_type=video
key_frame=0
pkt_pts=256
pkt_pts_time=10.666667
pkt_dts=256
pkt_dts_time=10.666667
pkt_duration=1
pkt_duration_time=0.041667
pkt_pos=606882
pkt_size=20444
width=1280
height=720
pix_fmt=yuv420p
sample_aspect_ratio=1:1
pict_type=P
coded_picture_number=16
display_picture_number=0
interlaced_frame=0
top_field_first=0
repeat_pict=0
reference=3
[/FRAME]
[FRAME]
media_type=video
key_frame=0
pkt_pts=257
pkt_pts_time=10.708333
pkt_dts=257
pkt_dts_time=10.708333
pkt_duration=1
pkt_duration_time=0.041667
pkt_pos=627334
pkt_size=19230
width=1280
height=720
pix_fmt=yuv420p
sample_aspect_ratio=1:1
pict_type=P
coded_picture_number=17
display_picture_number=0
interlaced_frame=0
top_field_first=0
repeat_pict=0
reference=3
[/FRAME]
[FRAME]
media_type=video
key_frame=0
pkt_pts=258
pkt_pts_time=10.750000
pkt_dts=258
pkt_dts_time=10.750000
pkt_duration=1
pkt_duration_time=0.041667
pkt_pos=646572
pkt_size=16631
width=1280
height=720
pix_fmt=yuv420p
sample_aspect_ratio=1:1
pict_type=P
coded_picture_number=18
display_picture_number=0
interlaced_frame=0
top_field_first=0
repeat_pict=0
reference=3
[/FRAME]
[FRAME]
media_type=video
key_frame=0
pkt_pts=259
pkt_pts_time=10.791667
pkt_dts=259
pkt_dts_time=10.791667
pkt_duration=1
pkt_duration_time=0.041667
pkt_pos=663212
pkt_size=24502
width=1280
height=720
pix_fmt=yuv420p
sample_aspect_ratio=1:1
pict_type=P
coded_picture_number=19
display_picture_number=0
interlaced_frame=0
top_field_first=0
repeat_pict=0
reference=3
[/FRAME]
[FRAME]
media_type=video
key_frame=0
pkt_pts=260
pkt_pts_time=10.833333
pkt_dts=260
pkt_dts_time=10.833333
pkt_duration=1
pkt_duration_time=0.041667
pkt_pos=687722
pkt_size=10297
width=1280
height=720
pix_fmt=yuv420p
sample_aspect_ratio=1:1
pict_type=P
coded_picture_number=20
display_picture_number=0
interlaced_frame=0
top_field_first=0
repeat_pict=0
reference=3
[/FRAME]
[FRAME]
media_type=video
key_frame=0
pkt_pts=261
pkt_pts_time=10.875000
pkt_dts=261
pkt_dts_time=10.875000
pkt_duration=1
pkt_duration_time=0.041667
pkt_pos=698028
pkt_size=18716
width=1280
height=720
pix_fmt=yuv420p
sample_aspect_ratio=1:1
pict_type=P
coded_picture_number=21
display_picture_number=0
interlaced_frame=0
top_field_first=0
repeat_pict=0
reference=3
[/FRAME]
[FRAME]
media_type=video
key_frame=0
pkt_pts=262
pkt_pts_time=10.916667
pkt_dts=262
pkt_dts_time=10.916667
pkt_duration=1
pkt_duration_time=0.041667
pkt_pos=716752
pkt_size=28809
width=1280
height=720
pix_fmt=yuv420p
sample_aspect_ratio=1:1
pict_type=P
coded_picture_number=22
display_picture_number=0
interlaced_frame=0
top_field_first=0
repeat_pict=0
reference=3
[/FRAME]
[FRAME]
media_type=video
key_frame=0
pkt_pts=263
pkt_pts_time=10.958333
pkt_dts=263
pkt_dts_time=10.958333
pkt_duration=1
pkt_duration_time=0.041667
pkt_pos=745570
pkt_size=22617
width=1280
height=720
pix_fmt=yuv420p
sample_aspect_ratio=1:1
pict_type=P
coded_picture_number=23
display_picture_number=0
interlaced_frame=0
top_field_first=0
repeat_pict=0
reference=3
[/FRAME]
[FRAME]
media_type=video
key_frame=1
pkt_pts=264
pkt_pts_time=11.000000
pkt_dts=264
pkt_dts_time=11.000000
pkt_duration=1
pkt_duration_time=0.041667
pkt_pos=768196
pkt_size=60961
width=1280
height=720
pix_fmt=yuv420p
sample_aspect_ratio=1:1
pict_type=I
coded_picture_number=24
display_picture_number=0
interlaced_frame=0
top_field_first=0
repeat_pict=0
reference=3
[/FRAME]
[FRAME]
media_type=video
key_frame=0
pkt_pts=265
pkt_pts_time=11.041667
pkt_dts=265
pkt_dts_time=11.041667
pkt_duration=1
pkt_duration_time=0.041667
pkt_pos=829166
pkt_size=14162
width=1280
height=720
pix_fmt=yuv420p
sample_aspect_ratio=1:1
pict_type=P
coded_picture_number=25
display_picture_number=0
interlaced_frame=0
top_field_first=0
repeat_pict=0
reference=3
[/FRAME]
[FRAME]
media_type=video
key_frame=0
pkt_pts=266
pkt_pts_time=11.083333
pkt_dts=266
pkt_dts_time=11.083333
pkt_duration=1
pkt_duration_time=0.041667
pkt_pos=843336
pkt_size=17746
width=1280
height=720
pix_fmt=yuv420p
sample_aspect_ratio=1:1
pict_type=P
coded_picture_number=26
display_picture_number=0
interlaced_frame=0
top_field_first=0
repeat_pict=0
reference=3
[/FRAME]
[FRAME]
media_type=video
key_frame=0
pkt_pts=267
pkt_pts_time=11.125000
pkt_dts=267
pkt_dts_time=11.125000
pkt_duration=1
pkt_duration_time=0.041667
pkt_pos=861090
pkt_size=22345
width=1280
height=720
pix_fmt=yuv420p
sample_aspect_ratio=1:1
pict_type=P
coded_picture_number=27
display_picture_number=0
interlaced_frame=0
top_field_first=0
repeat_pict=0
reference=3
[/FRAME]
[FRAME]
media_type=video
key_frame=0
pkt_pts=268
pkt_pts_time=11.166667
pkt_dts=268
pkt_dts_time=11.166667
pkt_duration=1
pkt_duration_time=0.041667
pkt_pos=883444
pkt_size=15557
width=1280
height=720
pix_fmt=yuv420p
sample_aspect_ratio=1:1
pict_type=P
coded_picture_number=28
display_picture_number=0
interlaced_frame=0
top_field_first=0
repeat_pict=0
reference=3
[/FRAME]
[FRAME]
media_type=video
key_frame=0
pkt_pts=269
pkt_pts_time=11.208333
pkt_dts=269
pkt_dts_time=11.208333
pkt_duration=1
pkt_duration_time=0.041667
pkt_pos=899010
pkt_size=18094
width=1280
height=720
pix_fmt=yuv420p
sample_aspect_ratio=1:1
pict_type=P
coded_picture_number=29
display_picture_number=0
interlaced_frame=0
top_field_first=0
repeat_pict=0
reference=3
[/FRAME]
[FRAME]
media_type=video
key_frame=0
pkt_pts=270
pkt_pts_time=11.250000
pkt_dts=270
pkt_dts_time=11.250000
pkt_duration=1
pkt_duration_time=0.041667
pkt_pos=917112
pkt_size=16961
width=1280
height=720
pix_fmt=yuv420p
sample_aspect_ratio=1:1
pict_type=P
coded_picture_number=30
display_picture_number=0
interlaced_frame=0
top_field_first=0
repeat_pict=0
reference=3
[/FRAME]
[FRAME]
media_type=video
key_frame=0
pkt_pts=271
pkt_pts_time=11.291667
pkt_dts=271
pkt_dts_time=11.291667
pkt_duration=1
pkt_duration_time=0.041667
pkt_pos=934082
pkt_size=28715
width=1280
height=720
pix_fmt=yuv420p
sample_aspect_ratio=1:1
pict_type=P
coded_picture_number=31
display_picture_number=0
interlaced_frame=0
top_field_first=0
repeat_pict=0
reference=3
[/FRAME]
[FRAME]
media_type=video
key_frame=0
pkt_pts=272
pkt_pts_time=11.333333
pkt_dts=272
pkt_dts_time=11.333333
pkt_duration=1
pkt_duration_time=0.041667
pkt_pos=962806
pkt_size=20936
width=1280
height=720
pix_fmt=yuv420p
sample_aspect_ratio=1:1
pict_type=P
coded_picture_number=32
display_picture_number=0
interlaced_frame=0
top_field_first=0
repeat_pict=0
reference=3
[/FRAME]
[FRAME]
media_type=video
key_frame=0
pkt_pts=273
pkt_pts_time=11.375000
pkt_dts=273
pkt_dts_time=11.375000
pkt_duration=1
pkt_duration_time=0.041667
pkt_pos=983750
pkt_size=17513
width=1280
height=720
pix_fmt=yuv420p
sample_aspect_ratio=1:1
pict_type=P
coded_picture_number=33
display_picture_number=0
interlaced_frame=0
top_field_first=0
repeat_pict=0
reference=3
[/FRAME]
[FRAME]
media_type=video
key_frame=0
pkt_pts=274
pkt_pts_time=11.416667
pkt_dts=274
pkt_dts_time=11.416667
pkt_duration=1
pkt_duration_time=0.041667
pkt_pos=1001272
pkt_size=18422
width=1280
height=720
pix_fmt=yuv420p
sample_aspect_ratio=1:1
pict_type=P
coded_picture_number=34
display_picture_number=0
interlaced_frame=0
top_field_first=0
repeat_pict=0
reference=3
[/FRAME]
[FRAME]
media_type=video
key_frame=0
pkt_pts=275
pkt_pts_time=11.458333
pkt_dts=275
pkt_dts_time=11.458333
pkt_duration=1
pkt_duration_time=0.041667
pkt_pos=1019702
pkt_size=21528
width=1280
height=720
pix_fmt=yuv420p
sample_aspect_ratio=1:1
pict_type=P
coded_picture_number=35
display_picture_number=0
interlaced_frame=0
top_field_first=0
repeat_pict=0
reference=3
[/FRAME]
[FRAME]
media_type=video
key_frame=1
pkt_pts=276
pkt_pts_time=11.500000
pkt_dts=276
pkt_dts_time=11.500000
pkt_duration=1
pkt_duration_time=0.041667
pkt_pos=1041238
pkt_size=66294
width=1280
height=720
pix_fmt=yuv420p
sample_aspect_ratio=1:1
pict_type=I
coded_picture_number=36
display_picture_number=0
interlaced_frame=0
top_field_first=0
repeat_pict=0
reference=3
[/FRAME]
[FRAME]
media_type=video
key_frame=0
pkt_pts=277
pkt_pts_time=11.541667
pkt_dts=277
pkt_dts_time=11.541667
pkt_duration=1
pkt_duration_time=0.041667
pkt_pos=1107540
pkt_size=20055
width=1280
height=720
pix_fmt=yuv420p
sample_aspect_ratio=1:1
pict_type=P
coded_picture_number=37
display_picture_number=0
interlaced_frame=0
top_field_first=0
repeat_pict=0
reference=3
[/FRAME]
[FRAME]
media_type=video
key_frame=0
pkt_pts=278
pkt_pts_time=11.583333
pkt_dts=278
pkt_dts_time=11.583333
pkt_duration=1
pkt_duration_time=0.041667
pkt_pos=1127604
pkt_size=21925
width=1280
height=720
pix_fmt=yuv420p
sample_aspect_ratio=1:1
pict_type=P
coded_picture_number=38
display_picture_number=0
interlaced_frame=0
top_field_first=0
repeat_pict=0
reference=3
[/FRAME]
[FRAME]
media_type=video
key_frame=0
pkt_pts=279
pkt_pts_time=11.625000
pkt_dts=279
pkt_dts_time=11.625000
pkt_duration=1
pkt_duration_time=0.041667
pkt_pos=1149538
pkt_size=22054
width=1280
height=720
pix_fmt=yuv420p
sample_aspect_ratio=1:1
pict_type=P
coded_picture_number=39
display_picture_number=0
interlaced_frame=0
top_field_first=0
repeat_pict=0
reference=3
[/FRAME]
[FRAME]
media_type=video
key_frame=0
pkt_pts=280
pkt_pts_time=11.666667
pkt_dts=280
pkt_dts_time=11.666667
pkt_duration=1
pkt_duration_time=0.041667
pkt_pos=1171600
pkt_size=21185
width=1280
height=720
pix_fmt=yuv420p
sample_aspect_ratio=1:1
pict_type=P
coded_picture_number=40
display_picture_number=0
interlaced_frame=0
top_field_first=0
repeat_pict=0
reference=3
[/FRAME]
[FRAME]
media_type=video
key_frame=0
pkt_pts=281
pkt_pts_time=11.708333
pkt_dts=281
pkt_dts_time=11.708333
pkt_duration=1
pkt_duration_time=0.041667
pkt_pos=1192794
pkt_size=22626
width=1280
height=720
pix_fmt=yuv420p
sample_aspect_ratio=1:1
pict_type=P
coded_picture_number=41
display_picture_number=0
interlaced_frame=0
top_field_first=0
repeat_pict=0
reference=3
[/FRAME]
[FRAME]
media_type=video
key_frame=0
pkt_pts=282
pkt_pts_time=11.750000
pkt_dts=282
pkt_dts_time=11.750000
pkt_duration=1
pkt_duration_time=0.041667
pkt_pos=1215428
pkt_size=20264
width=1280
height=720
pix_fmt=yuv420p
sample_aspect_ratio=1:1
pict_type=P
coded_picture_number=42
display_picture_number=0
interlaced_frame=0
top_field_first=0
repeat_pict=0
reference=3
[/FRAME]
[FRAME]
media_type=video
key_frame=0
pkt_pts=283
pkt_pts_time=11.791667
pkt_dts=283
pkt_dts_time=11.791667
pkt_duration=1
pkt_duration_time=0.041667
pkt_pos=1235700
pkt_size=21205
width=1280
height=720
pix_fmt=yuv420p
sample_aspect_ratio=1:1
pict_type=P
coded_picture_number=43
display_picture_number=0
interlaced_frame=0
top_field_first=0
repeat_pict=0
reference=3
[/FRAME]
[FRAME]
media_type=video
key_frame=0
pkt_pts=284
pkt_pts_time=11.833333
pkt_dts=284
pkt_dts_time=11.833333
pkt_duration=1
pkt_duration_time=0.041667
pkt_pos=1256914
pkt_size=21295
width=1280
height=720
pix_fmt=yuv420p
sample_aspect_ratio=1:1
pict_type=P
coded_picture_number=44
display_picture_number=0
interlaced_frame=0
top_field_first=0
repeat_pict=0
reference=3
[/FRAME]
[FRAME]
media_type=video
key_frame=0
pkt_pts=285
pkt_pts_time=11.875000
pkt_dts=285
pkt_dts_time=11.875000
pkt_duration=1
pkt_duration_time=0.041667
pkt_pos=1278218
pkt_size=19804
width=1280
height=720
pix_fmt=yuv420p
sample_aspect_ratio=1:1
pict_type=P
coded_picture_number=45
display_picture_number=0
interlaced_frame=0
top_field_first=0
repeat_pict=0
reference=3
[/FRAME]
[FRAME]
media_type=video
key_frame=0
pkt_pts=286
pkt_pts_time=11.916667
pkt_dts=286
pkt_dts_time=11.916667
pkt_duration=1
pkt_duration_time=0.041667
pkt_pos=1298030
pkt_size=21557
width=1280
height=720
pix_fmt=yuv420p
sample_aspect_ratio=1:1
pict_type=P
coded_picture_number=46
display_picture_number=0
interlaced_frame=0
top_field_first=0
repeat_pict=0
reference=3
[/FRAME]
[FRAME]
media_type=video
key_frame=0
pkt_pts=287
pkt_pts_time=11.958333
pkt_dts=287
pkt_dts_time=11.958333
pkt_duration=1
pkt_duration_time=0.041667
pkt_pos=1319596
pkt_size=23035
width=1280
height=720
pix_fmt=yuv420p
sample_aspect_ratio=1:1
pict_type=P
coded_picture_number=47
display_picture_number=0
interlaced_frame=0
top_field_first=0
repeat_pict=0
reference=3
[/FRAME]
[FRAME]
media_type=video
key_frame=1
pkt_pts=288
pkt_pts_time=12.000000
pkt_dts=288
pkt_dts_time=12.000000
pkt_duration=1
pkt_duration_time=0.041667
pkt_pos=1342640
pkt_size=64202
width=1280
height=720
pix_fmt=yuv420p
sample_aspect_ratio=1:1
pict_type=I
coded_picture_number=48
display_picture_number=0
interlaced_frame=0
top_field_first=0
repeat_pict=0
reference=3
[/FRAME]
[FRAME]
media_type=video
key_frame=0
pkt_pts=289
pkt_pts_time=12.041667
pkt_dts=289
pkt_dts_time=12.041667
pkt_duration=1
pkt_duration_time=0.041667
pkt_pos=1406850
pkt_size=21689
width=1280
height=720
pix_fmt=yuv420p
sample_aspect_ratio=1:1
pict_type=P
coded_picture_number=49
display_picture_number=0
interlaced_frame=0
top_field_first=0
repeat_pict=0
reference=3
[/FRAME]
[FRAME]
media_type=video
key_frame=0
pkt_pts=290
pkt_pts_time=12.083333
pkt_dts=290
pkt_dts_time=12.083333
pkt_duration=1
pkt_duration_time=0.041667
pkt_pos=1428548
pkt_size=16604
width=1280
height=720
pix_fmt=yuv420p
sample_aspect_ratio=1:1
pict_type=P
coded_picture_number=50
display_picture_number=0
interlaced_frame=0
top_field_first=0
repeat_pict=0
reference=3
[/FRAME]
[FRAME]
media_type=video
key_frame=0
pkt_pts=291
pkt_pts_time=12.125000
pkt_dts=291
pkt_dts_time=12.125000
pkt_duration=1
pkt_duration_time=0.041667
pkt_pos=1445160
pkt_size=22592
width=1280
height=720
pix_fmt=yuv420p
sample_aspect_ratio=1:1
pict_type=P
coded_picture_number=51
display_picture_number=0
interlaced_frame=0
top_field_first=0
repeat_pict=0
reference=3
[/FRAME]
[FRAME]
media_type=video
key_frame=0
pkt_pts=292
pkt_pts_time=12.166667
pkt_dts=292
pkt_dts_time=12.166667
pkt_duration=1
pkt_duration_time=0.041667
pkt_pos=1467760
pkt_size=22300
width=1280
height=720
pix_fmt=yuv420p
sample_aspect_ratio=1:1
pict_type=P
coded_picture_number=52
display_picture_number=0
interlaced_frame=0
top_field_first=0
repeat_pict=0
reference=3
[/FRAME]
[FRAME]
media_type=video
key_frame=0
pkt_pts=293
pkt_pts_time=12.208333
pkt_dts=293
pkt_dts_time=12.208333
pkt_duration=1
pkt_duration_time=0.041667
pkt_pos=1490068
pkt_size=16502
width=1280
height=720
pix_fmt=yuv420p
sample_aspect_ratio=1:1
pict_type=P
coded_picture_number=53
display_picture_number=0
interlaced_frame=0
top_field_first=0
repeat_pict=0
reference=3
[/FRAME]
[FRAME]
media_type=video
key_frame=0
pkt_pts=294
pkt_pts_time=12.250000
pkt_dts=294
pkt_dts_time=12.250000
pkt_duration=1
pkt_duration_time=0.041667
pkt_pos=1506578
pkt_size=20019
width=1280
height=720
pix_fmt=yuv420p
sample_aspect_ratio=1:1
pict_type=P
coded_picture_number=54
display_picture_number=0
interlaced_frame=0
top_field_first=0
repeat_pict=0
reference=3
[/FRAME]
[FRAME]
media_type=video
key_frame=0
pkt_pts=295
pkt_pts_time=12.291667
pkt_dts=295
pkt_dts_time=12.291667
pkt_duration=1
pkt_duration_time=0.041667
pkt_pos=1526606
pkt_size=27186
width=1280
height=720
pix_fmt=yuv420p
sample_aspect_ratio=1:1
pict_type=P
coded_picture_number=55
display_picture_number=0
interlaced_frame=0
top_field_first=0
repeat_pict=0
reference=3
[/FRAME]
[FRAME]
media_type=video
key_frame=0
pkt_pts=296
pkt_pts_time=12.333333
pkt_dts=296
pkt_dts_time=12.333333
pkt_duration=1
pkt_duration_time=0.041667
pkt_pos=1553800
pkt_size=17563
width=1280
height=720
pix_fmt=yuv420p
sample_aspect_ratio=1:1
pict_type=P
coded_picture_number=56
display_picture_number=0
interlaced_frame=0
top_field_first=0
repeat_pict=0
reference=3
[/FRAME]
[FRAME]
media_type=video
key_frame=0
pkt_pts=297
pkt_pts_time=12.375000
pkt_dts=297
pkt_dts_time=12.375000
pkt_duration=1
pkt_duration_time=0.041667
pkt_pos=1571372
pkt_size=19733
width=1280
height=720
pix_fmt=yuv420p
sample_aspect_ratio=1:1
pict_type=P
coded_picture_number=57
display_picture_number=0
interlaced_frame=0
top_field_first=0
repeat_pict=0
reference=3
[/FRAME]
[FRAME]
media_type=video
key_frame=0
pkt_pts=298
pkt_pts_time=12.416667
pkt_dts=298
pkt_dts_time=12.416667
pkt_duration=1
pkt_duration_time=0.041667
pkt_pos=1591114
pkt_size=19655
width=1280
height=720
pix_fmt=yuv420p
sample_aspect_ratio=1:1
pict_type=P
coded_picture_number=58
display_picture_number=0
interlaced_frame=0
top_field_first=0
repeat_pict=0
reference=3
[/FRAME]
[FRAME]
media_type=video
key_frame=0
pkt_pts=299
pkt_pts_time=12.458333
pkt_dts=299
pkt_dts_time=12.458333
pkt_duration=1
pkt_duration_time=0.041667
pkt_pos=1610778
pkt_size=21290
width=1280
height=720
pix_fmt=yuv420p
sample_aspect_ratio=1:1
pict_type=P
coded_picture_number=59
display_picture_number=0
interlaced_frame=0
top_field_first=0
repeat_pict=0
reference=3
[/FRAME]
[FRAME]
media_type=video
key_frame=1
pkt_pts=300
pkt_pts_time=12.500000
pkt_dts=300
pkt_dts_time=12.500000
pkt_duration=1
pkt_duration_time=0.041667
pkt_pos=1632076
pkt_size=65075
width=1280
height=720
pix_fmt=yuv420p
sample_aspect_ratio=1:1
pict_type=I
coded_picture_number=60
display_picture_number=0
interlaced_frame=0
top_field_first=0
repeat_pict=0
reference=3
[/FRAME]
[FRAME]
media_type=video
key_frame=0
pkt_pts=301
pkt_pts_time=12.541667
pkt_dts=301
pkt_dts_time=12.541667
pkt_duration=1
pkt_duration_time=0.041667
pkt_pos=1697160
pkt_size=20307
width=1280
height=720
pix_fmt=yuv420p
sample_aspect_ratio=1:1
pict_type=P
coded_picture_number=61
display_picture_number=0
interlaced_frame=0
top_field_first=0
repeat_pict=0
reference=3
[/FRAME]
[FRAME]
media_type=video
key_frame=0
pkt_pts=302
pkt_pts_time=12.583333
pkt_dts=302
pkt_dts_time=12.583333
pkt_duration=1
pkt_duration_time=0.041667
pkt_pos=1717476
pkt_size=21986
width=1280
height=720
pix_fmt=yuv420p
sample_aspect_ratio=1:1
pict_type=P
coded_picture_number=62
display_picture_number=0
interlaced_frame=0
top_field_first=0
repeat_pict=0
reference=3
[/FRAME]
[FRAME]
media_type=video
key_frame=0
pkt_pts=303
pkt_pts_time=12.625000
pkt_dts=303
pkt_dts_time=12.625000
pkt_duration=1
pkt_duration_time=0.041667
pkt_pos=1739470
pkt_size=21398
width=1280
height=720
pix_fmt=yuv420p
sample_aspect_ratio=1:1
pict_type=P
coded_picture_number=63
display_picture_number=0
interlaced_frame=0
top_field_first=0
repeat_pict=0
reference=3
[/FRAME]
[FRAME]
media_type=video
key_frame=0
pkt_pts=304
pkt_pts_time=12.666667
pkt_dts=304
pkt_dts_time=12.666667
pkt_duration=1
pkt_duration_time=0.041667
pkt_pos=1760876
pkt_size=14726
width=1280
height=720
pix_fmt=yuv420p
sample_aspect_ratio=1:1
pict_type=P
coded_picture_number=64
display_picture_number=0
interlaced_frame=0
top_field_first=0
repeat_pict=0
reference=3
[/FRAME]
[FRAME]
media_type=video
key_frame=0
pkt_pts=305
pkt_pts_time=12.708333
pkt_dts=305
pkt_dts_time=12.708333
pkt_duration=1
pkt_duration_time=0.041667
pkt_pos=1775610
pkt_size=21017
width=1280
height=720
pix_fmt=yuv420p
sample_aspect_ratio=1:1
pict_type=P
coded_picture_number=65
display_picture_number=0
interlaced_frame=0
top_field_first=0
repeat_pict=0
reference=3
[/FRAME]
[FRAME]
media_type=video
key_frame=0
pkt_pts=306
pkt_pts_time=12.750000
pkt_dts=306
pkt_dts_time=12.750000
pkt_duration=1
pkt_duration_time=0.041667
pkt_pos=1796636
pkt_size=23180
width=1280
height=720
pix_fmt=yuv420p
sample_aspect_ratio=1:1
pict_type=P
coded_picture_number=66
display_picture_number=0
interlaced_frame=0
top_field_first=0
repeat_pict=0
reference=3
[/FRAME]
[FRAME]
media_type=video
key_frame=0
pkt_pts=307
pkt_pts_time=12.791667
pkt_dts=307
pkt_dts_time=12.791667
pkt_duration=1
pkt_duration_time=0.041667
pkt_pos=1819824
pkt_size=19247
width=1280
height=720
pix_fmt=yuv420p
sample_aspect_ratio=1:1
pict_type=P
coded_picture_number=67
display_picture_number=0
interlaced_frame=0
top_field_first=0
repeat_pict=0
reference=3
[/FRAME]
[FRAME]
media_type=video
key_frame=0
pkt_pts=308
pkt_pts_time=12.833333
pkt_dts=308
pkt_dts_time=12.833333
pkt_duration=1
pkt_duration_time=0.041667
pkt_pos=1839080
pkt_size=18841
width=1280
height=720
pix_fmt=yuv420p
sample_aspect_ratio=1:1
pict_type=P
coded_picture_number=68
display_picture_number=0
interlaced_frame=0
top_field_first=0
repeat_pict=0
reference=3
[/FRAME]
[FRAME]
media_type=video
key_frame=0
pkt_pts=309
pkt_pts_time=12.875000
pkt_dts=309
pkt_dts_time=12.875000
pkt_duration=1
pkt_duration_time=0.041667
pkt_pos=1857930
pkt_size=17597
width=1280
height=720
pix_fmt=yuv420p
sample_aspect_ratio=1:1
pict_type=P
coded_picture_number=69
display_picture_number=0
interlaced_frame=0
top_field_first=0
repeat_pict=0
reference=3
[/FRAME]
[FRAME]
media_type=video
key_frame=0
pkt_pts=310
pkt_pts_time=12.916667
pkt_dts=310
pkt_dts_time=12.916667
pkt_duration=1
pkt_duration_time=0.041667
pkt_pos=1875536
pkt_size=15393
width=1280
height=720
pix_fmt=yuv420p
sample_aspect_ratio=1:1
pict_type=P
coded_picture_number=70
display_picture_number=0
interlaced_frame=0
top_field_first=0
repeat_pict=0
reference=3
[/FRAME]
[FRAME]
media_type=video
key_frame=0
pkt_pts=311
pkt_pts_time=12.958333
pkt_dts=311
pkt_dts_time=12.958333
pkt_duration=1
pkt_duration_time=0.041667
pkt_pos=1890938
pkt_size=23243
width=1280
height=720
pix_fmt=yuv420p
sample_aspect_ratio=1:1
pict_type=P
coded_picture_number=71
display_picture_number=0
interlaced_frame=0
top_field_first=0
repeat_pict=0
reference=3
[/FRAME]
[FRAME]
media_type=video
key_frame=1
pkt_pts=312
pkt_pts_time=13.000000
pkt_dts=312
pkt_dts_time=13.000000
pkt_duration=1
pkt_duration_time=0.041667
pkt_pos=1914190
pkt_size=65488
width=1280
height=720
pix_fmt=yuv420p
sample_aspect_ratio=1:1
pict_type=I
coded_picture_number=72
display_picture_number=0
interlaced_frame=0
top_field_first=0
repeat_pict=0
reference=3
[/FRAME]
[FRAME]
media_type=video
key_frame=0
pkt_pts=313
pkt_pts_time=13.041667
pkt_dts=313
pkt_dts_time=13.041667
pkt_duration=1
pkt_duration_time=0.041667
pkt_pos=1979686
pkt_size=16633
width=1280
height=720
pix_fmt=yuv420p
sample_aspect_ratio=1:1
pict_type=P
coded_picture_number=73
display_picture_number=0
interlaced_frame=0
top_field_first=0
repeat_pict=0
reference=3
[/FRAME]
[FRAME]
media_type=video
key_frame=0
pkt_pts=314
pkt_pts_time=13.083333
pkt_dts=314
pkt_dts_time=13.083333
pkt_duration=1
pkt_duration_time=0.041667
pkt_pos=1996328
pkt_size=18446
width=1280
height=720
pix_fmt=yuv420p
sample_aspect_ratio=1:1
pict_type=P
coded_picture_number=74
display_picture_number=0
interlaced_frame=0
top_field_first=0
repeat_pict=0
reference=3
[/FRAME]
[FRAME]
media_type=video
key_frame=0
pkt_pts=315
pkt_pts_time=13.125000
pkt_dts=315
pkt_dts_time=13.125000
pkt_duration=1
pkt_duration_time=0.041667
pkt_pos=2014782
pkt_size=19448
width=1280
height=720
pix_fmt=yuv420p
sample_aspect_ratio=1:1
pict_type=P
coded_picture_number=75
display_picture_number=0
interlaced_frame=0
top_field_first=0
repeat_pict=0
reference=3
[/FRAME]
[FRAME]
media_type=video
key_frame=0
pkt_pts=316
pkt_pts_time=13.166667
pkt_dts=316
pkt_dts_time=13.166667
pkt_duration=1
pkt_duration_time=0.041667
pkt_pos=2034238
pkt_size=16820
width=1280
height=720
pix_fmt=yuv420p
sample_aspect_ratio=1:1
pict_type=P
coded_picture_number=76
display_picture_number=0
interlaced_frame=0
top_field_first=0
repeat_pict=0
reference=3
[/FRAME]
[FRAME]
media_type=video
key_frame=0
pkt_pts=317
pkt_pts_time=13.208333
pkt_dts=317
pkt_dts_time=13.208333
pkt_duration=1
pkt_duration_time=0.041667
pkt_pos=2051066
pkt_size=17331
width=1280
height=720
pix_fmt=yuv420p
sample_aspect_ratio=1:1
pict_type=P
coded_picture_number=77
display_picture_number=0
interlaced_frame=0
top_field_first=0
repeat_pict=0
reference=3
[/FRAME]
[FRAME]
media_type=video
key_frame=0
pkt_pts=318
pkt_pts_time=13.250000
pkt_dts=318
pkt_dts_time=13.250000
pkt_duration=1
pkt_duration_time=0.041667
pkt_pos=2068406
pkt_size=14634
width=1280
height=720
pix_fmt=yuv420p
sample_aspect_ratio=1:1
pict_type=P
coded_picture_number=78
display_picture_number=0
interlaced_frame=0
top_field_first=0
repeat_pict=0
reference=3
[/FRAME]
[FRAME]
media_type=video
key_frame=0
pkt_pts=319
pkt_pts_time=13.291667
pkt_dts=319
pkt_dts_time=13.291667
pkt_duration=1
pkt_duration_time=0.041667
pkt_pos=2083048
pkt_size=24975
width=1280
height=720
pix_fmt=yuv420p
sample_aspect_ratio=1:1
pict_type=P
coded_picture_number=79
display_picture_number=0
interlaced_frame=0
top_field_first=0
repeat_pict=0
reference=3
[/FRAME]
[FRAME]
media_type=video
key_frame=0
pkt_pts=320
pkt_pts_time=13.333333
pkt_dts=320
pkt_dts_time=13.333333
pkt_duration=1
pkt_duration_time=0.041667
pkt_pos=2108032
pkt_size=26485
width=1280
height=720
pix_fmt=yuv420p
sample_aspect_ratio=1:1
pict_type=P
coded_picture_number=80
display_picture_number=0
interlaced_frame=0
top_field_first=0
repeat_pict=0
reference=3
[/FRAME]
[FRAME]
media_type=video
key_frame=0
pkt_pts=321
pkt_pts_time=13.375000
pkt_dts=321
pkt_dts_time=13.375000
pkt_duration=1
pkt_duration_time=0.041667
pkt_pos=2134526
pkt_size=26028
width=1280
height=720
pix_fmt=yuv420p
sample_aspect_ratio=1:1
pict_type=P
coded_picture_number=81
display_picture_number=0
interlaced_frame=0
top_field_first=0
repeat_pict=0
reference=3
[/FRAME]
[FRAME]
media_type=video
key_frame=0
pkt_pts=322
pkt_pts_time=13.416667
pkt_dts=322
pkt_dts_time=13.416667
pkt_duration=1
pkt_duration_time=0.041667
pkt_pos=2160562
pkt_size=4272
width=1280
height=720
pix_fmt=yuv420p
sample_aspect_ratio=1:1
pict_type=P
coded_picture_number=82
display_picture_number=0
interlaced_frame=0
top_field_first=0
repeat_pict=0
reference=3
[/FRAME]
[FRAME]
media_type=video
key_frame=0
pkt_pts=323
pkt_pts_time=13.458333
pkt_dts=323
pkt_dts_time=13.458333
pkt_duration=1
pkt_duration_time=0.041667
pkt_pos=2164842
pkt_size=325606
width=1280
height=720
pix_fmt=yuv420p
sample_aspect_ratio=1:1
pict_type=P
coded_picture_number=83
display_picture_number=0
interlaced_frame=0
top_field_first=0
repeat_pict=0
reference=3
[/FRAME]
[FRAME]
media_type=video
key_frame=1
pkt_pts=324
pkt_pts_time=13.500000
pkt_dts=324
pkt_dts_time=13.500000
pkt_duration=1
pkt_duration_time=0.041667
pkt_pos=2490456
pkt_size=304456
width=1280
height=720
pix_fmt=yuv420p
sample_aspect_ratio=1:1
pict_type=I
coded_picture_number=84
display_picture_number=0
interlaced_frame=0
top_field_first=0
repeat_pict=0
reference=3
[/FRAME]
[FRAME]
media_type=video
key_frame=0
pkt_pts=325
pkt_pts_time=13.541667
pkt_dts=325
pkt_dts_time=13.541667
pkt_duration=1
pkt_duration_time=0.041667
pkt_pos=2794920
pkt_size=125395
width=1280
height=720
pix_fmt=yuv420p
sample_aspect_ratio=1:1
pict_type=P
coded_picture_number=85
display_picture_number=0
interlaced_frame=0
top_field_first=0
repeat_pict=0
reference=3
[/FRAME]
[FRAME]
media_type=video
key_frame=0
pkt_pts=326
pkt_pts_time=13.583333
pkt_dts=326
pkt_dts_time=13.583333
pkt_duration=1
pkt_duration_time=0.041667
pkt_pos=2920324
pkt_size=124759
width=1280
height=720
pix_fmt=yuv420p
sample_aspect_ratio=1:1
pict_type=P
coded_picture_number=86
display_picture_number=0
interlaced_frame=0
top_field_first=0
repeat_pict=0
reference=3
[/FRAME]
[FRAME]
media_type=video
key_frame=0
pkt_pts=327
pkt_pts_time=13.625000
pkt_dts=327
pkt_dts_time=13.625000
pkt_duration=1
pkt_duration_time=0.041667
pkt_pos=3045092
pkt_size=108037
width=1280
height=720
pix_fmt=yuv420p
sample_aspect_ratio=1:1
pict_type=P
coded_picture_number=87
display_picture_number=0
interlaced_frame=0
top_field_first=0
repeat_pict=0
reference=3
[/FRAME]
[FRAME]
media_type=video
key_frame=0
pkt_pts=328
pkt_pts_time=13.666667
pkt_dts=328
pkt_dts_time=13.666667
pkt_duration=1
pkt_duration_time=0.041667
pkt_pos=3153138
pkt_size=106840
width=1280
height=720
pix_fmt=yuv420p
sample_aspect_ratio=1:1
pict_type=P
coded_picture_number=88
display_picture_number=0
interlaced_frame=0
top_field_first=0
repeat_pict=0
reference=3
[/FRAME]
[FRAME]
media_type=video
key_frame=0
pkt_pts=329
pkt_pts_time=13.708333
pkt_dts=329
pkt_dts_time=13.708333
pkt_duration=1
pkt_duration_time=0.041667
pkt_pos=3259986
pkt_size=105581
width=1280
height=720
pix_fmt=yuv420p
sample_aspect_ratio=1:1
pict_type=P
coded_picture_number=89
display_picture_number=0
interlaced_frame=0
top_field_first=0
repeat_pict=0
reference=3
[/FRAME]
[FRAME]
media_type=video
key_frame=0
pkt_pts=330
pkt_pts_time=13.750000
pkt_dts=330
pkt_dts_time=13.750000
pkt_duration=1
pkt_duration_time=0.041667
pkt_pos=3365576
pkt_size=109543
width=1280
height=720
pix_fmt=yuv420p
sample_aspect_ratio=1:1
pict_type=P
coded_picture_number=90
display_picture_number=0
interlaced_frame=0
top_field_first=0
repeat_pict=0
reference=3
[/FRAME]
[FRAME]
media_type=video
key_frame=0
pkt_pts=331
pkt_pts_time=13.791667
pkt_dts=331
pkt_dts_time=13.791667
pkt_duration=1
pkt_duration_time=0.041667
pkt_pos=3475128
pkt_size=108515
width=1280
height=720
pix_fmt=yuv420p
sample_aspect_ratio=1:1
pict_type=P
coded_picture_number=91
display_picture_number=0
interlaced_frame=0
top_field_first=0
repeat_pict=0
reference=3
[/FRAME]
[FRAME]
media_type=video
key_frame=0
pkt_pts=332
pkt_pts_time=13.833333
pkt_dts=332
pkt_dts_time=13.833333
pkt_duration=1
pkt_duration_time=0.041667
pkt_pos=3583652
pkt_size=101717
width=1280
height=720
pix_fmt=yuv420p
sample_aspect_ratio=1:1
pict_type=P
coded_picture_number=92
display_picture_number=0
interlaced_frame=0
top_field_first=0
repeat_pict=0
reference=3
[/FRAME]
[FRAME]
media_type=video
key_frame=0
pkt_pts=333
pkt_pts_time=13.875000
pkt_dts=333
pkt_dts_time=13.875000
pkt_duration=1
pkt_duration_time=0.041667
pkt_pos=3685378
pkt_size=117174
width=1280
height=720
pix_fmt=yuv420p
sample_aspect_ratio=1:1
pict_type=P
coded_picture_number=93
display_picture_number=0
interlaced_frame=0
top_field_first=0
repeat_pict=0
reference=3
[/FRAME]
[FRAME]
media_type=video
key_frame=0
pkt_pts=334
pkt_pts_time=13.916667
pkt_dts=334
pkt_dts_time=13.916667
pkt_duration=1
pkt_duration_time=0.041667
pkt_pos=3802560
pkt_size=102817
width=1280
height=720
pix_fmt=yuv420p
sample_aspect_ratio=1:1
pict_type=P
coded_picture_number=94
display_picture_number=0
interlaced_frame=0
top_field_first=0
repeat_pict=0
reference=3
[/FRAME]
[FRAME]
media_type=video
key_frame=0
pkt_pts=335
pkt_pts_time=13.958333
pkt_dts=335
pkt_dts_time=13.958333
pkt_duration=1
pkt_duration_time=0.041667
pkt_pos=3905386
pkt_size=102975
width=1280
height=720
pix_fmt=yuv420p
sample_aspect_ratio=1:1
pict_type=P
coded_picture_number=95
display_picture_number=0
interlaced_frame=0
top_field_first=0
repeat_pict=0
reference=3
[/FRAME]
[FRAME]
media_type=video
key_frame=1
pkt_pts=336
pkt_pts_time=14.000000
pkt_dts=336
pkt_dts_time=14.000000
pkt_duration=1
pkt_duration_time=0.041667
pkt_pos=4008370
pkt_size=256273
width=1280
height=720
pix_fmt=yuv420p
sample_aspect_ratio=1:1
pict_type=I
coded_picture_number=96
display_picture_number=0
interlaced_frame=0
top_field_first=0
repeat_pict=0
reference=3
[/FRAME]
[FRAME]
media_type=video
key_frame=0
pkt_pts=337
pkt_pts_time=14.041667
pkt_dts=337
pkt_dts_time=14.041667
pkt_duration=1
pkt_duration_time=0.041667
pkt_pos=4264652
pkt_size=118284
width=1280
height=720
pix_fmt=yuv420p
sample_aspect_ratio=1:1
pict_type=P
coded_picture_number=97
display_picture_number=0
interlaced_frame=0
top_field_first=0
repeat_pict=0
reference=3
[/FRAME]
[FRAME]
media_type=video
key_frame=0
pkt_pts=338
pkt_pts_time=14.083333
pkt_dts=338
pkt_dts_time=14.083333
pkt_duration=1
pkt_duration_time=0.041667
pkt_pos=4382944
pkt_size=97218
width=1280
height=720
pix_fmt=yuv420p
sample_aspect_ratio=1:1
pict_type=P
coded_picture_number=98
display_picture_number=0
interlaced_frame=0
top_field_first=0
repeat_pict=0
reference=3
[/FRAME]
[FRAME]
media_type=video
key_frame=0
pkt_pts=339
pkt_pts_time=14.125000
pkt_dts=339
pkt_dts_time=14.125000
pkt_duration=1
pkt_duration_time=0.041667
pkt_pos=4480170
pkt_size=100981
width=1280
height=720
pix_fmt=yuv420p
sample_aspect_ratio=1:1
pict_type=P
coded_picture_number=99
display_picture_number=0
interlaced_frame=0
top_field_first=0
repeat_pict=0
reference=3
[/FRAME]
[FRAME]
media_type=video
key_frame=0
pkt_pts=340
pkt_pts_time=14.166667
pkt_dts=340
pkt_dts_time=14.166667
pkt_duration=1
pkt_duration_time=0.041667
pkt_pos=4581160
pkt_size=95200
width=1280
height=720
pix_fmt=yuv420p
sample_aspect_ratio=1:1
pict_type=P
coded_picture_number=100
display_picture_number=0
interlaced_frame=0
top_field_first=0
repeat_pict=0
reference=3
[/FRAME]
[FRAME]
media_type=video
key_frame=0
pkt_pts=341
pkt_pts_time=14.208333
pkt_dts=341
pkt_dts_time=14.208333
pkt_duration=1
pkt_duration_time=0.041667
pkt_pos=4676368
pkt_size=120809
width=1280
height=720
pix_fmt=yuv420p
sample_aspect_ratio=1:1
pict_type=P
coded_picture_number=101
display_picture_number=0
interlaced_frame=0
top_field_first=0
repeat_pict=0
reference=3
[/FRAME]
[FRAME]
media_type=video
key_frame=0
pkt_pts=342
pkt_pts_time=14.250000
pkt_dts=342
pkt_dts_time=14.250000
pkt_duration=1
pkt_duration_time=0.041667
pkt_pos=4797186
pkt_size=94981
width=1280
height=720
pix_fmt=yuv420p
sample_aspect_ratio=1:1
pict_type=P
coded_picture_number=102
display_picture_number=0
interlaced_frame=0
top_field_first=0
repeat_pict=0
reference=3
[/FRAME]
[FRAME]
media_type=video
key_frame=0
pkt_pts=343
pkt_pts_time=14.291667
pkt_dts=343
pkt_dts_time=14.291667
pkt_duration=1
pkt_duration_time=0.041667
pkt_pos=4892176
pkt_size=101543
width=1280
height=720
pix_fmt=yuv420p
sample_aspect_ratio=1:1
pict_type=P
coded_picture_number=103
display_picture_number=0
interlaced_frame=0
top_field_first=0
repeat_pict=0
reference=3
[/FRAME]
[FRAME]
media_type=video
key_frame=0
pkt_pts=344
pkt_pts_time=14.333333
pkt_dts=344
pkt_dts_time=14.333333
pkt_duration=1
pkt_duration_time=0.041667
pkt_pos=4993728
pkt_size=94150
width=1280
height=720
pix_fmt=yuv420p
sample_aspect_ratio=1:1
pict_type=P
coded_picture_number=104
display_picture_number=0
interlaced_frame=0
top_field_first=0
repeat_pict=0
reference=3
[/FRAME]
[FRAME]
media_type=video
key_frame=0
pkt_pts=345
pkt_pts_time=14.375000
pkt_dts=345
pkt_dts_time=14.375000
pkt_duration=1
pkt_duration_time=0.041667
pkt_pos=5087886
pkt_size=115694
width=1280
height=720
pix_fmt=yuv420p
sample_aspect_ratio=1:1
pict_type=P
coded_picture_number=105
display_picture_number=0
interlaced_frame=0
top_field_first=0
repeat_pict=0
reference=3
[/FRAME]
[FRAME]
media_type=video
key_frame=0
pkt_pts=346
pkt_pts_time=14.416667
pkt_dts=346
pkt_dts_time=14.416667
pkt_duration=1
pkt_duration_time=0.041667
pkt_pos=5203588
pkt_size=98362
width=1280
height=720
pix_fmt=yuv420p
sample_aspect_ratio=1:1
pict_type=P
coded_picture_number=106
display_picture_number=0
interlaced_frame=0
top_field_first=0
repeat_pict=0
reference=3
[/FRAME]
[FRAME]
media_type=video
key_frame=0
pkt_pts=347
pkt_pts_time=14.458333
pkt_dts=347
pkt_dts_time=14.458333
pkt_duration=1
pkt_duration_time=0.041667
pkt_pos=5301958
pkt_size=105902
width=1280
height=720
pix_fmt=yuv420p
sample_aspect_ratio=1:1
pict_type=P
coded_picture_number=107
display_picture_number=0
interlaced_frame=0
top_field_first=0
repeat_pict=0
reference=3
[/FRAME]
[FRAME]
media_type=video
key_frame=1
pkt_pts=348
pkt_pts_time=14.500000
pkt_dts=348
pkt_dts_time=14.500000
pkt_duration=1
pkt_duration_time=0.041667
pkt_pos=5407868
pkt_size=240057
width=1280
height=720
pix_fmt=yuv420p
sample_aspect_ratio=1:1
pict_type=I
coded_picture_number=108
display_picture_number=0
interlaced_frame=0
top_field_first=0
repeat_pict=0
reference=3
[/FRAME]
[FRAME]
media_type=video
key_frame=0
pkt_pts=349
pkt_pts_time=14.541667
pkt_dts=349
pkt_dts_time=14.541667
pkt_duration=1
pkt_duration_time=0.041667
pkt_pos=5647934
pkt_size=138953
width=1280
height=720
pix_fmt=yuv420p
sample_aspect_ratio=1:1
pict_type=P
coded_picture_number=109
display_picture_number=0
interlaced_frame=0
top_field_first=0
repeat_pict=0
reference=3
[/FRAME]
[FRAME]
media_type=video
key_frame=0
pkt_pts=350
pkt_pts_time=14.583333
pkt_dts=350
pkt_dts_time=14.583333
pkt_duration=1
pkt_duration_time=0.041667
pkt_pos=5786896
pkt_size=107529
width=1280
height=720
pix_fmt=yuv420p
sample_aspect_ratio=1:1
pict_type=P
coded_picture_number=110
display_picture_number=0
interlaced_frame=0
top_field_first=0
repeat_pict=0
reference=3
[/FRAME]
[FRAME]
media_type=video
key_frame=0
pkt_pts=351
pkt_pts_time=14.625000
pkt_dts=351
pkt_dts_time=14.625000
pkt_duration=1
pkt_duration_time=0.041667
pkt_pos=5894434
pkt_size=108832
width=1280
height=720
pix_fmt=yuv420p
sample_aspect_ratio=1:1
pict_type=P
coded_picture_number=111
display_picture_number=0
interlaced_frame=0
top_field_first=0
repeat_pict=0
reference=3
[/FRAME]
[FRAME]
media_type=video
key_frame=0
pkt_pts=352
pkt_pts_time=14.666667
pkt_dts=352
pkt_dts_time=14.666667
pkt_duration=1
pkt_duration_time=0.041667
pkt_pos=6003274
pkt_size=104475
width=1280
height=720
pix_fmt=yuv420p
sample_aspect_ratio=1:1
pict_type=P
coded_picture_number=112
display_picture_number=0
interlaced_frame=0
top_field_first=0
repeat_pict=0
reference=3
[/FRAME]
[FRAME]
media_type=video
key_frame=0
pkt_pts=353
pkt_pts_time=14.708333
pkt_dts=353
pkt_dts_time=14.708333
pkt_duration=1
pkt_duration_time=0.041667
pkt_pos=6107758
pkt_size=114652
width=1280
height=720
pix_fmt=yuv420p
sample_aspect_ratio=1:1
pict_type=P
coded_picture_number=113
display_picture_number=0
interlaced_frame=0
top_field_first=0
repeat_pict=0
reference=3
[/FRAME]
[FRAME]
media_type=video
key_frame=0
pkt_pts=354
pkt_pts_time=14.750000
pkt_dts=354
pkt_dts_time=14.750000
pkt_duration=1
pkt_duration_time=0.041667
pkt_pos=6222418
pkt_size=99941
width=1280
height=720
pix_fmt=yuv420p
sample_aspect_ratio=1:1
pict_type=P
coded_picture_number=114
display_picture_number=0
interlaced_frame=0
top_field_first=0
repeat_pict=0
reference=3
[/FRAME]
[FRAME]
media_type=video
key_frame=0
pkt_pts=355
pkt_pts_time=14.791667
pkt_dts=355
pkt_dts_time=14.791667
pkt_duration=1
pkt_duration_time=0.041667
pkt_pos=6322368
pkt_size=95519
width=1280
height=720
pix_fmt=yuv420p
sample_aspect_ratio=1:1
pict_type=P
coded_picture_number=115
display_picture_number=0
interlaced_frame=0
top_field_first=0
repeat_pict=0
reference=3
[/FRAME]
[FRAME]
media_type=video
key_frame=0
pkt_pts=356
pkt_pts_time=14.833333
pkt_dts=356
pkt_dts_time=14.833333
pkt_duration=1
pkt_duration_time=0.041667
pkt_pos=6417896
pkt_size=101847
width=1280
height=720
pix_fmt=yuv420p
sample_aspect_ratio=1:1
pict_type=P
coded_picture_number=116
display_picture_number=0
interlaced_frame=0
top_field_first=0
repeat_pict=0
reference=3
[/FRAME]
[FRAME]
media_type=video
key_frame=0
pkt_pts=357
pkt_pts_time=14.875000
pkt_dts=357
pkt_dts_time=14.875000
pkt_duration=1
pkt_duration_time=0.041667
pkt_pos=6519752
pkt_size=115701
width=1280
height=720
pix_fmt=yuv420p
sample_aspect_ratio=1:1
pict_type=P
coded_picture_number=117
display_picture_number=0
interlaced_frame=0
top_field_first=0
repeat_pict=0
reference=3
[/FRAME]
[FRAME]
media_type=video
key_frame=0
pkt_pts=358
pkt_pts_time=14.916667
pkt_dts=358
pkt_dts_time=14.916667
pkt_duration=1
pkt_duration_time=0.041667
pkt_pos=6635462
pkt_size=97439
width=1280
height=720
pix_fmt=yuv420p
sample_aspect_ratio=1:1
pict_type=P
coded_picture_number=118
display_picture_number=0
interlaced_frame=0
top_field_first=0
repeat_pict=0
reference=3
[/FRAME]
[FRAME]
media_type=video
key_frame=0
pkt_pts=359
pkt_pts_time=14.958333
pkt_dts=359
pkt_dts_time=14.958333
pkt_duration=1
pkt_duration_time=0.041667
pkt_pos=6732910
pkt_size=95530
width=1280
height=720
pix_fmt=yuv420p
sample_aspect_ratio=1:1
pict_type=P
coded_picture_number=119
display_picture_number=0
interlaced_frame=0
top_field_first=0
repeat_pict=0
reference=3
[/FRAME]
[FRAME]
media_type=video
key_frame=1
pkt_pts=360
pkt_pts_time=15.000000
pkt_dts=360
pkt_dts_time=15.000000
pkt_duration=1
pkt_duration_time=0.041667
pkt_pos=6828448
pkt_size=247438
width=1280
height=720
pix_fmt=yuv420p
sample_aspect_ratio=1:1
pict_type=I
coded_picture_number=120
display_picture_number=0
interlaced_frame=0
top_field_first=0
repeat_pict=0
reference=3
[/FRAME]
[FRAME]
media_type=video
key_frame=0
pkt_pts=361
pkt_pts_time=15.041667
pkt_dts=361
pkt_dts_time=15.041667
pkt_duration=1
pkt_duration_time=0.041667
pkt_pos=7075894
pkt_size=102973
width=1280
height=720
pix_fmt=yuv420p
sample_aspect_ratio=1:1
pict_type=P
coded_picture_number=121
display_picture_number=0
interlaced_frame=0
top_field_first=0
repeat_pict=0
reference=3
[/FRAME]
[FRAME]
media_type=video
key_frame=0
pkt_pts=362
pkt_pts_time=15.083333
pkt_dts=362
pkt_dts_time=15.083333
pkt_duration=1
pkt_duration_time=0.041667
pkt_pos=7178876
pkt_size=100597
width=1280
height=720
pix_fmt=yuv420p
sample_aspect_ratio=1:1
pict_type=P
coded_picture_number=122
display_picture_number=0
interlaced_frame=0
top_field_first=0
repeat_pict=0
reference=3
[/FRAME]
[FRAME]
media_type=video
key_frame=0
pkt_pts=363
pkt_pts_time=15.125000
pkt_dts=363
pkt_dts_time=15.125000
pkt_duration=1
pkt_duration_time=0.041667
pkt_pos=7279482
pkt_size=103826
width=1280
height=720
pix_fmt=yuv420p
sample_aspect_ratio=1:1
pict_type=P
coded_picture_number=123
display_picture_number=0
interlaced_frame=0
top_field_first=0
repeat_pict=0
reference=3
[/FRAME]
[FRAME]
media_type=video
key_frame=0
pkt_pts=364
pkt_pts_time=15.166667
pkt_dts=364
pkt_dts_time=15.166667
pkt_duration=1
pkt_duration_time=0.041667
pkt_pos=7383316
pkt_size=91868
width=1280
height=720
pix_fmt=yuv420p
sample_aspect_ratio=1:1
pict_type=P
coded_picture_number=124
display_picture_number=0
interlaced_frame=0
top_field_first=0
repeat_pict=0
reference=3
[/FRAME]
[FRAME]
media_type=video
key_frame=0
pkt_pts=365
pkt_pts_time=15.208333
pkt_dts=365
pkt_dts_time=15.208333
pkt_duration=1
pkt_duration_time=0.041667
pkt_pos=7475192
pkt_size=111698
width=1280
height=720
pix_fmt=yuv420p
sample_aspect_ratio=1:1
pict_type=P
coded_picture_number=125
display_picture_number=0
interlaced_frame=0
top_field_first=0
repeat_pict=0
reference=3
[/FRAME]
[FRAME]
media_type=video
key_frame=0
pkt_pts=366
pkt_pts_time=15.250000
pkt_dts=366
pkt_dts_time=15.250000
pkt_duration=1
pkt_duration_time=0.041667
pkt_pos=7586898
pkt_size=97387
width=1280
height=720
pix_fmt=yuv420p
sample_aspect_ratio=1:1
pict_type=P
coded_picture_number=126
display_picture_number=0
interlaced_frame=0
top_field_first=0
repeat_pict=0
reference=3
[/FRAME]
[FRAME]
media_type=video
key_frame=0
pkt_pts=367
pkt_pts_time=15.291667
pkt_dts=367
pkt_dts_time=15.291667
pkt_duration=1
pkt_duration_time=0.041667
pkt_pos=7684294
pkt_size=104533
width=1280
height=720
pix_fmt=yuv420p
sample_aspect_ratio=1:1
pict_type=P
coded_picture_number=127
display_picture_number=0
interlaced_frame=0
top_field_first=0
repeat_pict=0
reference=3
[/FRAME]
[FRAME]
media_type=video
key_frame=0
pkt_pts=368
pkt_pts_time=15.333333
pkt_dts=368
pkt_dts_time=15.333333
pkt_duration=1
pkt_duration_time=0.041667
pkt_pos=7788836
pkt_size=93444
width=1280
height=720
pix_fmt=yuv420p
sample_aspect_ratio=1:1
pict_type=P
coded_picture_number=128
display_picture_number=0
interlaced_frame=0
top_field_first=0
repeat_pict=0
reference=3
[/FRAME]
[FRAME]
media_type=video
key_frame=0
pkt_pts=369
pkt_pts_time=15.375000
pkt_dts=369
pkt_dts_time=15.375000
pkt_duration=1
pkt_duration_time=0.041667
pkt_pos=7882288
pkt_size=109695
width=1280
height=720
pix_fmt=yuv420p
sample_aspect_ratio=1:1
pict_type=P
coded_picture_number=129
display_picture_number=0
interlaced_frame=0
top_field_first=0
repeat_pict=0
reference=3
[/FRAME]
[FRAME]
media_type=video
key_frame=0
pkt_pts=370
pkt_pts_time=15.416667
pkt_dts=370
pkt_dts_time=15.416667
pkt_duration=1
pkt_duration_time=0.041667
pkt_pos=7991992
pkt_size=92848
width=1280
height=720
pix_fmt=yuv420p
sample_aspect_ratio=1:1
pict_type=P
coded_picture_number=130
display_picture_number=0
interlaced_frame=0
top_field_first=0
repeat_pict=0
reference=3
[/FRAME]
[FRAME]
media_type=video
key_frame=0
pkt_pts=371
pkt_pts_time=15.458333
pkt_dts=371
pkt_dts_time=15.458333
pkt_duration=1
pkt_duration_time=0.041667
pkt_pos=8084848
pkt_size=100061
width=1280
height=720
pix_fmt=yuv420p
sample_aspect_ratio=1:1
pict_type=P
coded_picture_number=131
display_picture_number=0
interlaced_frame=0
top_field_first=0
repeat_pict=0
reference=3
[/FRAME]
[FRAME]
media_type=video
key_frame=1
pkt_pts=372
pkt_pts_time=15.500000
pkt_dts=372
pkt_dts_time=15.500000
pkt_duration=1
pkt_duration_time=0.041667
pkt_pos=8184918
pkt_size=246900
width=1280
height=720
pix_fmt=yuv420p
sample_aspect_ratio=1:1
pict_type=I
coded_picture_number=132
display_picture_number=0
interlaced_frame=0
top_field_first=0
repeat_pict=0
reference=3
[/FRAME]
[FRAME]
media_type=video
key_frame=0
pkt_pts=373
pkt_pts_time=15.541667
pkt_dts=373
pkt_dts_time=15.541667
pkt_duration=1
pkt_duration_time=0.041667
pkt_pos=8431826
pkt_size=151347
width=1280
height=720
pix_fmt=yuv420p
sample_aspect_ratio=1:1
pict_type=P
coded_picture_number=133
display_picture_number=0
interlaced_frame=0
top_field_first=0
repeat_pict=0
reference=3
[/FRAME]
[FRAME]
media_type=video
key_frame=0
pkt_pts=374
pkt_pts_time=15.583333
pkt_dts=374
pkt_dts_time=15.583333
pkt_duration=1
pkt_duration_time=0.041667
pkt_pos=8583182
pkt_size=110947
width=1280
height=720
pix_fmt=yuv420p
sample_aspect_ratio=1:1
pict_type=P
coded_picture_number=134
display_picture_number=0
interlaced_frame=0
top_field_first=0
repeat_pict=0
reference=3
[/FRAME]
[FRAME]
media_type=video
key_frame=0
pkt_pts=375
pkt_pts_time=15.625000
pkt_dts=375
pkt_dts_time=15.625000
pkt_duration=1
pkt_duration_time=0.041667
pkt_pos=8694138
pkt_size=102564
width=1280
height=720
pix_fmt=yuv420p
sample_aspect_ratio=1:1
pict_type=P
coded_picture_number=135
display_picture_number=0
interlaced_frame=0
top_field_first=0
repeat_pict=0
reference=3
[/FRAME]
[FRAME]
media_type=video
key_frame=0
pkt_pts=376
pkt_pts_time=15.666667
pkt_dts=376
pkt_dts_time=15.666667
pkt_duration=1
pkt_duration_time=0.041667
pkt_pos=8796710
pkt_size=105147
width=1280
height=720
pix_fmt=yuv420p
sample_aspect_ratio=1:1
pict_type=P
coded_picture_number=136
display_picture_number=0
interlaced_frame=0
top_field_first=0
repeat_pict=0
reference=3
[/FRAME]
[FRAME]
media_type=video
key_frame=0
pkt_pts=377
pkt_pts_time=15.708333
pkt_dts=377
pkt_dts_time=15.708333
pkt_duration=1
pkt_duration_time=0.041667
pkt_pos=8901866
pkt_size=118774
width=1280
height=720
pix_fmt=yuv420p
sample_aspect_ratio=1:1
pict_type=P
coded_picture_number=137
display_picture_number=0
interlaced_frame=0
top_field_first=0
repeat_pict=0
reference=3
[/FRAME]
[FRAME]
media_type=video
key_frame=0
pkt_pts=378
pkt_pts_time=15.750000
pkt_dts=378
pkt_dts_time=15.750000
pkt_duration=1
pkt_duration_time=0.041667
pkt_pos=9020648
pkt_size=107087
width=1280
height=720
pix_fmt=yuv420p
sample_aspect_ratio=1:1
pict_type=P
coded_picture_number=138
display_picture_number=0
interlaced_frame=0
top_field_first=0
repeat_pict=0
reference=3
[/FRAME]
[FRAME]
media_type=video
key_frame=0
pkt_pts=379
pkt_pts_time=15.791667
pkt_dts=379
pkt_dts_time=15.791667
pkt_duration=1
pkt_duration_time=0.041667
pkt_pos=9127744
pkt_size=104285
width=1280
height=720
pix_fmt=yuv420p
sample_aspect_ratio=1:1
pict_type=P
coded_picture_number=139
display_picture_number=0
interlaced_frame=0
top_field_first=0
repeat_pict=0
reference=3
[/FRAME]
[FRAME]
media_type=video
key_frame=0
pkt_pts=380
pkt_pts_time=15.833333
pkt_dts=380
pkt_dts_time=15.833333
pkt_duration=1
pkt_duration_time=0.041667
pkt_pos=9232038
pkt_size=96482
width=1280
height=720
pix_fmt=yuv420p
sample_aspect_ratio=1:1
pict_type=P
coded_picture_number=140
display_picture_number=0
interlaced_frame=0
top_field_first=0
repeat_pict=0
reference=3
[/FRAME]
[FRAME]
media_type=video
key_frame=0
pkt_pts=381
pkt_pts_time=15.875000
pkt_dts=381
pkt_dts_time=15.875000
pkt_duration=1
pkt_duration_time=0.041667
pkt_pos=9328528
pkt_size=114665
width=1280
height=720
pix_fmt=yuv420p
sample_aspect_ratio=1:1
pict_type=P
coded_picture_number=141
display_picture_number=0
interlaced_frame=0
top_field_first=0
repeat_pict=0
reference=3
[/FRAME]
[FRAME]
media_type=video
key_frame=0
pkt_pts=382
pkt_pts_time=15.916667
pkt_dts=382
pkt_dts_time=15.916667
pkt_duration=1
pkt_duration_time=0.041667
pkt_pos=9443202
pkt_size=100300
width=1280
height=720
pix_fmt=yuv420p
sample_aspect_ratio=1:1
pict_type=P
coded_picture_number=142
display_picture_number=0
interlaced_frame=0
top_field_first=0
repeat_pict=0
reference=3
[/FRAME]
[FRAME]
media_type=video
key_frame=0
pkt_pts=383
pkt_pts_time=15.958333
pkt_dts=383
pkt_dts_time=15.958333
pkt_duration=1
pkt_duration_time=0.041667
pkt_pos=9543510
pkt_size=94436
width=1280
height=720
pix_fmt=yuv420p
sample_aspect_ratio=1:1
pict_type=P
coded_picture_number=143
display_picture_number=0
interlaced_frame=0
top_field_first=0
repeat_pict=0
reference=3
[/FRAME]
[FRAME]
media_type=video
key_frame=1
pkt_pts=384
pkt_pts_time=16.000000
pkt_dts=384