Skip to content

Instantly share code, notes, and snippets.

Embed
What would you like to do?
Sample of `ffprobe -show_streams MVI_0188.MOV`
ffprobe version 2.8.4 Copyright (c) 2007-2015 the FFmpeg developers
built with Apple LLVM version 7.0.2 (clang-700.1.81)
configuration: --prefix=/usr/local/Cellar/ffmpeg/2.8.4 --enable-shared --enable-pthreads --enable-gpl --enable-version3 --enable-hardcoded-tables --enable-avresample --cc=clang --host-cflags= --host-ldflags= --enable-opencl --enable-libx264 --enable-libmp3lame --enable-libvo-aacenc --enable-libxvid --enable-vda
libavutil 54. 31.100 / 54. 31.100
libavcodec 56. 60.100 / 56. 60.100
libavformat 56. 40.101 / 56. 40.101
libavdevice 56. 4.100 / 56. 4.100
libavfilter 5. 40.101 / 5. 40.101
libavresample 2. 1. 0 / 2. 1. 0
libswscale 3. 1.101 / 3. 1.101
libswresample 1. 2.101 / 1. 2.101
libpostproc 53. 3.100 / 53. 3.100
Input #0, mov,mp4,m4a,3gp,3g2,mj2, from '001_005_MVI_0188.MOV':
Metadata:
major_brand : qt
minor_version : 512
compatible_brands: qt
encoder : Lavf56.40.101
Duration: 00:00:06.13, start: 0.247500, bitrate: 46395 kb/s
Stream #0:0(eng): Video: h264 (Constrained Baseline) (avc1 / 0x31637661), yuvj420p(pc, smpte170m/bt709/bt709), 1920x1080, 46272 kb/s, 23.98 fps, 23.98 tbr, 24k tbn, 48k tbc (default)
Metadata:
handler_name : DataHandler
Stream #0:1(eng): Audio: aac (LC) (mp4a / 0x6134706D), 48000 Hz, stereo, fltp, 128 kb/s (default)
Metadata:
handler_name : DataHandler
[STREAM]
index=0
codec_name=h264
codec_long_name=H.264 / AVC / MPEG-4 AVC / MPEG-4 part 10
profile=Constrained Baseline
codec_type=video
codec_time_base=1/48000
codec_tag_string=avc1
codec_tag=0x31637661
width=1920
height=1080
coded_width=1920
coded_height=1088
has_b_frames=0
sample_aspect_ratio=0:1
display_aspect_ratio=0:1
pix_fmt=yuvj420p
level=50
color_range=pc
color_space=smpte170m
color_transfer=bt709
color_primaries=bt709
chroma_location=left
timecode=N/A
refs=1
is_avc=1
nal_length_size=4
id=N/A
r_frame_rate=24000/1001
avg_frame_rate=24000/1001
time_base=1/24000
start_pts=-5940
start_time=-0.247500
duration_ts=147147
duration=6.131125
bit_rate=46272977
max_bit_rate=N/A
bits_per_raw_sample=8
nb_frames=147
nb_read_frames=N/A
nb_read_packets=N/A
DISPOSITION:default=1
DISPOSITION:dub=0
DISPOSITION:original=0
DISPOSITION:comment=0
DISPOSITION:lyrics=0
DISPOSITION:karaoke=0
DISPOSITION:forced=0
DISPOSITION:hearing_impaired=0
DISPOSITION:visual_impaired=0
DISPOSITION:clean_effects=0
DISPOSITION:attached_pic=0
TAG:language=eng
TAG:handler_name=DataHandler
[/STREAM]
[STREAM]
index=1
codec_name=aac
codec_long_name=AAC (Advanced Audio Coding)
profile=LC
codec_type=audio
codec_time_base=1/48000
codec_tag_string=mp4a
codec_tag=0x6134706d
sample_fmt=fltp
sample_rate=48000
channels=2
channel_layout=stereo
bits_per_sample=0
id=N/A
r_frame_rate=0/0
avg_frame_rate=0/0
time_base=1/48000
start_pts=-1600
start_time=-0.033333
duration_ts=283840
duration=5.913333
bit_rate=128374
max_bit_rate=128374
bits_per_raw_sample=N/A
nb_frames=278
nb_read_frames=N/A
nb_read_packets=N/A
DISPOSITION:default=1
DISPOSITION:dub=0
DISPOSITION:original=0
DISPOSITION:comment=0
DISPOSITION:lyrics=0
DISPOSITION:karaoke=0
DISPOSITION:forced=0
DISPOSITION:hearing_impaired=0
DISPOSITION:visual_impaired=0
DISPOSITION:clean_effects=0
DISPOSITION:attached_pic=0
TAG:language=eng
TAG:handler_name=DataHandler
[/STREAM]
Sign up for free to join this conversation on GitHub. Already have an account? Sign in to comment
You can’t perform that action at this time.