Skip to content

Instantly share code, notes, and snippets.

Embed
What would you like to do?
Upload Fail
02-05 12:28:24.927: I/ActivityManager(385): START u0 {cmp=org.storymaker.app/.AccountsActivity (has extras)} from pid 10018
02-05 12:28:25.075: W/AuthTable(10018): no username/password found for "storymaker"
02-05 12:28:25.083: D/LightsService(385): Excessive delay setting light: 67ms
02-05 12:28:25.083: W/AuthTable(10018): no username/password found for "storymaker"
02-05 12:28:25.091: W/AuthTable(10018): no username/password found for "storymaker"
02-05 12:28:25.091: W/AuthTable(10018): no username/password found for "storymaker"
02-05 12:28:25.099: W/AuthTable(10018): no username/password found for "storymaker"
02-05 12:28:25.356: D/LightsService(385): Excessive delay setting light: 67ms
02-05 12:28:25.380: I/ActivityManager(385): Displayed org.storymaker.app/.AccountsActivity: +393ms
02-05 12:28:25.591: D/LightsService(385): Excessive delay setting light: 67ms
02-05 12:28:25.763: D/LightsService(385): Excessive delay setting light: 67ms
02-05 12:28:27.060: D/PublishFragment(10018): Choose Accounts dialog return ok
02-05 12:28:27.060: D/PublishFragment(10018): selected sites: [facebook]
02-05 12:28:27.435: D/FacebookPublisher(10018): startRender
02-05 12:28:28.021: D/FFMPEG(10018): /data/data/org.storymaker.app/app_bin/ffmpeg -y -i /storage/emulated/0/Android/data/org.storymaker.app/files/render/1423157307940/Screenshot_2015-02-04-19-11-39.png -s 720x480 /storage/emulated/0/Android/data/org.storymaker.app/files/render/1423157307940/image-000.jpg
02-05 12:28:28.067: D/StoryMaker(10018): ffmpeg version 0.11.1 Copyright (c) 2000-2012 the FFmpeg developers
02-05 12:28:28.067: D/StoryMaker(10018): built on Nov 15 2013 00:50:10 with gcc 4.6 20120106 (prerelease)
02-05 12:28:28.067: D/StoryMaker(10018): configuration: --arch=arm --cpu=cortex-a8 --target-os=linux --enable-runtime-cpudetect --enable-small --prefix=/data/data/info.guardianproject.ffmpeg/app_opt --enable-pic --disable-shared --enable-static --cross-prefix=/home/n8fr8/dev/android/ndk//toolchains/arm-linux-androideabi-4.6/prebuilt/linux-x86_64/bin/arm-linux-androideabi- --sysroot=/home/n8fr8/dev/android/ndk//platforms/android-3/arch-arm --extra-cflags='-I../x264 -mfloat-abi=softfp -mfpu=neon' --extra-ldflags=-L../x264 --enable-version3 --enable-gpl --disable-doc --enable-yasm --enable-decoders --enable-encoders --enable-muxers --enable-demuxers --enable-parsers --enable-protocols --enable-filters --enable-avresample --enable-libfreetype --disable-indevs --enable-indev=lavfi --disable-outdevs --enable-hwaccels --enable-ffmpeg --disable-ffplay --disable-ffprobe --disable-ffserver --disable-network --enable-libx264 --enable-zlib --enable-muxer=md5
02-05 12:28:28.067: D/StoryMaker(10018): libavutil 51. 54.100 / 51. 54.100
02-05 12:28:28.067: D/StoryMaker(10018): libavcodec 54. 23.100 / 54. 23.100
02-05 12:28:28.067: D/StoryMaker(10018): libavformat 54. 6.100 / 54. 6.100
02-05 12:28:28.067: D/StoryMaker(10018): libavdevice 54. 0.100 / 54. 0.100
02-05 12:28:28.067: D/StoryMaker(10018): libavfilter 2. 77.100 / 2. 77.100
02-05 12:28:28.067: D/StoryMaker(10018): libswscale 2. 1.100 / 2. 1.100
02-05 12:28:28.067: D/StoryMaker(10018): libswresample 0. 15.100 / 0. 15.100
02-05 12:28:28.067: D/StoryMaker(10018): libpostproc 52. 0.100 / 52. 0.100
02-05 12:28:28.083: I/ActivityManager(385): Process com.rhmsoft.fm:crash.feedback (pid 11843) has died.
02-05 12:28:28.130: D/StoryMaker(10018): Input #0, image2, from '/storage/emulated/0/Android/data/org.storymaker.app/files/render/1423157307940/Screenshot_2015-02-04-19-11-39.png':
02-05 12:28:28.130: D/StoryMaker(10018): Duration: 00:00:00.04, start: 0.000000, bitrate: N/A
02-05 12:28:28.130: D/StoryMaker(10018): Stream #0:0: Video: png, rgb24, 720x1280, 25 tbr, 25 tbn, 25 tbc
02-05 12:28:28.138: D/VideoRenderer(10018): Duration: 00:00:00.04, start: 0.000000, bitrate: N/A
02-05 12:28:28.146: D/StoryMaker(10018): [buffer @ 0xbffa80] w:720 h:1280 pixfmt:rgb24 tb:1/25 sar:0/1 sws_param:flags=2
02-05 12:28:28.146: D/StoryMaker(10018): [buffersink @ 0xbffbb0] No opaque field provided
02-05 12:28:28.153: D/PublishFragment(10018): Duration: 00:00:00.04, start: 0.000000, bitrate: N/A
02-05 12:28:28.177: I/ActivityManager(385): Process com.google.android.apps.uploader (pid 11788) has died.
02-05 12:28:28.185: D/StoryMaker(10018): [scale @ 0xbffd40] w:720 h:1280 fmt:rgb24 sar:0/1 -> w:720 h:480 fmt:yuvj420p sar:0/1 flags:0x4
02-05 12:28:28.185: D/StoryMaker(10018): Output #0, image2, to '/storage/emulated/0/Android/data/org.storymaker.app/files/render/1423157307940/image-000.jpg':
02-05 12:28:28.185: D/StoryMaker(10018): Metadata:
02-05 12:28:28.185: D/StoryMaker(10018): encoder : Lavf54.6.100
02-05 12:28:28.185: D/StoryMaker(10018): Stream #0:0: Video: mjpeg, yuvj420p, 720x480, q=2-31, 200 kb/s, 90k tbn, 25 tbc
02-05 12:28:28.185: D/StoryMaker(10018): Stream mapping:
02-05 12:28:28.185: D/StoryMaker(10018): Stream #0:0 -> #0:0 (png -> mjpeg)
02-05 12:28:28.192: D/StoryMaker(10018): Press [q] to stop, [?] for help
02-05 12:28:28.310: I/ActivityManager(385): Process com.google.android.apps.plus (pid 11442) has died.
02-05 12:28:28.560: D/StoryMaker(10018): video:25kB audio:0kB global headers:0kB muxing overhead -100.000000%
02-05 12:28:28.560: D/VideoRenderer(10018): frame= 1 fps=0.0 q=6.8 Lsize= 0kB time=00:00:00.04 bitrate= 0.0kbits/s
02-05 12:28:28.575: D/PublishFragment(10018): frame= 1 fps=0.0 q=6.8 Lsize= 0kB time=00:00:00.04 bitrate= 0.0kbits/s
02-05 12:28:28.575: I/ActivityManager(385): Process com.google.android.gsf.login (pid 11867) has died.
02-05 12:28:28.630: D/FFMPEG(10018): /data/data/org.storymaker.app/app_bin/ffmpeg -y -i /storage/emulated/0/Android/data/org.storymaker.app/files/render/1423157307940/Screenshot_2015-02-04-19-11-39.png -s 720x480 /storage/emulated/0/Android/data/org.storymaker.app/files/render/1423157307940/image-001.jpg
02-05 12:28:28.685: D/StoryMaker(10018): ffmpeg version 0.11.1 Copyright (c) 2000-2012 the FFmpeg developers
02-05 12:28:28.685: D/StoryMaker(10018): built on Nov 15 2013 00:50:10 with gcc 4.6 20120106 (prerelease)
02-05 12:28:28.685: D/StoryMaker(10018): configuration: --arch=arm --cpu=cortex-a8 --target-os=linux --enable-runtime-cpudetect --enable-small --prefix=/data/data/info.guardianproject.ffmpeg/app_opt --enable-pic --disable-shared --enable-static --cross-prefix=/home/n8fr8/dev/android/ndk//toolchains/arm-linux-androideabi-4.6/prebuilt/linux-x86_64/bin/arm-linux-androideabi- --sysroot=/home/n8fr8/dev/android/ndk//platforms/android-3/arch-arm --extra-cflags='-I../x264 -mfloat-abi=softfp -mfpu=neon' --extra-ldflags=-L../x264 --enable-version3 --enable-gpl --disable-doc --enable-yasm --enable-decoders --enable-encoders --enable-muxers --enable-demuxers --enable-parsers --enable-protocols --enable-filters --enable-avresample --enable-libfreetype --disable-indevs --enable-indev=lavfi --disable-outdevs --enable-hwaccels --enable-ffmpeg --disable-ffplay --disable-ffprobe --disable-ffserver --disable-network --enable-libx264 --enable-zlib --enable-muxer=md5
02-05 12:28:28.685: D/StoryMaker(10018): libavutil 51. 54.100 / 51. 54.100
02-05 12:28:28.685: D/StoryMaker(10018): libavcodec 54. 23.100 / 54. 23.100
02-05 12:28:28.685: D/StoryMaker(10018): libavformat 54. 6.100 / 54. 6.100
02-05 12:28:28.685: D/StoryMaker(10018): libavdevice 54. 0.100 / 54. 0.100
02-05 12:28:28.685: D/StoryMaker(10018): libavfilter 2. 77.100 / 2. 77.100
02-05 12:28:28.685: D/StoryMaker(10018): libswscale 2. 1.100 / 2. 1.100
02-05 12:28:28.685: D/StoryMaker(10018): libswresample 0. 15.100 / 0. 15.100
02-05 12:28:28.685: D/StoryMaker(10018): libpostproc 52. 0.100 / 52. 0.100
02-05 12:28:28.731: D/StoryMaker(10018): Input #0, image2, from '/storage/emulated/0/Android/data/org.storymaker.app/files/render/1423157307940/Screenshot_2015-02-04-19-11-39.png':
02-05 12:28:28.731: D/StoryMaker(10018): Duration: 00:00:00.04, start: 0.000000, bitrate: N/A
02-05 12:28:28.731: D/VideoRenderer(10018): Duration: 00:00:00.04, start: 0.000000, bitrate: N/A
02-05 12:28:28.739: D/StoryMaker(10018): Stream #0:0: Video: png, rgb24, 720x1280, 25 tbr, 25 tbn, 25 tbc
02-05 12:28:28.739: D/StoryMaker(10018): [buffer @ 0xbffa80] w:720 h:1280 pixfmt:rgb24 tb:1/25 sar:0/1 sws_param:flags=2
02-05 12:28:28.739: D/StoryMaker(10018): [buffersink @ 0xbffbb0] No opaque field provided
02-05 12:28:28.747: D/PublishFragment(10018): Duration: 00:00:00.04, start: 0.000000, bitrate: N/A
02-05 12:28:28.763: D/StoryMaker(10018): [scale @ 0xbffd40] w:720 h:1280 fmt:rgb24 sar:0/1 -> w:720 h:480 fmt:yuvj420p sar:0/1 flags:0x4
02-05 12:28:28.771: D/StoryMaker(10018): Output #0, image2, to '/storage/emulated/0/Android/data/org.storymaker.app/files/render/1423157307940/image-001.jpg':
02-05 12:28:28.771: D/StoryMaker(10018): Metadata:
02-05 12:28:28.771: D/StoryMaker(10018): encoder : Lavf54.6.100
02-05 12:28:28.771: D/StoryMaker(10018): Stream #0:0: Video: mjpeg, yuvj420p, 720x480, q=2-31, 200 kb/s, 90k tbn, 25 tbc
02-05 12:28:28.771: D/StoryMaker(10018): Stream mapping:
02-05 12:28:28.771: D/StoryMaker(10018): Stream #0:0 -> #0:0 (png -> mjpeg)
02-05 12:28:28.771: D/StoryMaker(10018): Press [q] to stop, [?] for help
02-05 12:28:29.021: D/StoryMaker(10018): video:25kB audio:0kB global headers:0kB muxing overhead -100.000000%
02-05 12:28:29.021: D/VideoRenderer(10018): frame= 1 fps=0.0 q=6.8 Lsize= 0kB time=00:00:00.04 bitrate= 0.0kbits/s
02-05 12:28:29.060: D/PublishFragment(10018): frame= 1 fps=0.0 q=6.8 Lsize= 0kB time=00:00:00.04 bitrate= 0.0kbits/s
02-05 12:28:29.083: D/FFMPEG(10018): /data/data/org.storymaker.app/app_bin/ffmpeg -y -i /storage/emulated/0/Android/data/org.storymaker.app/files/render/1423157307940/Screenshot_2015-02-03-16-58-14_thumbnail.png -s 720x480 /storage/emulated/0/Android/data/org.storymaker.app/files/render/1423157307940/image-002.jpg
02-05 12:28:29.138: D/StoryMaker(10018): ffmpeg version 0.11.1 Copyright (c) 2000-2012 the FFmpeg developers
02-05 12:28:29.138: D/StoryMaker(10018): built on Nov 15 2013 00:50:10 with gcc 4.6 20120106 (prerelease)
02-05 12:28:29.138: D/StoryMaker(10018): configuration: --arch=arm --cpu=cortex-a8 --target-os=linux --enable-runtime-cpudetect --enable-small --prefix=/data/data/info.guardianproject.ffmpeg/app_opt --enable-pic --disable-shared --enable-static --cross-prefix=/home/n8fr8/dev/android/ndk//toolchains/arm-linux-androideabi-4.6/prebuilt/linux-x86_64/bin/arm-linux-androideabi- --sysroot=/home/n8fr8/dev/android/ndk//platforms/android-3/arch-arm --extra-cflags='-I../x264 -mfloat-abi=softfp -mfpu=neon' --extra-ldflags=-L../x264 --enable-version3 --enable-gpl --disable-doc --enable-yasm --enable-decoders --enable-encoders --enable-muxers --enable-demuxers --enable-parsers --enable-protocols --enable-filters --enable-avresample --enable-libfreetype --disable-indevs --enable-indev=lavfi --disable-outdevs --enable-hwaccels --enable-ffmpeg --disable-ffplay --disable-ffprobe --disable-ffserver --disable-network --enable-libx264 --enable-zlib --enable-muxer=md5
02-05 12:28:29.138: D/StoryMaker(10018): libavutil 51. 54.100 / 51. 54.100
02-05 12:28:29.138: D/StoryMaker(10018): libavcodec 54. 23.100 / 54. 23.100
02-05 12:28:29.138: D/StoryMaker(10018): libavformat 54. 6.100 / 54. 6.100
02-05 12:28:29.138: D/StoryMaker(10018): libavdevice 54. 0.100 / 54. 0.100
02-05 12:28:29.138: D/StoryMaker(10018): libavfilter 2. 77.100 / 2. 77.100
02-05 12:28:29.138: D/StoryMaker(10018): libswscale 2. 1.100 / 2. 1.100
02-05 12:28:29.138: D/StoryMaker(10018): libswresample 0. 15.100 / 0. 15.100
02-05 12:28:29.138: D/StoryMaker(10018): libpostproc 52. 0.100 / 52. 0.100
02-05 12:28:29.153: D/StoryMaker(10018): Input #0, image2, from '/storage/emulated/0/Android/data/org.storymaker.app/files/render/1423157307940/Screenshot_2015-02-03-16-58-14_thumbnail.png':
02-05 12:28:29.161: D/StoryMaker(10018): Duration: 00:00:00.04, start: 0.000000, bitrate: N/A
02-05 12:28:29.161: D/VideoRenderer(10018): Duration: 00:00:00.04, start: 0.000000, bitrate: N/A
02-05 12:28:29.161: D/StoryMaker(10018): Stream #0:0: Video: png, rgb24, 400x300, 25 tbr, 25 tbn, 25 tbc
02-05 12:28:29.169: D/PublishFragment(10018): Duration: 00:00:00.04, start: 0.000000, bitrate: N/A
02-05 12:28:29.169: D/StoryMaker(10018): [buffer @ 0xbffa80] w:400 h:300 pixfmt:rgb24 tb:1/25 sar:0/1 sws_param:flags=2
02-05 12:28:29.169: D/StoryMaker(10018): [buffersink @ 0xbffbb0] No opaque field provided
02-05 12:28:29.208: D/StoryMaker(10018): [scale @ 0xbffd40] w:400 h:300 fmt:rgb24 sar:0/1 -> w:720 h:480 fmt:yuvj420p sar:0/1 flags:0x4
02-05 12:28:29.208: D/StoryMaker(10018): Output #0, image2, to '/storage/emulated/0/Android/data/org.storymaker.app/files/render/1423157307940/image-002.jpg':
02-05 12:28:29.208: D/StoryMaker(10018): Metadata:
02-05 12:28:29.216: D/StoryMaker(10018): encoder : Lavf54.6.100
02-05 12:28:29.216: D/StoryMaker(10018): Stream #0:0: Video: mjpeg, yuvj420p, 720x480, q=2-31, 200 kb/s, 90k tbn, 25 tbc
02-05 12:28:29.216: D/StoryMaker(10018): Stream mapping:
02-05 12:28:29.216: D/StoryMaker(10018): Stream #0:0 -> #0:0 (png -> mjpeg)
02-05 12:28:29.216: D/StoryMaker(10018): Press [q] to stop, [?] for help
02-05 12:28:29.349: D/VideoRenderer(10018): frame= 1 fps=0.0 q=5.7 Lsize= 0kB time=00:00:00.04 bitrate= 0.0kbits/s
02-05 12:28:29.356: D/StoryMaker(10018): video:18kB audio:0kB global headers:0kB muxing overhead -100.000000%
02-05 12:28:29.388: D/PublishFragment(10018): frame= 1 fps=0.0 q=5.7 Lsize= 0kB time=00:00:00.04 bitrate= 0.0kbits/s
02-05 12:28:29.403: D/FFMPEG(10018): /data/data/org.storymaker.app/app_bin/ffmpeg -y -loop 0 -f image2 -r 1/10 -i /storage/emulated/0/Android/data/org.storymaker.app/files/render/1423157307940/image-%03d.jpg -strict -2 /storage/emulated/0/Android/data/org.storymaker.app/files/render/1423157307940/tmp.mpg
02-05 12:28:29.450: D/StoryMaker(10018): ffmpeg version 0.11.1 Copyright (c) 2000-2012 the FFmpeg developers
02-05 12:28:29.450: D/StoryMaker(10018): built on Nov 15 2013 00:50:10 with gcc 4.6 20120106 (prerelease)
02-05 12:28:29.450: D/StoryMaker(10018): configuration: --arch=arm --cpu=cortex-a8 --target-os=linux --enable-runtime-cpudetect --enable-small --prefix=/data/data/info.guardianproject.ffmpeg/app_opt --enable-pic --disable-shared --enable-static --cross-prefix=/home/n8fr8/dev/android/ndk//toolchains/arm-linux-androideabi-4.6/prebuilt/linux-x86_64/bin/arm-linux-androideabi- --sysroot=/home/n8fr8/dev/android/ndk//platforms/android-3/arch-arm --extra-cflags='-I../x264 -mfloat-abi=softfp -mfpu=neon' --extra-ldflags=-L../x264 --enable-version3 --enable-gpl --disable-doc --enable-yasm --enable-decoders --enable-encoders --enable-muxers --enable-demuxers --enable-parsers --enable-protocols --enable-filters --enable-avresample --enable-libfreetype --disable-indevs --enable-indev=lavfi --disable-outdevs --enable-hwaccels --enable-ffmpeg --disable-ffplay --disable-ffprobe --disable-ffserver --disable-network --enable-libx264 --enable-zlib --enable-muxer=md5
02-05 12:28:29.450: D/StoryMaker(10018): libavutil 51. 54.100 / 51. 54.100
02-05 12:28:29.450: D/StoryMaker(10018): libavcodec 54. 23.100 / 54. 23.100
02-05 12:28:29.450: D/StoryMaker(10018): libavformat 54. 6.100 / 54. 6.100
02-05 12:28:29.450: D/StoryMaker(10018): libavdevice 54. 0.100 / 54. 0.100
02-05 12:28:29.450: D/StoryMaker(10018): libavfilter 2. 77.100 / 2. 77.100
02-05 12:28:29.450: D/StoryMaker(10018): libswscale 2. 1.100 / 2. 1.100
02-05 12:28:29.458: D/StoryMaker(10018): libswresample 0. 15.100 / 0. 15.100
02-05 12:28:29.458: D/StoryMaker(10018): libpostproc 52. 0.100 / 52. 0.100
02-05 12:28:29.474: D/StoryMaker(10018): Input #0, image2, from '/storage/emulated/0/Android/data/org.storymaker.app/files/render/1423157307940/image-%03d.jpg':
02-05 12:28:29.474: D/StoryMaker(10018): Duration: 00:00:30.00, start: 0.000000, bitrate: N/A
02-05 12:28:29.474: D/StoryMaker(10018): Stream #0:0: Video: mjpeg, yuvj420p, 720x480, 0.10 fps, 0.50 tbr, 0.10 tbn, 0.10 tbc
02-05 12:28:29.474: D/VideoRenderer(10018): Duration: 00:00:30.00, start: 0.000000, bitrate: N/A
02-05 12:28:29.474: D/StoryMaker(10018): [buffer @ 0xc12bf0] w:720 h:480 pixfmt:yuvj420p tb:10/1 sar:0/1 sws_param:flags=2
02-05 12:28:29.474: D/StoryMaker(10018): [buffersink @ 0xbfc420] No opaque field provided
02-05 12:28:29.474: D/StoryMaker(10018): [format @ 0xc06870] auto-inserting filter 'auto-inserted scaler 0' between the filter 'src' and the filter 'format'
02-05 12:28:29.481: D/StoryMaker(10018): [scale @ 0xc07a10] w:720 h:480 fmt:yuvj420p sar:0/1 -> w:720 h:480 fmt:yuv420p sar:0/1 flags:0x4
02-05 12:28:29.481: D/PublishFragment(10018): Duration: 00:00:30.00, start: 0.000000, bitrate: N/A
02-05 12:28:29.489: D/StoryMaker(10018): [mpeg @ 0xc05c90] VBV buffer size not set, muxing may fail
02-05 12:28:29.489: D/StoryMaker(10018): Output #0, mpeg, to '/storage/emulated/0/Android/data/org.storymaker.app/files/render/1423157307940/tmp.mpg':
02-05 12:28:29.489: D/StoryMaker(10018): Metadata:
02-05 12:28:29.489: D/StoryMaker(10018): encoder : Lavf54.6.100
02-05 12:28:29.497: D/StoryMaker(10018): Stream #0:0: Video: mpeg1video, yuv420p, 720x480, q=2-31, 200 kb/s, 90k tbn, 5 tbc
02-05 12:28:29.497: D/StoryMaker(10018): Stream mapping:
02-05 12:28:29.497: D/StoryMaker(10018): Stream #0:0 -> #0:0 (mjpeg -> mpeg1video)
02-05 12:28:29.497: D/StoryMaker(10018): Press [q] to stop, [?] for help
02-05 12:28:29.669: I/WindowState(385): WIN DEATH: Window{41b74f88 u0 com.google.android.gm/com.google.android.gm.GmailActivity}
02-05 12:28:29.677: I/ActivityManager(385): Process com.google.android.gm (pid 6986) has died.
02-05 12:28:30.497: I/ActivityManager(385): START u0 {act=android.settings.WIFI_SETTINGS flg=0x14000000 cmp=com.android.settings/.Settings$WifiSettingsActivity} from pid 471
02-05 12:28:30.614: D/dalvikvm(385): GC_FOR_ALLOC freed 1125K, 25% free 19923K/26340K, paused 76ms, total 81ms
02-05 12:28:31.021: D/dalvikvm(11536): GC_CONCURRENT freed 175K, 3% free 9611K/9836K, paused 5ms+16ms, total 47ms
02-05 12:28:31.224: I/ActivityManager(385): Displayed com.android.settings/.Settings$WifiSettingsActivity: +583ms
02-05 12:28:31.349: D/dalvikvm(11536): GC_CONCURRENT freed 97K, 2% free 9951K/10076K, paused 7ms+7ms, total 51ms
02-05 12:28:31.575: D/StoryMaker(10018): video:337kB audio:0kB global headers:0kB muxing overhead 0.763482%
02-05 12:28:31.575: D/VideoRenderer(10018): frame= 100 fps=0.0 q=1.6 size= 336kB time=00:00:19.60 bitrate= 140.4kbits/s dup=97 drop=0
02-05 12:28:31.575: D/VideoRenderer(10018): frame= 100 fps= 48 q=2.0 Lsize= 340kB time=00:00:19.80 bitrate= 140.7kbits/s dup=97 drop=0
02-05 12:28:31.630: D/FFMPEG(10018): /data/data/org.storymaker.app/app_bin/ffmpeg -y -i /storage/emulated/0/Android/data/org.storymaker.app/files/render/1423157307940/tmp.mpg -strict -2 -vcodec mpeg4 -b:v 1500k /storage/emulated/0/Movies/Issue+Highlights05022015122827.mp4
02-05 12:28:31.692: D/StoryMaker(10018): ffmpeg version 0.11.1 Copyright (c) 2000-2012 the FFmpeg developers
02-05 12:28:31.692: D/StoryMaker(10018): built on Nov 15 2013 00:50:10 with gcc 4.6 20120106 (prerelease)
02-05 12:28:31.692: D/StoryMaker(10018): configuration: --arch=arm --cpu=cortex-a8 --target-os=linux --enable-runtime-cpudetect --enable-small --prefix=/data/data/info.guardianproject.ffmpeg/app_opt --enable-pic --disable-shared --enable-static --cross-prefix=/home/n8fr8/dev/android/ndk//toolchains/arm-linux-androideabi-4.6/prebuilt/linux-x86_64/bin/arm-linux-androideabi- --sysroot=/home/n8fr8/dev/android/ndk//platforms/android-3/arch-arm --extra-cflags='-I../x264 -mfloat-abi=softfp -mfpu=neon' --extra-ldflags=-L../x264 --enable-version3 --enable-gpl --disable-doc --enable-yasm --enable-decoders --enable-encoders --enable-muxers --enable-demuxers --enable-parsers --enable-protocols --enable-filters --enable-avresample --enable-libfreetype --disable-indevs --enable-indev=lavfi --disable-outdevs --enable-hwaccels --enable-ffmpeg --disable-ffplay --disable-ffprobe --disable-ffserver --disable-network --enable-libx264 --enable-zlib --enable-muxer=md5
02-05 12:28:31.692: D/StoryMaker(10018): libavutil 51. 54.100 / 51. 54.100
02-05 12:28:31.692: D/StoryMaker(10018): libavcodec 54. 23.100 / 54. 23.100
02-05 12:28:31.692: D/StoryMaker(10018): libavformat 54. 6.100 / 54. 6.100
02-05 12:28:31.692: D/StoryMaker(10018): libavdevice 54. 0.100 / 54. 0.100
02-05 12:28:31.692: D/StoryMaker(10018): libavfilter 2. 77.100 / 2. 77.100
02-05 12:28:31.692: D/StoryMaker(10018): libswscale 2. 1.100 / 2. 1.100
02-05 12:28:31.692: D/StoryMaker(10018): libswresample 0. 15.100 / 0. 15.100
02-05 12:28:31.692: D/StoryMaker(10018): libpostproc 52. 0.100 / 52. 0.100
02-05 12:28:31.763: D/StoryMaker(10018): [mpeg @ 0xbfc3b0] max_analyze_duration 5000000 reached at 5000000
02-05 12:28:31.763: D/StoryMaker(10018): Input #0, mpeg, from '/storage/emulated/0/Android/data/org.storymaker.app/files/render/1423157307940/tmp.mpg':
02-05 12:28:31.771: D/StoryMaker(10018): Duration: 00:00:19.80, start: 1.000000, bitrate: 140 kb/s
02-05 12:28:31.771: D/VideoRenderer(10018): Duration: 00:00:19.80, start: 1.000000, bitrate: 140 kb/s
02-05 12:28:31.771: D/StoryMaker(10018): Stream #0:0[0x1e0]: Video: mpeg1video, yuv420p, 720x480 [SAR 1:1 DAR 3:2], 104857 kb/s, 5 fps, 5 tbr, 90k tbn, 5 tbc
02-05 12:28:31.786: D/StoryMaker(10018): [buffer @ 0xc0b390] w:720 h:480 pixfmt:yuv420p tb:1/90000 sar:1/1 sws_param:flags=2
02-05 12:28:31.786: D/StoryMaker(10018): [buffersink @ 0xc0b560] No opaque field provided
02-05 12:28:31.802: D/StoryMaker(10018): Output #0, mp4, to '/storage/emulated/0/Movies/Issue+Highlights05022015122827.mp4':
02-05 12:28:31.802: D/StoryMaker(10018): Metadata:
02-05 12:28:31.802: D/StoryMaker(10018): encoder : Lavf54.6.100
02-05 12:28:31.802: D/StoryMaker(10018): Stream #0:0: Video: mpeg4 ( [0][0][0] / 0x0020), yuv420p, 720x480 [SAR 1:1 DAR 3:2], q=2-31, 1500 kb/s, 5 tbn, 5 tbc
02-05 12:28:31.802: D/StoryMaker(10018): Stream mapping:
02-05 12:28:31.802: D/StoryMaker(10018): Stream #0:0 -> #0:0 (mpeg1video -> mpeg4)
02-05 12:28:31.802: D/StoryMaker(10018): Press [q] to stop, [?] for help
02-05 12:28:31.997: D/webviewglue(10018): OnTrimMemory with EGL Context 0x5c54fab0
02-05 12:28:32.310: D/WifiService(385): setWifiEnabled: false pid=11536, uid=1000
02-05 12:28:32.317: D/WifiHW(385): close sockets 1
02-05 12:28:33.036: I/Choreographer(11536): Skipped 42 frames! The application may be doing too much work on its main thread.
02-05 12:28:33.067: D/VideoRenderer(10018): frame= 21 fps=0.0 q=2.0 size= 72kB time=00:00:04.20 bitrate= 140.5kbits/s
02-05 12:28:33.294: D/CommandListener(123): Clearing all IP addresses on wlan0
02-05 12:28:33.302: D/dalvikvm(11536): GC_CONCURRENT freed 308K, 4% free 10055K/10384K, paused 1ms+89ms, total 122ms
02-05 12:28:33.310: D/ConnectivityService(385): ConnectivityChange for WIFI: DISCONNECTED/DISCONNECTED
02-05 12:28:33.317: D/ConnectivityService(385): Attempting to switch to mobile
02-05 12:28:33.317: D/ConnectivityService(385): Attempting to switch to BLUETOOTH_TETHER
02-05 12:28:33.317: D/ConnectivityService(385): Attempting to switch to ETHERNET
02-05 12:28:33.325: D/NetUtils(385): android_net_utils_resetConnections in env=0x5deb1a50 clazz=0x90e00001 iface=wlan0 mask=0x3
02-05 12:28:33.325: D/ConnectivityService(385): resetConnections(wlan0, 3)
02-05 12:28:33.333: I/ActivityManager(385): Start proc com.vzw.hss.myverizonged for broadcast com.vzw.hss.myverizonged/com.vzw.hss.datameter.receiver.WifiStateReceiver: pid=11989 uid=10043 gids={50043, 3003, 1028}
02-05 12:28:33.341: I/wpa_supplicant(11707): p2p0: CTRL-EVENT-TERMINATING
02-05 12:28:33.341: I/wpa_supplicant(11707): CTRL_IFACE monitor[0]: 2 - No such file or directory
02-05 12:28:33.349: W/Smack/Packet(742): notify conn break (IOEx), close connection
02-05 12:28:33.356: I/wpa_supplicant(11707): wlan0: CTRL-EVENT-DISCONNECTED bssid=e0:91:f5:b5:6e:30 reason=3 locally_generated=1
02-05 12:28:33.364: W/SystemClock(385): time going backwards: prev 62834056823734(ioctl) vs now 62834056549076(ioctl), tid=445
02-05 12:28:33.364: I/dalvikvm(11989): Turning on JNI app bug workarounds for target SDK version 4...
02-05 12:28:33.497: D/BluetoothAdapter(11536): 1098836656: getState() : mService = null. Returning STATE_OFF
02-05 12:28:33.544: I/qtaguid(742): Failed write_ctrl(u 48) res=-1 errno=22
02-05 12:28:33.552: I/qtaguid(742): Untagging socket 48 failed errno=-22
02-05 12:28:33.552: W/NetworkManagementSocketTagger(742): untagSocket(48) failed with errno -22
02-05 12:28:33.560: D/ConnectivityService(385): handleInetConditionChange: no active default network - ignore
02-05 12:28:33.567: D/VideoRenderer(10018): frame= 44 fps= 36 q=2.0 size= 153kB time=00:00:08.80 bitrate= 142.7kbits/s
02-05 12:28:33.942: I/wpa_supplicant(11707): wlan0: CTRL-EVENT-TERMINATING
02-05 12:28:33.942: D/Tethering(385): InitialState.processMessage what=4
02-05 12:28:33.942: D/Tethering(385): sendTetherStateChangedBroadcast 0, 0, 0
02-05 12:28:34.161: D/VideoRenderer(10018): frame= 60 fps= 34 q=2.0 size= 220kB time=00:00:12.00 bitrate= 150.0kbits/s
02-05 12:28:34.372: D/BluetoothAdapter(11536): 1098836656: getState() : mService = null. Returning STATE_OFF
02-05 12:28:34.763: D/VideoRenderer(10018): frame= 67 fps= 29 q=2.0 size= 246kB time=00:00:13.40 bitrate= 150.4kbits/s
02-05 12:28:35.208: D/StoryMaker(10018): video:327kB audio:0kB global headers:0kB muxing overhead 0.372876%
02-05 12:28:35.208: D/VideoRenderer(10018): frame= 77 fps= 26 q=2.0 size= 273kB time=00:00:15.40 bitrate= 145.2kbits/s
02-05 12:28:35.216: D/VideoRenderer(10018): frame= 100 fps= 29 q=2.0 Lsize= 328kB time=00:00:20.00 bitrate= 134.5kbits/s
02-05 12:28:35.224: D/JobBase(10018): onSuccess: /storage/emulated/0/Movies/Issue+Highlights05022015122827.mp4
02-05 12:28:35.411: D/RenderService(10018): jobSucceeded: org.storymaker.app.model.Job@420186b0, with code: /storage/emulated/0/Movies/Issue+Highlights05022015122827.mp4
02-05 12:28:35.411: D/PublishController(10018): jobSucceeded: org.storymaker.app.model.Job@420186b0, with code: /storage/emulated/0/Movies/Issue+Highlights05022015122827.mp4
02-05 12:28:35.419: D/PublisherBase(10018): jobSucceeded: org.storymaker.app.model.Job@420186b0
02-05 12:28:35.974: D/WifiService(385): setWifiEnabled: true pid=11536, uid=1000
02-05 12:28:35.981: D/SoftapController(123): Softap fwReload - Ok
02-05 12:28:35.989: D/CommandListener(123): Setting iface cfg
02-05 12:28:35.989: D/CommandListener(123): Trying to bring down wlan0
02-05 12:28:35.997: E/WifiHW(385): Unable to open connection to supplicant on "wlan0": No such file or directory
02-05 12:28:35.997: D/BluetoothAdapter(11536): 1098836656: getState() : mService = null. Returning STATE_OFF
02-05 12:28:36.060: I/wpa_supplicant(12008): Successfully initialized wpa_supplicant
02-05 12:28:36.231: I/wpa_supplicant(12008): rfkill: Cannot open RFKILL control device
02-05 12:28:36.372: D/Tethering(385): MasterInitialState.processMessage what=3
02-05 12:28:36.396: I/ActivityManager(385): Start proc com.google.android.music:main for broadcast com.google.android.music/.homewidgets.IFLWidgetProvider: pid=12010 uid=10041 gids={50041, 3003, 1015, 1028}
02-05 12:28:36.435: D/dalvikvm(127): GC_EXPLICIT freed 40K, 1% free 8629K/8700K, paused 3ms+4ms, total 35ms
02-05 12:28:36.458: D/dalvikvm(127): GC_EXPLICIT freed <1K, 1% free 8629K/8700K, paused 2ms+4ms, total 27ms
02-05 12:28:36.489: D/dalvikvm(127): GC_EXPLICIT freed <1K, 1% free 8629K/8700K, paused 2ms+3ms, total 26ms
02-05 12:28:36.606: I/MusicStore(12010): Database version: 104
02-05 12:28:36.685: D/dalvikvm(12010): GC_CONCURRENT freed 223K, 3% free 8857K/9116K, paused 7ms+4ms, total 44ms
02-05 12:28:36.700: I/dalvikvm(12010): Could not find method android.app.ActivityManager.isLowRamDevice, referenced from method com.google.android.music.utils.SystemUtils.isLowMemory
02-05 12:28:36.700: W/dalvikvm(12010): VFY: unable to resolve virtual method 309: Landroid/app/ActivityManager;.isLowRamDevice ()Z
02-05 12:28:36.700: D/dalvikvm(12010): VFY: replacing opcode 0x6e at 0x000e
02-05 12:28:36.763: D/dalvikvm(12010): Trying to load lib /data/app-lib/com.google.android.gms-2/libgmscore.so 0x4172c458
02-05 12:28:36.778: D/dalvikvm(12010): Added shared lib /data/app-lib/com.google.android.gms-2/libgmscore.so 0x4172c458
02-05 12:28:36.778: D/dalvikvm(12010): No JNI_OnLoad found in /data/app-lib/com.google.android.gms-2/libgmscore.so 0x4172c458, skipping init
02-05 12:28:36.786: E/dalvikvm(12010): Could not find class 'android.app.AppOpsManager', referenced from method com.google.android.gms.common.util.e.a
02-05 12:28:36.786: W/dalvikvm(12010): VFY: unable to resolve check-cast 35 (Landroid/app/AppOpsManager;) in Lcom/google/android/gms/common/util/e;
02-05 12:28:36.786: D/dalvikvm(12010): VFY: replacing opcode 0x1f at 0x0010
02-05 12:28:36.794: D/dalvikvm(12010): Trying to load lib /data/app-lib/com.google.android.gms-2/libconscrypt_gmscore_jni.so 0x4172c458
02-05 12:28:36.794: D/dalvikvm(12010): Added shared lib /data/app-lib/com.google.android.gms-2/libconscrypt_gmscore_jni.so 0x4172c458
02-05 12:28:36.794: V/JNIHelp(12010): Registering com/google/android/gms/org/conscrypt/NativeCrypto's 235 native methods...
02-05 12:28:36.856: D/dalvikvm(12010): GC_CONCURRENT freed 210K, 3% free 9097K/9340K, paused 6ms+9ms, total 39ms
02-05 12:28:36.872: D/dalvikvm(12010): Trying to load lib /data/app-lib/com.google.android.gms-2/libgmscore.so 0x4172c458
02-05 12:28:36.872: D/dalvikvm(12010): Shared lib '/data/app-lib/com.google.android.gms-2/libgmscore.so' already loaded in same CL 0x4172c458
02-05 12:28:36.872: D/dalvikvm(12010): Trying to load lib /data/app-lib/com.google.android.gms-2/libconscrypt_gmscore_jni.so 0x4172c458
02-05 12:28:36.872: D/dalvikvm(12010): Shared lib '/data/app-lib/com.google.android.gms-2/libconscrypt_gmscore_jni.so' already loaded in same CL 0x4172c458
02-05 12:28:36.896: I/ProviderInstaller(12010): Installed default security provider GmsCore_OpenSSL
02-05 12:28:36.896: D/AndroidMusic(12010): GMSCore installation verified
02-05 12:28:36.903: I/ConfigStore(12010): Config Database version: 1
02-05 12:28:36.981: I/dalvikvm(12010): Could not find method android.content.Context.getExternalFilesDirs, referenced from method com.google.android.music.download.cache.CacheLocationManager.deviceHasExternalStorage
02-05 12:28:36.981: W/dalvikvm(12010): VFY: unable to resolve virtual method 633: Landroid/content/Context;.getExternalFilesDirs (Ljava/lang/String;)[Ljava/io/File;
02-05 12:28:36.981: D/dalvikvm(12010): VFY: replacing opcode 0x6e at 0x008f
02-05 12:28:36.997: I/dalvikvm(12010): Could not find method android.content.Context.getExternalFilesDirs, referenced from method com.google.android.music.download.cache.StorageProbeUtils.getLocationsWithKitKatApis
02-05 12:28:36.997: W/dalvikvm(12010): VFY: unable to resolve virtual method 633: Landroid/content/Context;.getExternalFilesDirs (Ljava/lang/String;)[Ljava/io/File;
02-05 12:28:36.997: D/dalvikvm(12010): VFY: replacing opcode 0x6e at 0x0015
02-05 12:28:37.036: D/dalvikvm(12010): GC_CONCURRENT freed 307K, 4% free 9270K/9608K, paused 3ms+3ms, total 22ms
02-05 12:28:37.099: D/Tethering(385): sendTetherStateChangedBroadcast 1, 0, 0
02-05 12:28:37.099: I/MediaRouter(12010): Found default route: MediaRouter.RouteInfo{ uniqueId=android/.support.v7.media.SystemMediaRouteProvider:DEFAULT_ROUTE, name=Phone, description=null, enabled=true, connecting=false, playbackType=0, playbackStream=3, volumeHandling=1, volume=11, volumeMax=15, presentationDisplayId=-1, extras=null, providerPackageName=android }
02-05 12:28:37.146: I/ActivityManager(385): Start proc com.google.android.gallery3d for broadcast com.google.android.gallery3d/com.google.android.picasasync.ConnectivityReceiver: pid=12032 uid=10021 gids={50021, 1006, 3003, 1015, 1028}
02-05 12:28:37.161: I/wpa_supplicant(12008): rfkill: Cannot open RFKILL control device
02-05 12:28:37.185: I/NetworkMonitor(12010): type=WIFI subType= reason=null isConnected=false
02-05 12:28:37.192: I/ActivityManager(385): START u0 {act=android.intent.action.MAIN cat=[android.intent.category.HOME] flg=0x10200000 cmp=com.android.launcher/com.android.launcher2.Launcher} from pid 385
02-05 12:28:37.388: D/CommandListener(123): Setting iface cfg
02-05 12:28:37.388: D/CommandListener(123): Trying to bring up p2p0
02-05 12:28:37.458: D/dalvikvm(12032): GC_CONCURRENT freed 411K, 5% free 8721K/9160K, paused 16ms+2ms, total 96ms
02-05 12:28:37.489: I/ActivityManager(385): Process com.google.android.talk (pid 11885) has died.
02-05 12:28:37.552: D/dalvikvm(12032): GC_CONCURRENT freed 494K, 6% free 8739K/9260K, paused 2ms+2ms, total 26ms
02-05 12:28:37.552: D/dalvikvm(12032): WAIT_FOR_CONCURRENT_GC blocked 3ms
02-05 12:28:37.552: D/dalvikvm(12032): WAIT_FOR_CONCURRENT_GC blocked 6ms
02-05 12:28:37.583: D/webviewglue(10018): OnTrimMemory with EGL Context 0x0
02-05 12:28:37.583: E/libEGL(10018): call to OpenGL ES API with no current context (logged once per thread)
02-05 12:28:37.700: D/dalvikvm(12032): GC_FOR_ALLOC freed 156K, 6% free 8811K/9276K, paused 29ms, total 30ms
02-05 12:28:37.747: I/ActivityManager(385): Start proc com.google.android.apps.uploader for broadcast com.google.android.apps.uploader/com.google.android.picasasync.ConnectivityReceiver: pid=12053 uid=10039 gids={50039, 3003, 1015, 1028}
02-05 12:28:37.880: D/dalvikvm(12053): GC_CONCURRENT freed 386K, 5% free 8687K/9084K, paused 6ms+5ms, total 37ms
02-05 12:28:37.880: D/GCM(742): GcmService start Intent { act=android.net.conn.CONNECTIVITY_CHANGE flg=0x8000010 cmp=com.google.android.gms/.gcm.GcmService (has extras) } android.net.conn.CONNECTIVITY_CHANGE
02-05 12:28:37.911: I/iu.Environment(927): update connectivity state; isNetworkMetered? false, isRoaming? false, isBackgroundDataAllowed? false*
02-05 12:28:37.911: D/UploadsManager(12032): wifiOnlyPhoto changed to true
02-05 12:28:37.911: D/UploadsManager(12032): wifiOnlyVideo changed to true
02-05 12:28:37.911: D/UploadsManager(12032): syncOnBattery changed to true
02-05 12:28:37.919: I/iu.UploadsManager(927): num queued entries: 0
02-05 12:28:37.927: D/PicasaSync(12032): sync account database
02-05 12:28:37.935: I/ActivityManager(385): Start proc com.google.android.apps.magazines for broadcast com.google.android.apps.magazines/com.google.apps.dots.android.newsstand.appwidget.NewsWidgetProvider: pid=12068 uid=10037 gids={50037, 3003, 1015, 1028}
02-05 12:28:37.942: I/iu.UploadsManager(927): num updated entries: 0
02-05 12:28:37.950: I/iu.SyncManager(927): NEXT; no task
02-05 12:28:38.013: D/PicasaUploader(12053): wifiOnlyPhoto changed to true
02-05 12:28:38.013: D/PicasaUploader(12053): wifiOnlyVideo changed to true
02-05 12:28:38.013: D/PicasaUploader(12053): syncOnBattery changed to true
02-05 12:28:38.013: D/PicasaUploaderSync(12053): sync account database
02-05 12:28:38.028: D/PicasaSync(12032): accounts in DB=2
02-05 12:28:38.036: D/PicasaSyncManager(12032): background data: true
02-05 12:28:38.060: I/wpa_supplicant(12008): wlan0: Trying to associate with e0:91:f5:b5:6e:30 (SSID='zeit kargiet wen' freq=2422 MHz)
02-05 12:28:38.099: I/dalvikvm(12068): Could not find method android.webkit.WebView.setWebContentsDebuggingEnabled, referenced from method com.google.apps.dots.android.newsstand.NSDepend.setupInternal
02-05 12:28:38.106: W/dalvikvm(12068): VFY: unable to resolve static method 7743: Landroid/webkit/WebView;.setWebContentsDebuggingEnabled (Z)V
02-05 12:28:38.106: D/dalvikvm(12068): VFY: replacing opcode 0x71 at 0x00c8
02-05 12:28:38.130: I/dalvikvm(12068): Could not find method android.accounts.AccountManager.getPreviousName, referenced from method com.google.apps.dots.android.newsstand.auth.AccountManagerDelegate.getPreviousName
02-05 12:28:38.130: W/dalvikvm(12068): VFY: unable to resolve virtual method 7: Landroid/accounts/AccountManager;.getPreviousName (Landroid/accounts/Account;)Ljava/lang/String;
02-05 12:28:38.130: D/dalvikvm(12068): VFY: replacing opcode 0x6e at 0x0002
02-05 12:28:38.130: D/PicasaUploaderSync(12053): accounts in DB=2
02-05 12:28:38.130: D/PicasaUploaderSyncManager(12053): background data: true
02-05 12:28:38.169: D/dalvikvm(664): GC_CONCURRENT freed 637K, 7% free 10776K/11476K, paused 7ms+13ms, total 216ms
02-05 12:28:38.169: D/PicasaUploaderSyncManager(12053): battery info: true
02-05 12:28:38.216: D/PicasaSyncManager(12032): reject PrefetchAlbumCover (**************************) because auto sync is off
02-05 12:28:38.224: D/PicasaSyncManager(12032): reject PrefetchScreenNail (**************************) because auto sync is off
02-05 12:28:38.231: D/dalvikvm(12068): GC_CONCURRENT freed 292K, 4% free 8784K/9088K, paused 4ms+3ms, total 31ms
02-05 12:28:38.231: D/PicasaSyncManager(12032): battery info: true
02-05 12:28:38.247: I/dalvikvm(12068): Could not find method android.graphics.Bitmap.getAllocationByteCount, referenced from method com.google.apps.dots.android.newsstand.bitmap.CachingBitmapPool.isGoodForMutableBitmapRequest
02-05 12:28:38.247: W/dalvikvm(12068): VFY: unable to resolve virtual method 570: Landroid/graphics/Bitmap;.getAllocationByteCount ()I
02-05 12:28:38.247: D/dalvikvm(12068): VFY: replacing opcode 0x6e at 0x0018
02-05 12:28:38.247: I/dalvikvm(12068): Could not find method android.graphics.Bitmap.reconfigure, referenced from method com.google.apps.dots.android.newsstand.bitmap.CachingBitmapPool.reconfigureBitmap
02-05 12:28:38.247: W/dalvikvm(12068): VFY: unable to resolve virtual method 577: Landroid/graphics/Bitmap;.reconfigure (IILandroid/graphics/Bitmap$Config;)V
02-05 12:28:38.247: D/dalvikvm(12068): VFY: replacing opcode 0x6e at 0x0008
02-05 12:28:38.278: D/PicasaSyncManager(12032): reject PrefetchAlbumCover (**************************) because auto sync is off
02-05 12:28:38.286: D/PicasaSyncManager(12032): reject PrefetchScreenNail (**************************) because auto sync is off
02-05 12:28:38.310: I/wpa_supplicant(12008): wlan0: Associated with e0:91:f5:b5:6e:30
02-05 12:28:38.310: I/NSApplication(12068): Starting up...
02-05 12:28:38.356: I/wpa_supplicant(12008): wlan0: WPA: Key negotiation completed with e0:91:f5:b5:6e:30 [PTK=CCMP GTK=CCMP]
02-05 12:28:38.356: I/wpa_supplicant(12008): wlan0: CTRL-EVENT-CONNECTED - Connection to e0:91:f5:b5:6e:30 completed (auth) [id=1 id_str=]
02-05 12:28:38.356: D/dalvikvm(12068): GC_CONCURRENT freed 259K, 4% free 8976K/9264K, paused 4ms+7ms, total 35ms
02-05 12:28:38.388: I/ActivityManager(385): Start proc com.google.android.apps.plus for broadcast com.google.android.apps.plus/.service.ConnectivityReceiver: pid=12107 uid=10049 gids={50049, 3003, 3002, 1015, 1006, 1028}
02-05 12:28:38.521: I/ActivityManager(385): START u0 {act=android.intent.action.MAIN cat=[android.intent.category.LAUNCHER] flg=0x10200000 cmp=org.storymaker.app/.HomeActivity bnds=[520,185][680,385]} from pid 603
02-05 12:28:38.661: D/dalvikvm(385): GC_FOR_ALLOC freed 1835K, 25% free 19955K/26340K, paused 85ms, total 85ms
02-05 12:28:38.716: W/InputMethodManagerService(385): Starting input on non-focused client com.android.internal.view.IInputMethodClient$Stub$Proxy@41e2f718 (uid=10071 pid=10018)
02-05 12:28:38.731: W/InputMethodManagerService(385): Starting input on non-focused client com.android.internal.view.IInputMethodClient$Stub$Proxy@41e2f718 (uid=10071 pid=10018)
02-05 12:28:38.771: D/dalvikvm(12068): Trying to load lib /data/app-lib/com.google.android.gms-2/libgmscore.so 0x41773a10
02-05 12:28:38.778: D/dalvikvm(12068): Added shared lib /data/app-lib/com.google.android.gms-2/libgmscore.so 0x41773a10
02-05 12:28:38.778: D/dalvikvm(12068): No JNI_OnLoad found in /data/app-lib/com.google.android.gms-2/libgmscore.so 0x41773a10, skipping init
02-05 12:28:38.786: E/dalvikvm(12068): Could not find class 'android.app.AppOpsManager', referenced from method com.google.android.gms.common.util.e.a
02-05 12:28:38.786: W/dalvikvm(12068): VFY: unable to resolve check-cast 35 (Landroid/app/AppOpsManager;) in Lcom/google/android/gms/common/util/e;
02-05 12:28:38.786: D/dalvikvm(12068): VFY: replacing opcode 0x1f at 0x0010
02-05 12:28:38.794: D/dalvikvm(12068): Trying to load lib /data/app-lib/com.google.android.gms-2/libconscrypt_gmscore_jni.so 0x41773a10
02-05 12:28:38.794: D/dalvikvm(12068): Added shared lib /data/app-lib/com.google.android.gms-2/libconscrypt_gmscore_jni.so 0x41773a10
02-05 12:28:38.794: V/JNIHelp(12068): Registering com/google/android/gms/org/conscrypt/NativeCrypto's 235 native methods...
02-05 12:28:38.864: D/dalvikvm(12068): Trying to load lib /data/app-lib/com.google.android.gms-2/libgmscore.so 0x41773a10
02-05 12:28:38.864: D/dalvikvm(12068): Shared lib '/data/app-lib/com.google.android.gms-2/libgmscore.so' already loaded in same CL 0x41773a10
02-05 12:28:38.864: D/dalvikvm(12068): Trying to load lib /data/app-lib/com.google.android.gms-2/libconscrypt_gmscore_jni.so 0x41773a10
02-05 12:28:38.864: D/dalvikvm(12068): Shared lib '/data/app-lib/com.google.android.gms-2/libconscrypt_gmscore_jni.so' already loaded in same CL 0x41773a10
02-05 12:28:38.872: D/dalvikvm(12068): GC_CONCURRENT freed 320K, 4% free 9137K/9488K, paused 6ms+6ms, total 36ms
02-05 12:28:38.896: I/ProviderInstaller(12068): Installed default security provider GmsCore_OpenSSL
02-05 12:28:38.896: I/dalvikvm(12068): Could not find method android.os.Trace.beginSection, referenced from method com.google.apps.dots.android.newsstand.instrumentation.TraceCompat.beginSection
02-05 12:28:38.896: W/dalvikvm(12068): VFY: unable to resolve static method 1034: Landroid/os/Trace;.beginSection (Ljava/lang/String;)V
02-05 12:28:38.896: D/dalvikvm(12068): VFY: replacing opcode 0x71 at 0x0051
02-05 12:28:38.896: I/dalvikvm(12068): Could not find method android.os.Trace.endSection, referenced from method com.google.apps.dots.android.newsstand.instrumentation.TraceCompat.endSection
02-05 12:28:38.896: W/dalvikvm(12068): VFY: unable to resolve static method 1035: Landroid/os/Trace;.endSection ()V
02-05 12:28:38.896: D/dalvikvm(12068): VFY: replacing opcode 0x71 at 0x000a
02-05 12:28:38.896: I/dalvikvm(12068): Could not find method android.os.Trace.endSection, referenced from method com.google.apps.dots.android.newsstand.instrumentation.TraceCompat.endSection
02-05 12:28:38.896: W/dalvikvm(12068): VFY: unable to resolve static method 1035: Landroid/os/Trace;.endSection ()V
02-05 12:28:38.896: D/dalvikvm(12068): VFY: replacing opcode 0x71 at 0x0017
02-05 12:28:38.950: I/ActivityManager(385): Start proc com.google.android.gsf.login for service com.google.android.gsf.login/com.google.android.gsf.loginservice.GoogleLoginService: pid=12127 uid=10011 gids={50011, 3003, 1007, 3002, 3001, 1028, 1015, 1006, 2001, 3006}
02-05 12:28:39.067: E/dalvikvm(12107): Could not find class 'android.app.Notification$Action$Builder', referenced from method b.a
02-05 12:28:39.067: W/dalvikvm(12107): VFY: unable to resolve new-instance 376 (Landroid/app/Notification$Action$Builder;) in Lb;
02-05 12:28:39.067: D/dalvikvm(12107): VFY: replacing opcode 0x22 at 0x0000
02-05 12:28:39.208: I/ActivityManager(385): Process com.vzw.hss.myverizonged (pid 11989) has died.
02-05 12:28:39.271: E/dalvikvm(12107): Could not find class 'android.graphics.drawable.RippleDrawable', referenced from method b.a
02-05 12:28:39.271: W/dalvikvm(12107): VFY: unable to resolve new-instance 536 (Landroid/graphics/drawable/RippleDrawable;) in Lb;
02-05 12:28:39.271: D/dalvikvm(12107): VFY: replacing opcode 0x22 at 0x000b
02-05 12:28:39.317: W/MagazinesUserContentService(12068): Failure getting a ClientConfig, we will not fetch MyOffers or MyMagazines.
02-05 12:28:39.552: E/dalvikvm(12107): Could not find class 'android.app.Notification$Action$Builder', referenced from method b.a
02-05 12:28:39.552: W/dalvikvm(12107): VFY: unable to resolve new-instance 376 (Landroid/app/Notification$Action$Builder;) in Lb;
02-05 12:28:39.552: D/dalvikvm(12107): VFY: replacing opcode 0x22 at 0x0000
02-05 12:28:39.599: E/dalvikvm(12107): Could not find class 'android.transition.Transition', referenced from method b.a
02-05 12:28:39.599: W/dalvikvm(12107): VFY: unable to resolve check-cast 769 (Landroid/transition/Transition;) in Lb;
02-05 12:28:39.599: D/dalvikvm(12107): VFY: replacing opcode 0x1f at 0x0000
02-05 12:28:39.599: E/dalvikvm(12107): Could not find class 'android.transition.Transition', referenced from method b.a
02-05 12:28:39.599: W/dalvikvm(12107): VFY: unable to resolve check-cast 769 (Landroid/transition/Transition;) in Lb;
02-05 12:28:39.599: D/dalvikvm(12107): VFY: replacing opcode 0x1f at 0x0005
02-05 12:28:39.599: E/dalvikvm(12107): Could not find class 'android.transition.Transition', referenced from method b.a
02-05 12:28:39.599: W/dalvikvm(12107): VFY: unable to resolve check-cast 769 (Landroid/transition/Transition;) in Lb;
02-05 12:28:39.599: D/dalvikvm(12107): VFY: replacing opcode 0x1f at 0x0000
02-05 12:28:39.614: I/dalvikvm(12107): Could not find method android.view.ViewGroup.isTransitionGroup, referenced from method b.a
02-05 12:28:39.614: W/dalvikvm(12107): VFY: unable to resolve virtual method 4680: Landroid/view/ViewGroup;.isTransitionGroup ()Z
02-05 12:28:39.614: D/dalvikvm(12107): VFY: replacing opcode 0x6e at 0x000c
02-05 12:28:39.614: I/dalvikvm(12107): Could not find method android.view.View.getTransitionName, referenced from method b.a
02-05 12:28:39.614: W/dalvikvm(12107): VFY: unable to resolve virtual method 4503: Landroid/view/View;.getTransitionName ()Ljava/lang/String;
02-05 12:28:39.614: D/dalvikvm(12107): VFY: replacing opcode 0x6e at 0x0006
02-05 12:28:39.646: D/dalvikvm(12107): GC_CONCURRENT freed 247K, 4% free 8783K/9060K, paused 3ms+3ms, total 23ms
02-05 12:28:39.646: W/dalvikvm(12107): VFY: unable to find class referenced in signature ([Landroid/app/RemoteInput;)
02-05 12:28:39.653: E/dalvikvm(12107): Could not find class 'android.app.RemoteInput[]', referenced from method b.a
02-05 12:28:39.653: W/dalvikvm(12107): VFY: unable to resolve new-array 12397 ([Landroid/app/RemoteInput;) in Lb;
02-05 12:28:39.653: D/dalvikvm(12107): VFY: replacing opcode 0x23 at 0x0005
02-05 12:28:39.677: D/DhcpInfoInternal(385): makeLinkProperties with empty dns2!
02-05 12:28:39.677: D/DhcpInfoInternal(385): makeLinkProperties with empty dns2!
02-05 12:28:39.685: E/dalvikvm(12107): Could not find class 'android.transition.Transition', referenced from method b.b
02-05 12:28:39.685: W/dalvikvm(12107): VFY: unable to resolve check-cast 769 (Landroid/transition/Transition;) in Lb;
02-05 12:28:39.685: D/dalvikvm(12107): VFY: replacing opcode 0x1f at 0x0000
02-05 12:28:39.692: D/ConnectivityService(385): Captive portal check NetworkInfo: type: WIFI[], state: CONNECTING/CAPTIVE_PORTAL_CHECK, reason: (unspecified), extra: "zeit kargiet wen", roaming: false, failover: false, isAvailable: true
02-05 12:28:39.708: D/ConnectivityService(385): ConnectivityChange for WIFI: CONNECTED/CONNECTED
02-05 12:28:39.747: D/dalvikvm(12107): DexOpt: unable to opt direct call 0x0640 at 0x0e in Lb;.a
02-05 12:28:39.755: D/dalvikvm(12107): DexOpt: unable to opt direct call 0x09c3 at 0x0e in Lb;.a
02-05 12:28:39.755: D/dalvikvm(12107): DexOpt: unable to opt direct call 0x0640 at 0x0e in Lb;.a
02-05 12:28:39.755: W/dalvikvm(12107): Unable to resolve superclass of Lar; (767)
02-05 12:28:39.755: W/dalvikvm(12107): Link of class 'Lar;' failed
02-05 12:28:39.755: D/dalvikvm(12107): DexOpt: unable to opt direct call 0x18a7 at 0x08 in Lb;.a
02-05 12:28:39.755: W/dalvikvm(12107): Unable to resolve superclass of Lat; (767)
02-05 12:28:39.755: W/dalvikvm(12107): Link of class 'Lat;' failed
02-05 12:28:39.755: D/dalvikvm(12107): DexOpt: unable to opt direct call 0x196a at 0x2c in Lb;.a
02-05 12:28:39.755: D/dalvikvm(12107): DexOpt: unable to opt direct call 0x0697 at 0x13 in Lb;.a
02-05 12:28:39.872: D/dalvikvm(12107): GC_CONCURRENT freed 391K, 5% free 8899K/9320K, paused 3ms+13ms, total 37ms
02-05 12:28:39.927: D/dalvikvm(12107): Trying to load lib /data/app-lib/com.google.android.apps.plus-1/libcrashreporterer.so 0x4170f9e8
02-05 12:28:39.927: D/dalvikvm(12107): Added shared lib /data/app-lib/com.google.android.apps.plus-1/libcrashreporterer.so 0x4170f9e8
02-05 12:28:39.989: D/dalvikvm(12107): GC_CONCURRENT freed 286K, 4% free 9033K/9348K, paused 4ms+3ms, total 33ms
02-05 12:28:39.989: D/dalvikvm(12107): WAIT_FOR_CONCURRENT_GC blocked 13ms
02-05 12:28:39.997: I/dalvikvm-heap(12107): Grow heap (frag case) to 10.582MB for 1821008-byte allocation
02-05 12:28:39.997: I/ActivityManager(385): Start proc com.rhmsoft.fm:crash.feedback for broadcast com.rhmsoft.fm/com.cleanmaster.fm.receiver.ConnectivityChangeBroadcastReceiver: pid=12173 uid=10072 gids={50072, 3003, 1015, 1028}
02-05 12:28:40.005: I/ActivityManager(385): Process com.google.android.gallery3d (pid 12032) has died.
02-05 12:28:40.021: D/dalvikvm(12107): GC_FOR_ALLOC freed 36K, 4% free 10775K/11128K, paused 21ms, total 21ms
02-05 12:28:40.036: D/dalvikvm(12107): GC_CONCURRENT freed 1K, 4% free 10776K/11128K, paused 4ms+2ms, total 19ms
02-05 12:28:40.099: W/Settings(12173): Setting android_id has moved from android.provider.Settings.System to android.provider.Settings.Secure, returning read-only value.
02-05 12:28:40.138: D/dalvikvm(12173): Trying to load lib /data/data/com.rhmsoft.fm/lib/libkcmutil.so 0x4170d828
02-05 12:28:40.146: D/dalvikvm(12173): Added shared lib /data/data/com.rhmsoft.fm/lib/libkcmutil.so 0x4170d828
02-05 12:28:40.146: I/ActivityManager(385): Start proc com.vzw.hss.myverizonged for broadcast com.vzw.hss.myverizonged/com.vzw.hss.datameter.receiver.WifiStateReceiver: pid=12196 uid=10043 gids={50043, 3003, 1028}
02-05 12:28:40.153: I/dalvikvm(12196): Turning on JNI app bug workarounds for target SDK version 4...
02-05 12:28:40.286: D/BluetoothAdapter(11536): 1098836656: getState() : mService = null. Returning STATE_OFF
02-05 12:28:40.356: I/ActivityManager(385): Process com.google.android.apps.uploader (pid 12053) has died.
02-05 12:28:40.708: D/ConnectivityService(385): NetTransition Wakelock for WifiStateMachine released by timeout
02-05 12:28:42.216: I/GHttpClientFactory(12010): Using the GMSCore's GoogleHttpClient
02-05 12:28:42.255: D/dalvikvm(12010): GC_CONCURRENT freed 303K, 4% free 9382K/9716K, paused 4ms+4ms, total 34ms
02-05 12:28:42.302: I/MusicLeanback(12010): Conditions not met for autocaching.
02-05 12:28:42.302: I/MusicLeanback(12010): Stop autocaching.
02-05 12:28:42.333: E/ActivityThread(12010): Service com.google.android.music.download.TrackDownloadQueueService has leaked ServiceConnection com.google.android.gms.http.GoogleURLConnectionFactory$1@41721b38 that was originally bound here
02-05 12:28:42.333: E/ActivityThread(12010): android.app.ServiceConnectionLeaked: Service com.google.android.music.download.TrackDownloadQueueService has leaked ServiceConnection com.google.android.gms.http.GoogleURLConnectionFactory$1@41721b38 that was originally bound here
02-05 12:28:42.333: E/ActivityThread(12010): at android.app.LoadedApk$ServiceDispatcher.<init>(LoadedApk.java:969)
02-05 12:28:42.333: E/ActivityThread(12010): at android.app.LoadedApk.getServiceDispatcher(LoadedApk.java:863)
02-05 12:28:42.333: E/ActivityThread(12010): at android.app.ContextImpl.bindService(ContextImpl.java:1418)
02-05 12:28:42.333: E/ActivityThread(12010): at android.app.ContextImpl.bindService(ContextImpl.java:1407)
02-05 12:28:42.333: E/ActivityThread(12010): at android.content.ContextWrapper.bindService(ContextWrapper.java:473)
02-05 12:28:42.333: E/ActivityThread(12010): at com.google.android.gms.http.GoogleURLConnectionFactory.<init>(Unknown Source)
02-05 12:28:42.333: E/ActivityThread(12010): at com.google.android.gms.http.GoogleHttpClient.<init>(Unknown Source)
02-05 12:28:42.333: E/ActivityThread(12010): at com.google.android.gms.http.GoogleHttpClient.<init>(Unknown Source)
02-05 12:28:42.333: E/ActivityThread(12010): at com.google.android.gms.http.GoogleHttpClient.<init>(Unknown Source)
02-05 12:28:42.333: E/ActivityThread(12010): at com.google.android.music.GoogleHttpClientFactory.createGoogleHttpClient(GoogleHttpClientFactory.java:81)
02-05 12:28:42.333: E/ActivityThread(12010): at com.google.android.music.cloudclient.MusicRequest.createHttpClient(MusicRequest.java:110)
02-05 12:28:42.333: E/ActivityThread(12010): at com.google.android.music.cloudclient.MusicRequest.getSharedHttpClient(MusicRequest.java:100)
02-05 12:28:42.333: E/ActivityThread(12010): at com.google.android.music.download.BaseDownloadQueueManager.<init>(BaseDownloadQueueManager.java:110)
02-05 12:28:42.333: E/ActivityThread(12010): at com.google.android.music.download.TrackDownloadQueueManager.<init>(TrackDownloadQueueManager.java:10)
02-05 12:28:42.333: E/ActivityThread(12010): at com.google.android.music.download.TrackDownloadQueueService.onCreate(TrackDownloadQueueService.java:25)
02-05 12:28:42.333: E/ActivityThread(12010): at android.app.ActivityThread.handleCreateService(ActivityThread.java:2529)
02-05 12:28:42.333: E/ActivityThread(12010): at android.app.ActivityThread.access$1600(ActivityThread.java:141)
02-05 12:28:42.333: E/ActivityThread(12010): at android.app.ActivityThread$H.handleMessage(ActivityThread.java:1316)
02-05 12:28:42.333: E/ActivityThread(12010): at android.os.Handler.dispatchMessage(Handler.java:99)
02-05 12:28:42.333: E/ActivityThread(12010): at android.os.Looper.loop(Looper.java:137)
02-05 12:28:42.333: E/ActivityThread(12010): at android.app.ActivityThread.main(ActivityThread.java:5041)
02-05 12:28:42.333: E/ActivityThread(12010): at java.lang.reflect.Method.invokeNative(Native Method)
02-05 12:28:42.333: E/ActivityThread(12010): at java.lang.reflect.Method.invoke(Method.java:511)
02-05 12:28:42.333: E/ActivityThread(12010): at com.android.internal.os.ZygoteInit$MethodAndArgsCaller.run(ZygoteInit.java:793)
02-05 12:28:42.333: E/ActivityThread(12010): at com.android.internal.os.ZygoteInit.main(ZygoteInit.java:560)
02-05 12:28:42.333: E/ActivityThread(12010): at dalvik.system.NativeStart.main(Native Method)
02-05 12:28:42.739: D/Tethering(385): MasterInitialState.processMessage what=3
02-05 12:28:42.763: I/GTalkService/c(742): [AndroidEndpoint@1099021048] connect: acct=1000000, state=CONNECTING
02-05 12:28:42.771: I/GTalkService/c(742): [GTalkConnection@1099113168] connect: acct=1, state=CONNECTING
02-05 12:28:42.771: I/NetworkMonitor(12010): type=WIFI subType= reason=null isConnected=true
02-05 12:28:42.833: I/ActivityManager(385): Start proc com.google.android.gallery3d for broadcast com.google.android.gallery3d/com.google.android.picasasync.ConnectivityReceiver: pid=12216 uid=10021 gids={50021, 1006, 3003, 1015, 1028}
02-05 12:28:42.942: D/dalvikvm(12216): GC_CONCURRENT freed 418K, 5% free 8697K/9144K, paused 3ms+2ms, total 22ms
02-05 12:28:42.942: D/dalvikvm(10175): GC_CONCURRENT freed 339K, 5% free 8992K/9368K, paused 7ms+10ms, total 70ms
02-05 12:28:42.989: D/dalvikvm(12216): GC_CONCURRENT freed 471K, 6% free 8738K/9236K, paused 2ms+1ms, total 14ms
02-05 12:28:42.989: D/dalvikvm(12216): WAIT_FOR_CONCURRENT_GC blocked 5ms
02-05 12:28:42.997: D/dalvikvm(12216): WAIT_FOR_CONCURRENT_GC blocked 10ms
02-05 12:28:43.052: I/ActivityManager(385): Start proc com.google.android.apps.uploader for broadcast com.google.android.apps.uploader/com.google.android.picasasync.ConnectivityReceiver: pid=12235 uid=10039 gids={50039, 3003, 1015, 1028}
02-05 12:28:43.083: D/UploadsManager(12216): wifiOnlyPhoto changed to true
02-05 12:28:43.083: D/UploadsManager(12216): wifiOnlyVideo changed to true
02-05 12:28:43.083: D/UploadsManager(12216): syncOnBattery changed to true
02-05 12:28:43.083: D/PicasaSync(12216): sync account database
02-05 12:28:43.083: I/ActivityManager(385): Process com.google.android.apps.magazines (pid 12068) has died.
02-05 12:28:43.114: D/PicasaSync(12216): accounts in DB=2
02-05 12:28:43.122: D/PicasaSyncManager(12216): active network: NetworkInfo: type: WIFI[], state: CONNECTED/CONNECTED, reason: (unspecified), extra: "zeit kargiet wen", roaming: false, failover: false, isAvailable: true
02-05 12:28:43.122: D/PicasaSyncManager(12216): background data: true
02-05 12:28:43.146: D/GCM(742): GcmService start Intent { act=android.net.conn.CONNECTIVITY_CHANGE flg=0x8000010 cmp=com.google.android.gms/.gcm.GcmService (has extras) } android.net.conn.CONNECTIVITY_CHANGE
02-05 12:28:43.161: D/dalvikvm(12235): GC_CONCURRENT freed 412K, 3% free 8842K/9108K, paused 2ms+5ms, total 56ms
02-05 12:28:43.161: I/iu.Environment(927): update connectivity state; isNetworkMetered? false, isRoaming? false, isBackgroundDataAllowed? true*
02-05 12:28:43.185: I/ActivityManager(385): Start proc com.google.android.apps.magazines for broadcast com.google.android.apps.magazines/com.google.apps.dots.android.newsstand.appwidget.NewsWidgetProvider: pid=12254 uid=10037 gids={50037, 3003, 1015, 1028}
02-05 12:28:43.192: I/iu.UploadsManager(927): num queued entries: 0
02-05 12:28:43.200: I/iu.UploadsManager(927): num updated entries: 0
02-05 12:28:43.200: I/iu.SyncManager(927): NEXT; no task
02-05 12:28:43.208: D/PicasaSyncManager(12216): reject PrefetchAlbumCover (**************************) because auto sync is off
02-05 12:28:43.224: D/PicasaSyncManager(12216): reject PrefetchScreenNail (**************************) because auto sync is off
02-05 12:28:43.224: D/PicasaSyncManager(12216): battery info: true
02-05 12:28:43.239: D/PicasaSyncManager(12216): reject PrefetchAlbumCover (**************************) because auto sync is off
02-05 12:28:43.239: D/PicasaSyncManager(12216): reject PrefetchScreenNail (**************************) because auto sync is off
02-05 12:28:43.247: D/PicasaUploader(12235): wifiOnlyPhoto changed to true
02-05 12:28:43.247: D/PicasaUploader(12235): wifiOnlyVideo changed to true
02-05 12:28:43.247: D/PicasaUploader(12235): syncOnBattery changed to true
02-05 12:28:43.247: D/PicasaUploaderSync(12235): sync account database
02-05 12:28:43.263: I/dalvikvm(12254): Could not find method android.webkit.WebView.setWebContentsDebuggingEnabled, referenced from method com.google.apps.dots.android.newsstand.NSDepend.setupInternal
02-05 12:28:43.263: W/dalvikvm(12254): VFY: unable to resolve static method 7743: Landroid/webkit/WebView;.setWebContentsDebuggingEnabled (Z)V
02-05 12:28:43.263: D/dalvikvm(12254): VFY: replacing opcode 0x71 at 0x00c8
02-05 12:28:43.271: D/dalvikvm(12216): GC_CONCURRENT freed 301K, 4% free 8878K/9236K, paused 8ms+4ms, total 90ms
02-05 12:28:43.278: I/dalvikvm(12254): Could not find method android.accounts.AccountManager.getPreviousName, referenced from method com.google.apps.dots.android.newsstand.auth.AccountManagerDelegate.getPreviousName
02-05 12:28:43.278: W/dalvikvm(12254): VFY: unable to resolve virtual method 7: Landroid/accounts/AccountManager;.getPreviousName (Landroid/accounts/Account;)Ljava/lang/String;
02-05 12:28:43.278: D/dalvikvm(12254): VFY: replacing opcode 0x6e at 0x0002
02-05 12:28:43.278: D/PicasaUploaderSync(12235): accounts in DB=2
02-05 12:28:43.286: D/PicasaUploaderSyncManager(12235): active network: NetworkInfo: type: WIFI[], state: CONNECTED/CONNECTED, reason: (unspecified), extra: "zeit kargiet wen", roaming: false, failover: false, isAvailable: true
02-05 12:28:43.286: D/PicasaUploaderSyncManager(12235): background data: true
02-05 12:28:43.310: D/PicasaUploaderSyncManager(12235): battery info: true
02-05 12:28:43.325: I/ActivityManager(385): Process com.google.android.gsf.login (pid 12127) has died.
02-05 12:28:43.372: D/dalvikvm(12254): GC_CONCURRENT freed 333K, 4% free 8808K/9168K, paused 2ms+5ms, total 79ms
02-05 12:28:43.388: I/dalvikvm(12254): Could not find method android.graphics.Bitmap.getAllocationByteCount, referenced from method com.google.apps.dots.android.newsstand.bitmap.CachingBitmapPool.isGoodForMutableBitmapRequest
02-05 12:28:43.388: W/dalvikvm(12254): VFY: unable to resolve virtual method 570: Landroid/graphics/Bitmap;.getAllocationByteCount ()I
02-05 12:28:43.388: D/dalvikvm(12254): VFY: replacing opcode 0x6e at 0x0018
02-05 12:28:43.388: I/dalvikvm(12254): Could not find method android.graphics.Bitmap.reconfigure, referenced from method com.google.apps.dots.android.newsstand.bitmap.CachingBitmapPool.reconfigureBitmap
02-05 12:28:43.388: W/dalvikvm(12254): VFY: unable to resolve virtual method 577: Landroid/graphics/Bitmap;.reconfigure (IILandroid/graphics/Bitmap$Config;)V
02-05 12:28:43.388: D/dalvikvm(12254): VFY: replacing opcode 0x6e at 0x0008
02-05 12:28:43.450: I/NSApplication(12254): Starting up...
02-05 12:28:43.481: D/dalvikvm(12254): GC_CONCURRENT freed 259K, 4% free 8967K/9256K, paused 3ms+7ms, total 24ms
02-05 12:28:43.489: D/dalvikvm(12107): GC_FOR_ALLOC freed 7K, 4% free 10783K/11128K, paused 14ms, total 14ms
02-05 12:28:43.497: I/dalvikvm-heap(12107): Grow heap (frag case) to 12.291MB for 1821008-byte allocation
02-05 12:28:43.575: D/dalvikvm(12107): GC_FOR_ALLOC freed <1K, 3% free 12561K/12908K, paused 76ms, total 76ms
02-05 12:28:43.606: D/dalvikvm(12107): GC_CONCURRENT freed 4K, 3% free 12560K/12908K, paused 4ms+3ms, total 34ms
02-05 12:28:43.606: D/dalvikvm(12107): WAIT_FOR_CONCURRENT_GC blocked 22ms
02-05 12:28:43.614: I/dalvikvm-heap(12107): Grow heap (frag case) to 14.027MB for 1821008-byte allocation
02-05 12:28:43.622: I/ActivityManager(385): Process android.process.acore (pid 11578) has died.
02-05 12:28:43.638: D/dalvikvm(12107): GC_FOR_ALLOC freed <1K, 3% free 14338K/14688K, paused 23ms, total 23ms
02-05 12:28:43.638: D/dalvikvm(12254): Trying to load lib /data/app-lib/com.google.android.gms-2/libgmscore.so 0x41793448
02-05 12:28:43.661: D/dalvikvm(12254): Added shared lib /data/app-lib/com.google.android.gms-2/libgmscore.so 0x41793448
02-05 12:28:43.661: D/dalvikvm(12254): No JNI_OnLoad found in /data/app-lib/com.google.android.gms-2/libgmscore.so 0x41793448, skipping init
02-05 12:28:43.692: E/dalvikvm(12254): Could not find class 'android.app.AppOpsManager', referenced from method com.google.android.gms.common.util.e.a
02-05 12:28:43.692: W/dalvikvm(12254): VFY: unable to resolve check-cast 35 (Landroid/app/AppOpsManager;) in Lcom/google/android/gms/common/util/e;
02-05 12:28:43.692: D/dalvikvm(12254): VFY: replacing opcode 0x1f at 0x0010
02-05 12:28:43.700: D/dalvikvm(12254): Trying to load lib /data/app-lib/com.google.android.gms-2/libconscrypt_gmscore_jni.so 0x41793448
02-05 12:28:43.700: D/dalvikvm(12254): Added shared lib /data/app-lib/com.google.android.gms-2/libconscrypt_gmscore_jni.so 0x41793448
02-05 12:28:43.700: V/JNIHelp(12254): Registering com/google/android/gms/org/conscrypt/NativeCrypto's 235 native methods...
02-05 12:28:43.747: D/dalvikvm(12254): GC_CONCURRENT freed 280K, 4% free 9115K/9424K, paused 3ms+2ms, total 17ms
02-05 12:28:43.755: D/dalvikvm(12254): Trying to load lib /data/app-lib/com.google.android.gms-2/libgmscore.so 0x41793448
02-05 12:28:43.755: D/dalvikvm(12254): Shared lib '/data/app-lib/com.google.android.gms-2/libgmscore.so' already loaded in same CL 0x41793448
02-05 12:28:43.755: D/dalvikvm(12254): Trying to load lib /data/app-lib/com.google.android.gms-2/libconscrypt_gmscore_jni.so 0x41793448
02-05 12:28:43.755: D/dalvikvm(12254): Shared lib '/data/app-lib/com.google.android.gms-2/libconscrypt_gmscore_jni.so' already loaded in same CL 0x41793448
02-05 12:28:43.771: I/ActivityManager(385): Start proc android.process.acore for content provider com.android.providers.contacts/.ContactsProvider2: pid=12295 uid=10000 gids={50000, 3003, 1015, 1028}
02-05 12:28:43.786: D/dalvikvm(127): GC_EXPLICIT freed 40K, 1% free 8629K/8700K, paused 1ms+4ms, total 25ms
02-05 12:28:43.810: D/dalvikvm(127): GC_EXPLICIT freed <1K, 1% free 8629K/8700K, paused 1ms+3ms, total 23ms
02-05 12:28:43.810: I/ProviderInstaller(12254): Installed default security provider GmsCore_OpenSSL
02-05 12:28:43.810: I/dalvikvm(12254): Could not find method android.os.Trace.beginSection, referenced from method com.google.apps.dots.android.newsstand.instrumentation.TraceCompat.beginSection
02-05 12:28:43.810: W/dalvikvm(12254): VFY: unable to resolve static method 1034: Landroid/os/Trace;.beginSection (Ljava/lang/String;)V
02-05 12:28:43.810: D/dalvikvm(12254): VFY: replacing opcode 0x71 at 0x0051
02-05 12:28:43.817: I/dalvikvm(12254): Could not find method android.os.Trace.endSection, referenced from method com.google.apps.dots.android.newsstand.instrumentation.TraceCompat.endSection
02-05 12:28:43.817: W/dalvikvm(12254): VFY: unable to resolve static method 1035: Landroid/os/Trace;.endSection ()V
02-05 12:28:43.817: D/dalvikvm(12254): VFY: replacing opcode 0x71 at 0x000a
02-05 12:28:43.817: I/dalvikvm(12254): Could not find method android.os.Trace.endSection, referenced from method com.google.apps.dots.android.newsstand.instrumentation.TraceCompat.endSection
02-05 12:28:43.817: W/dalvikvm(12254): VFY: unable to resolve static method 1035: Landroid/os/Trace;.endSection ()V
02-05 12:28:43.817: D/dalvikvm(12254): VFY: replacing opcode 0x71 at 0x0017
02-05 12:28:43.833: D/dalvikvm(127): GC_EXPLICIT freed <1K, 1% free 8629K/8700K, paused 1ms+2ms, total 23ms
02-05 12:28:43.935: D/dalvikvm(12295): GC_CONCURRENT freed 202K, 3% free 8862K/9092K, paused 3ms+3ms, total 26ms
02-05 12:28:44.192: D/ConnectivityService(385): handleInetConditionHoldEnd: net=1, condition=100, published condition=0
02-05 12:28:44.481: D/dalvikvm(12254): GC_CONCURRENT freed 345K, 4% free 9212K/9588K, paused 5ms+2ms, total 30ms
02-05 12:28:44.560: I/ActivityManager(385): Process com.vzw.hss.myverizonged (pid 12196) has died.
02-05 12:28:44.989: I/ActivityManager(385): Process com.google.android.gallery3d (pid 12216) has died.
02-05 12:28:45.099: I/GAV4(12173): Thread[GAThread,5,main]: No campaign data found.
02-05 12:28:45.153: D/dalvikvm(12173): GC_CONCURRENT freed 274K, 4% free 8743K/9048K, paused 2ms+2ms, total 27ms
02-05 12:28:45.224: D/dalvikvm(927): GC_CONCURRENT freed 701K, 7% free 11105K/11836K, paused 20ms+8ms, total 133ms
02-05 12:28:45.286: I/ActivityManager(385): Start proc com.google.android.talk for broadcast com.google.android.talk/.ConnectionStateOnlineReceiver: pid=12315 uid=10057 gids={50057, 3003, 1015, 1006, 1028, 3002}
02-05 12:28:45.302: I/ActivityManager(385): Start proc com.google.android.gsf.login for service com.google.android.gsf.login/com.google.android.gsf.loginservice.GoogleLoginService: pid=12326 uid=10011 gids={50011, 3003, 1007, 3002, 3001, 1028, 1015, 1006, 2001, 3006}
02-05 12:28:45.302: I/ActivityManager(385): Process com.google.android.apps.magazines (pid 12254) has died.
02-05 12:28:45.388: D/dalvikvm(12107): GC_FOR_ALLOC freed 5337K, 4% free 9004K/9348K, paused 24ms, total 24ms
02-05 12:28:45.396: I/dalvikvm-heap(12107): Grow heap (frag case) to 10.553MB for 1821008-byte allocation
02-05 12:28:45.411: D/dalvikvm(12107): GC_FOR_ALLOC freed <1K, 4% free 10782K/11128K, paused 17ms, total 17ms
02-05 12:28:45.435: D/dalvikvm(12107): GC_CONCURRENT freed <1K, 4% free 10782K/11128K, paused 3ms+2ms, total 20ms
02-05 12:28:45.528: D/dalvikvm(12315): GC_CONCURRENT freed 120K, 2% free 8926K/9076K, paused 2ms+1ms, total 19ms
02-05 12:28:45.544: D/vclib:CallStateClient(12315): startListening
02-05 12:28:45.661: D/dalvikvm(385): GC_EXPLICIT freed 1290K, 25% free 19952K/26340K, paused 4ms+13ms, total 177ms
02-05 12:28:45.661: I/ActivityManager(385): Process com.google.android.apps.uploader (pid 12235) has died.
02-05 12:28:45.864: D/dalvikvm(12326): GC_CONCURRENT freed 259K, 4% free 8776K/9064K, paused 5ms+3ms, total 34ms
02-05 12:28:45.880: D/dalvikvm(742): GC_CONCURRENT freed 530K, 6% free 10870K/11516K, paused 137ms+11ms, total 196ms
02-05 12:28:45.911: D/dalvikvm(12107): GC_FOR_ALLOC freed 1779K, 20% free 9004K/11128K, paused 19ms, total 19ms
02-05 12:28:45.911: I/dalvikvm-heap(12107): Grow heap (frag case) to 10.553MB for 1821008-byte allocation
02-05 12:28:45.935: D/dalvikvm(12107): GC_FOR_ALLOC freed 0K, 4% free 10782K/11128K, paused 21ms, total 21ms
02-05 12:28:45.950: D/dalvikvm(12107): GC_CONCURRENT freed <1K, 4% free 10782K/11128K, paused 3ms+2ms, total 18ms
02-05 12:28:47.427: D/dalvikvm(12295): GC_CONCURRENT freed 216K, 3% free 9032K/9276K, paused 4ms+25ms, total 59ms
02-05 12:28:49.880: D/dalvikvm(12107): GC_FOR_ALLOC freed <1K, 4% free 10782K/11128K, paused 25ms, total 25ms
02-05 12:28:49.880: I/dalvikvm-heap(12107): Grow heap (frag case) to 12.291MB for 1821008-byte allocation
02-05 12:28:49.903: D/dalvikvm(12107): GC_FOR_ALLOC freed 0K, 3% free 12560K/12908K, paused 19ms, total 19ms
02-05 12:28:49.919: D/dalvikvm(12107): GC_CONCURRENT freed <1K, 3% free 12560K/12908K, paused 2ms+3ms, total 19ms
02-05 12:28:52.653: D/KInfoc(10047): clear batch timer
02-05 12:28:52.653: D/KInfoc(10047): BATCH REPORTER STARTED ........
02-05 12:28:52.653: D/KInfoc(10047): set batch timer
02-05 12:29:02.263: E/GmsUtils(12010): Failed to connect to Google API client: ConnectionResult{statusCode=TIMEOUT, resolution=null}
02-05 12:29:02.778: D/LightsService(385): Excessive delay setting light: 67ms
02-05 12:29:02.942: D/LightsService(385): Excessive delay setting light: 68ms
02-05 12:29:03.185: D/LightsService(385): Excessive delay setting light: 68ms
02-05 12:29:03.192: I/KInfoc(10047): Auto Post
02-05 12:29:03.450: D/LightsService(385): Excessive delay setting light: 67ms
02-05 12:29:04.622: D/LightsService(385): Excessive delay setting light: 67ms
02-05 12:29:04.896: D/LightsService(385): Excessive delay setting light: 67ms
02-05 12:29:04.958: I/ActivityManager(385): START u0 {cmp=org.storymaker.app/.StoryInfoEditActivity (has extras)} from pid 10018
02-05 12:29:05.130: D/LightsService(385): Excessive delay setting light: 67ms
02-05 12:29:05.302: D/LightsService(385): Excessive delay setting light: 67ms
02-05 12:29:05.356: I/ActivityManager(385): Start proc com.google.android.inputmethod.latin.dictionarypack for content provider com.google.android.inputmethod.latin.dictionarypack/.DictionaryProvider: pid=12364 uid=10032 gids={50032, 3003, 1015, 1028}
02-05 12:29:05.606: I/ActivityManager(385): Displayed org.storymaker.app/.StoryInfoEditActivity: +582ms
02-05 12:29:05.653: D/dalvikvm(543): GC_CONCURRENT freed 931K, 8% free 11513K/12400K, paused 25ms+18ms, total 134ms
02-05 12:29:09.310: I/ActivityManager(385): START u0 {cmp=org.storymaker.app/.AccountsActivity (has extras)} from pid 10018
02-05 12:29:09.442: D/dalvikvm(385): GC_FOR_ALLOC freed 1109K, 25% free 19908K/26340K, paused 85ms, total 85ms
02-05 12:29:09.528: W/AuthTable(10018): no username/password found for "storymaker"
02-05 12:29:09.536: W/AuthTable(10018): no username/password found for "storymaker"
02-05 12:29:09.536: W/AuthTable(10018): no username/password found for "storymaker"
02-05 12:29:09.544: W/AuthTable(10018): no username/password found for "storymaker"
02-05 12:29:09.544: W/AuthTable(10018): no username/password found for "storymaker"
02-05 12:29:09.771: I/ActivityManager(385): Displayed org.storymaker.app/.AccountsActivity: +318ms
02-05 12:29:11.864: D/PublishFragment(10018): Choose Accounts dialog return ok
02-05 12:29:11.864: D/PublishFragment(10018): selected sites: [facebook]
02-05 12:29:12.083: D/FacebookPublisher(10018): startRender
02-05 12:29:12.263: I/KInfoc(10047): Auto Post
02-05 12:29:12.458: D/FFMPEG(10018): /data/data/org.storymaker.app/app_bin/ffmpeg -y -i /storage/emulated/0/Android/data/org.storymaker.app/files/render/1423157352338/Screenshot_2015-02-04-19-11-39.png -s 720x480 /storage/emulated/0/Android/data/org.storymaker.app/files/render/1423157352338/image-000.jpg
02-05 12:29:12.528: D/StoryMaker(10018): ffmpeg version 0.11.1 Copyright (c) 2000-2012 the FFmpeg developers
02-05 12:29:12.528: D/StoryMaker(10018): built on Nov 15 2013 00:50:10 with gcc 4.6 20120106 (prerelease)
02-05 12:29:12.528: D/StoryMaker(10018): configuration: --arch=arm --cpu=cortex-a8 --target-os=linux --enable-runtime-cpudetect --enable-small --prefix=/data/data/info.guardianproject.ffmpeg/app_opt --enable-pic --disable-shared --enable-static --cross-prefix=/home/n8fr8/dev/android/ndk//toolchains/arm-linux-androideabi-4.6/prebuilt/linux-x86_64/bin/arm-linux-androideabi- --sysroot=/home/n8fr8/dev/android/ndk//platforms/android-3/arch-arm --extra-cflags='-I../x264 -mfloat-abi=softfp -mfpu=neon' --extra-ldflags=-L../x264 --enable-version3 --enable-gpl --disable-doc --enable-yasm --enable-decoders --enable-encoders --enable-muxers --enable-demuxers --enable-parsers --enable-protocols --enable-filters --enable-avresample --enable-libfreetype --disable-indevs --enable-indev=lavfi --disable-outdevs --enable-hwaccels --enable-ffmpeg --disable-ffplay --disable-ffprobe --disable-ffserver --disable-network --enable-libx264 --enable-zlib --enable-muxer=md5
02-05 12:29:12.528: D/StoryMaker(10018): libavutil 51. 54.100 / 51. 54.100
02-05 12:29:12.528: D/StoryMaker(10018): libavcodec 54. 23.100 / 54. 23.100
02-05 12:29:12.528: D/StoryMaker(10018): libavformat 54. 6.100 / 54. 6.100
02-05 12:29:12.528: D/StoryMaker(10018): libavdevice 54. 0.100 / 54. 0.100
02-05 12:29:12.528: D/StoryMaker(10018): libavfilter 2. 77.100 / 2. 77.100
02-05 12:29:12.528: D/StoryMaker(10018): libswscale 2. 1.100 / 2. 1.100
02-05 12:29:12.528: D/StoryMaker(10018): libswresample 0. 15.100 / 0. 15.100
02-05 12:29:12.528: D/StoryMaker(10018): libpostproc 52. 0.100 / 52. 0.100
02-05 12:29:12.606: D/StoryMaker(10018): Input #0, image2, from '/storage/emulated/0/Android/data/org.storymaker.app/files/render/1423157352338/Screenshot_2015-02-04-19-11-39.png':
02-05 12:29:12.606: D/StoryMaker(10018): Duration: 00:00:00.04, start: 0.000000, bitrate: N/A
02-05 12:29:12.606: D/VideoRenderer(10018): Duration: 00:00:00.04, start: 0.000000, bitrate: N/A
02-05 12:29:12.606: D/StoryMaker(10018): Stream #0:0: Video: png, rgb24, 720x1280, 25 tbr, 25 tbn, 25 tbc
02-05 12:29:12.614: D/StoryMaker(10018): [buffer @ 0xbffa80] w:720 h:1280 pixfmt:rgb24 tb:1/25 sar:0/1 sws_param:flags=2
02-05 12:29:12.614: D/StoryMaker(10018): [buffersink @ 0xbffbb0] No opaque field provided
02-05 12:29:12.622: D/PublishFragment(10018): Duration: 00:00:00.04, start: 0.000000, bitrate: N/A
02-05 12:29:12.653: D/StoryMaker(10018): [scale @ 0xbffd40] w:720 h:1280 fmt:rgb24 sar:0/1 -> w:720 h:480 fmt:yuvj420p sar:0/1 flags:0x4
02-05 12:29:12.653: D/StoryMaker(10018): Output #0, image2, to '/storage/emulated/0/Android/data/org.storymaker.app/files/render/1423157352338/image-000.jpg':
02-05 12:29:12.653: D/StoryMaker(10018): Metadata:
02-05 12:29:12.653: D/StoryMaker(10018): encoder : Lavf54.6.100
02-05 12:29:12.653: D/StoryMaker(10018): Stream #0:0: Video: mjpeg, yuvj420p, 720x480, q=2-31, 200 kb/s, 90k tbn, 25 tbc
02-05 12:29:12.653: D/StoryMaker(10018): Stream mapping:
02-05 12:29:12.653: D/StoryMaker(10018): Stream #0:0 -> #0:0 (png -> mjpeg)
02-05 12:29:12.661: D/StoryMaker(10018): Press [q] to stop, [?] for help
02-05 12:29:12.942: D/VideoRenderer(10018): frame= 1 fps=0.0 q=6.8 Lsize= 0kB time=00:00:00.04 bitrate= 0.0kbits/s
02-05 12:29:12.942: D/StoryMaker(10018): video:25kB audio:0kB global headers:0kB muxing overhead -100.000000%
02-05 12:29:12.974: D/PublishFragment(10018): frame= 1 fps=0.0 q=6.8 Lsize= 0kB time=00:00:00.04 bitrate= 0.0kbits/s
02-05 12:29:12.997: D/FFMPEG(10018): /data/data/org.storymaker.app/app_bin/ffmpeg -y -i /storage/emulated/0/Android/data/org.storymaker.app/files/render/1423157352338/Screenshot_2015-02-04-19-11-39.png -s 720x480 /storage/emulated/0/Android/data/org.storymaker.app/files/render/1423157352338/image-001.jpg
02-05 12:29:13.036: D/StoryMaker(10018): ffmpeg version 0.11.1 Copyright (c) 2000-2012 the FFmpeg developers
02-05 12:29:13.036: D/StoryMaker(10018): built on Nov 15 2013 00:50:10 with gcc 4.6 20120106 (prerelease)
02-05 12:29:13.036: D/StoryMaker(10018): configuration: --arch=arm --cpu=cortex-a8 --target-os=linux --enable-runtime-cpudetect --enable-small --prefix=/data/data/info.guardianproject.ffmpeg/app_opt --enable-pic --disable-shared --enable-static --cross-prefix=/home/n8fr8/dev/android/ndk//toolchains/arm-linux-androideabi-4.6/prebuilt/linux-x86_64/bin/arm-linux-androideabi- --sysroot=/home/n8fr8/dev/android/ndk//platforms/android-3/arch-arm --extra-cflags='-I../x264 -mfloat-abi=softfp -mfpu=neon' --extra-ldflags=-L../x264 --enable-version3 --enable-gpl --disable-doc --enable-yasm --enable-decoders --enable-encoders --enable-muxers --enable-demuxers --enable-parsers --enable-protocols --enable-filters --enable-avresample --enable-libfreetype --disable-indevs --enable-indev=lavfi --disable-outdevs --enable-hwaccels --enable-ffmpeg --disable-ffplay --disable-ffprobe --disable-ffserver --disable-network --enable-libx264 --enable-zlib --enable-muxer=md5
02-05 12:29:13.036: D/StoryMaker(10018): libavutil 51. 54.100 / 51. 54.100
02-05 12:29:13.036: D/StoryMaker(10018): libavcodec 54. 23.100 / 54. 23.100
02-05 12:29:13.036: D/StoryMaker(10018): libavformat 54. 6.100 / 54. 6.100
02-05 12:29:13.036: D/StoryMaker(10018): libavdevice 54. 0.100 / 54. 0.100
02-05 12:29:13.036: D/StoryMaker(10018): libavfilter 2. 77.100 / 2. 77.100
02-05 12:29:13.036: D/StoryMaker(10018): libswscale 2. 1.100 / 2. 1.100
02-05 12:29:13.036: D/StoryMaker(10018): libswresample 0. 15.100 / 0. 15.100
02-05 12:29:13.036: D/StoryMaker(10018): libpostproc 52. 0.100 / 52. 0.100
02-05 12:29:13.083: D/StoryMaker(10018): Input #0, image2, from '/storage/emulated/0/Android/data/org.storymaker.app/files/render/1423157352338/Screenshot_2015-02-04-19-11-39.png':
02-05 12:29:13.083: D/StoryMaker(10018): Duration: 00:00:00.04, start: 0.000000, bitrate: N/A
02-05 12:29:13.083: D/StoryMaker(10018): Stream #0:0: Video: png, rgb24, 720x1280, 25 tbr, 25 tbn, 25 tbc
02-05 12:29:13.083: D/VideoRenderer(10018): Duration: 00:00:00.04, start: 0.000000, bitrate: N/A
02-05 12:29:13.099: D/StoryMaker(10018): [buffer @ 0xbffa80] w:720 h:1280 pixfmt:rgb24 tb:1/25 sar:0/1 sws_param:flags=2
02-05 12:29:13.099: D/StoryMaker(10018): [buffersink @ 0xbffbb0] No opaque field provided
02-05 12:29:13.099: D/PublishFragment(10018): Duration: 00:00:00.04, start: 0.000000, bitrate: N/A
02-05 12:29:13.114: D/StoryMaker(10018): [scale @ 0xbffd40] w:720 h:1280 fmt:rgb24 sar:0/1 -> w:720 h:480 fmt:yuvj420p sar:0/1 flags:0x4
02-05 12:29:13.114: D/StoryMaker(10018): Output #0, image2, to '/storage/emulated/0/Android/data/org.storymaker.app/files/render/1423157352338/image-001.jpg':
02-05 12:29:13.122: D/StoryMaker(10018): Metadata:
02-05 12:29:13.122: D/StoryMaker(10018): encoder : Lavf54.6.100
02-05 12:29:13.122: D/StoryMaker(10018): Stream #0:0: Video: mjpeg, yuvj420p, 720x480, q=2-31, 200 kb/s, 90k tbn, 25 tbc
02-05 12:29:13.122: D/StoryMaker(10018): Stream mapping:
02-05 12:29:13.122: D/StoryMaker(10018): Stream #0:0 -> #0:0 (png -> mjpeg)
02-05 12:29:13.122: D/StoryMaker(10018): Press [q] to stop, [?] for help
02-05 12:29:13.364: D/VideoRenderer(10018): frame= 1 fps=0.0 q=6.8 Lsize= 0kB time=00:00:00.04 bitrate= 0.0kbits/s
02-05 12:29:13.364: D/StoryMaker(10018): video:25kB audio:0kB global headers:0kB muxing overhead -100.000000%
02-05 12:29:13.396: D/PublishFragment(10018): frame= 1 fps=0.0 q=6.8 Lsize= 0kB time=00:00:00.04 bitrate= 0.0kbits/s
02-05 12:29:13.419: D/FFMPEG(10018): /data/data/org.storymaker.app/app_bin/ffmpeg -y -i /storage/emulated/0/Android/data/org.storymaker.app/files/render/1423157352338/Screenshot_2015-02-03-16-58-14_thumbnail.png -s 720x480 /storage/emulated/0/Android/data/org.storymaker.app/files/render/1423157352338/image-002.jpg
02-05 12:29:13.466: D/StoryMaker(10018): ffmpeg version 0.11.1 Copyright (c) 2000-2012 the FFmpeg developers
02-05 12:29:13.466: D/StoryMaker(10018): built on Nov 15 2013 00:50:10 with gcc 4.6 20120106 (prerelease)
02-05 12:29:13.474: D/StoryMaker(10018): configuration: --arch=arm --cpu=cortex-a8 --target-os=linux --enable-runtime-cpudetect --enable-small --prefix=/data/data/info.guardianproject.ffmpeg/app_opt --enable-pic --disable-shared --enable-static --cross-prefix=/home/n8fr8/dev/android/ndk//toolchains/arm-linux-androideabi-4.6/prebuilt/linux-x86_64/bin/arm-linux-androideabi- --sysroot=/home/n8fr8/dev/android/ndk//platforms/android-3/arch-arm --extra-cflags='-I../x264 -mfloat-abi=softfp -mfpu=neon' --extra-ldflags=-L../x264 --enable-version3 --enable-gpl --disable-doc --enable-yasm --enable-decoders --enable-encoders --enable-muxers --enable-demuxers --enable-parsers --enable-protocols --enable-filters --enable-avresample --enable-libfreetype --disable-indevs --enable-indev=lavfi --disable-outdevs --enable-hwaccels --enable-ffmpeg --disable-ffplay --disable-ffprobe --disable-ffserver --disable-network --enable-libx264 --enable-zlib --enable-muxer=md5
02-05 12:29:13.474: D/StoryMaker(10018): libavutil 51. 54.100 / 51. 54.100
02-05 12:29:13.474: D/StoryMaker(10018): libavcodec 54. 23.100 / 54. 23.100
02-05 12:29:13.474: D/StoryMaker(10018): libavformat 54. 6.100 / 54. 6.100
02-05 12:29:13.474: D/StoryMaker(10018): libavdevice 54. 0.100 / 54. 0.100
02-05 12:29:13.474: D/StoryMaker(10018): libavfilter 2. 77.100 / 2. 77.100
02-05 12:29:13.474: D/StoryMaker(10018): libswscale 2. 1.100 / 2. 1.100
02-05 12:29:13.474: D/StoryMaker(10018): libswresample 0. 15.100 / 0. 15.100
02-05 12:29:13.474: D/StoryMaker(10018): libpostproc 52. 0.100 / 52. 0.100
02-05 12:29:13.489: D/StoryMaker(10018): Input #0, image2, from '/storage/emulated/0/Android/data/org.storymaker.app/files/render/1423157352338/Screenshot_2015-02-03-16-58-14_thumbnail.png':
02-05 12:29:13.497: D/StoryMaker(10018): Duration: 00:00:00.04, start: 0.000000, bitrate: N/A
02-05 12:29:13.497: D/VideoRenderer(10018): Duration: 00:00:00.04, start: 0.000000, bitrate: N/A
02-05 12:29:13.497: D/StoryMaker(10018): Stream #0:0: Video: png, rgb24, 400x300, 25 tbr, 25 tbn, 25 tbc
02-05 12:29:13.505: D/StoryMaker(10018): [buffer @ 0xbffa80] w:400 h:300 pixfmt:rgb24 tb:1/25 sar:0/1 sws_param:flags=2
02-05 12:29:13.505: D/StoryMaker(10018): [buffersink @ 0xbffbb0] No opaque field provided
02-05 12:29:13.505: D/PublishFragment(10018): Duration: 00:00:00.04, start: 0.000000, bitrate: N/A
02-05 12:29:13.528: D/StoryMaker(10018): [scale @ 0xbffd40] w:400 h:300 fmt:rgb24 sar:0/1 -> w:720 h:480 fmt:yuvj420p sar:0/1 flags:0x4
02-05 12:29:13.528: D/StoryMaker(10018): Output #0, image2, to '/storage/emulated/0/Android/data/org.storymaker.app/files/render/1423157352338/image-002.jpg':
02-05 12:29:13.528: D/StoryMaker(10018): Metadata:
02-05 12:29:13.528: D/StoryMaker(10018): encoder : Lavf54.6.100
02-05 12:29:13.528: D/StoryMaker(10018): Stream #0:0: Video: mjpeg, yuvj420p, 720x480, q=2-31, 200 kb/s, 90k tbn, 25 tbc
02-05 12:29:13.528: D/StoryMaker(10018): Stream mapping:
02-05 12:29:13.536: D/StoryMaker(10018): Stream #0:0 -> #0:0 (png -> mjpeg)
02-05 12:29:13.536: D/StoryMaker(10018): Press [q] to stop, [?] for help
02-05 12:29:13.646: D/VideoRenderer(10018): frame= 1 fps=0.0 q=5.7 Lsize= 0kB time=00:00:00.04 bitrate= 0.0kbits/s
02-05 12:29:13.646: D/StoryMaker(10018): video:18kB audio:0kB global headers:0kB muxing overhead -100.000000%
02-05 12:29:13.653: D/PublishFragment(10018): frame= 1 fps=0.0 q=5.7 Lsize= 0kB time=00:00:00.04 bitrate= 0.0kbits/s
02-05 12:29:13.708: D/FFMPEG(10018): /data/data/org.storymaker.app/app_bin/ffmpeg -y -loop 0 -f image2 -r 1/10 -i /storage/emulated/0/Android/data/org.storymaker.app/files/render/1423157352338/image-%03d.jpg -strict -2 /storage/emulated/0/Android/data/org.storymaker.app/files/render/1423157352338/tmp.mpg
02-05 12:29:13.755: D/StoryMaker(10018): ffmpeg version 0.11.1 Copyright (c) 2000-2012 the FFmpeg developers
02-05 12:29:13.755: D/StoryMaker(10018): built on Nov 15 2013 00:50:10 with gcc 4.6 20120106 (prerelease)
02-05 12:29:13.755: D/StoryMaker(10018): configuration: --arch=arm --cpu=cortex-a8 --target-os=linux --enable-runtime-cpudetect --enable-small --prefix=/data/data/info.guardianproject.ffmpeg/app_opt --enable-pic --disable-shared --enable-static --cross-prefix=/home/n8fr8/dev/android/ndk//toolchains/arm-linux-androideabi-4.6/prebuilt/linux-x86_64/bin/arm-linux-androideabi- --sysroot=/home/n8fr8/dev/android/ndk//platforms/android-3/arch-arm --extra-cflags='-I../x264 -mfloat-abi=softfp -mfpu=neon' --extra-ldflags=-L../x264 --enable-version3 --enable-gpl --disable-doc --enable-yasm --enable-decoders --enable-encoders --enable-muxers --enable-demuxers --enable-parsers --enable-protocols --enable-filters --enable-avresample --enable-libfreetype --disable-indevs --enable-indev=lavfi --disable-outdevs --enable-hwaccels --enable-ffmpeg --disable-ffplay --disable-ffprobe --disable-ffserver --disable-network --enable-libx264 --enable-zlib --enable-muxer=md5
02-05 12:29:13.755: D/StoryMaker(10018): libavutil 51. 54.100 / 51. 54.100
02-05 12:29:13.755: D/StoryMaker(10018): libavcodec 54. 23.100 / 54. 23.100
02-05 12:29:13.755: D/StoryMaker(10018): libavformat 54. 6.100 / 54. 6.100
02-05 12:29:13.755: D/StoryMaker(10018): libavdevice 54. 0.100 / 54. 0.100
02-05 12:29:13.755: D/StoryMaker(10018): libavfilter 2. 77.100 / 2. 77.100
02-05 12:29:13.755: D/StoryMaker(10018): libswscale 2. 1.100 / 2. 1.100
02-05 12:29:13.755: D/StoryMaker(10018): libswresample 0. 15.100 / 0. 15.100
02-05 12:29:13.763: D/StoryMaker(10018): libpostproc 52. 0.100 / 52. 0.100
02-05 12:29:13.786: D/StoryMaker(10018): Input #0, image2, from '/storage/emulated/0/Android/data/org.storymaker.app/files/render/1423157352338/image-%03d.jpg':
02-05 12:29:13.786: D/StoryMaker(10018): Duration: 00:00:30.00, start: 0.000000, bitrate: N/A
02-05 12:29:13.786: D/VideoRenderer(10018): Duration: 00:00:30.00, start: 0.000000, bitrate: N/A
02-05 12:29:13.786: D/StoryMaker(10018): Stream #0:0: Video: mjpeg, yuvj420p, 720x480, 0.10 fps, 0.50 tbr, 0.10 tbn, 0.10 tbc
02-05 12:29:13.794: D/PublishFragment(10018): Duration: 00:00:30.00, start: 0.000000, bitrate: N/A
02-05 12:29:13.794: D/StoryMaker(10018): [buffer @ 0xc12bf0] w:720 h:480 pixfmt:yuvj420p tb:10/1 sar:0/1 sws_param:flags=2
02-05 12:29:13.802: D/StoryMaker(10018): [buffersink @ 0xbfc420] No opaque field provided
02-05 12:29:13.802: D/StoryMaker(10018): [format @ 0xc06870] auto-inserting filter 'auto-inserted scaler 0' between the filter 'src' and the filter 'format'
02-05 12:29:13.802: D/StoryMaker(10018): [scale @ 0xc07a10] w:720 h:480 fmt:yuvj420p sar:0/1 -> w:720 h:480 fmt:yuv420p sar:0/1 flags:0x4
02-05 12:29:13.810: D/StoryMaker(10018): [mpeg @ 0xc05c90] VBV buffer size not set, muxing may fail
02-05 12:29:13.810: D/StoryMaker(10018): Output #0, mpeg, to '/storage/emulated/0/Android/data/org.storymaker.app/files/render/1423157352338/tmp.mpg':
02-05 12:29:13.810: D/StoryMaker(10018): Metadata:
02-05 12:29:13.810: D/StoryMaker(10018): encoder : Lavf54.6.100
02-05 12:29:13.810: D/StoryMaker(10018): Stream #0:0: Video: mpeg1video, yuv420p, 720x480, q=2-31, 200 kb/s, 90k tbn, 5 tbc
02-05 12:29:13.810: D/StoryMaker(10018): Stream mapping:
02-05 12:29:13.810: D/StoryMaker(10018): Stream #0:0 -> #0:0 (mjpeg -> mpeg1video)
02-05 12:29:13.810: D/StoryMaker(10018): Press [q] to stop, [?] for help
02-05 12:29:15.661: D/VideoRenderer(10018): frame= 100 fps=0.0 q=1.6 size= 336kB time=00:00:19.60 bitrate= 140.4kbits/s dup=97 drop=0
02-05 12:29:15.661: D/StoryMaker(10018): video:337kB audio:0kB global headers:0kB muxing overhead 0.763482%
02-05 12:29:15.669: D/VideoRenderer(10018): frame= 100 fps= 54 q=2.0 Lsize= 340kB time=00:00:19.80 bitrate= 140.7kbits/s dup=97 drop=0
02-05 12:29:15.716: D/FFMPEG(10018): /data/data/org.storymaker.app/app_bin/ffmpeg -y -i /storage/emulated/0/Android/data/org.storymaker.app/files/render/1423157352338/tmp.mpg -strict -2 -vcodec mpeg4 -b:v 1500k /storage/emulated/0/Movies/Issue+Highlights05022015122912.mp4
02-05 12:29:15.747: D/PublishFragment(10018): frame= 100 fps=0.0 q=1.6 size= 336kB time=00:00:19.60 bitrate= 140.4kbits/s dup=97 drop=0 6300%
02-05 12:29:15.778: D/StoryMaker(10018): ffmpeg version 0.11.1 Copyright (c) 2000-2012 the FFmpeg developers
02-05 12:29:15.778: D/StoryMaker(10018): built on Nov 15 2013 00:50:10 with gcc 4.6 20120106 (prerelease)
02-05 12:29:15.778: D/StoryMaker(10018): configuration: --arch=arm --cpu=cortex-a8 --target-os=linux --enable-runtime-cpudetect --enable-small --prefix=/data/data/info.guardianproject.ffmpeg/app_opt --enable-pic --disable-shared --enable-static --cross-prefix=/home/n8fr8/dev/android/ndk//toolchains/arm-linux-androideabi-4.6/prebuilt/linux-x86_64/bin/arm-linux-androideabi- --sysroot=/home/n8fr8/dev/android/ndk//platforms/android-3/arch-arm --extra-cflags='-I../x264 -mfloat-abi=softfp -mfpu=neon' --extra-ldflags=-L../x264 --enable-version3 --enable-gpl --disable-doc --enable-yasm --enable-decoders --enable-encoders --enable-muxers --enable-demuxers --enable-parsers --enable-protocols --enable-filters --enable-avresample --enable-libfreetype --disable-indevs --enable-indev=lavfi --disable-outdevs --enable-hwaccels --enable-ffmpeg --disable-ffplay --disable-ffprobe --disable-ffserver --disable-network --enable-libx264 --enable-zlib --enable-muxer=md5
02-05 12:29:15.778: D/StoryMaker(10018): libavutil 51. 54.100 / 51. 54.100
02-05 12:29:15.778: D/StoryMaker(10018): libavcodec 54. 23.100 / 54. 23.100
02-05 12:29:15.778: D/StoryMaker(10018): libavformat 54. 6.100 / 54. 6.100
02-05 12:29:15.778: D/StoryMaker(10018): libavdevice 54. 0.100 / 54. 0.100
02-05 12:29:15.778: D/StoryMaker(10018): libavfilter 2. 77.100 / 2. 77.100
02-05 12:29:15.778: D/StoryMaker(10018): libswscale 2. 1.100 / 2. 1.100
02-05 12:29:15.778: D/StoryMaker(10018): libswresample 0. 15.100 / 0. 15.100
02-05 12:29:15.778: D/StoryMaker(10018): libpostproc 52. 0.100 / 52. 0.100
02-05 12:29:15.802: D/PublishFragment(10018): frame= 100 fps= 54 q=2.0 Lsize= 340kB time=00:00:19.80 bitrate= 140.7kbits/s dup=97 drop=0 6300%
02-05 12:29:15.849: D/StoryMaker(10018): [mpeg @ 0xbfc3b0] max_analyze_duration 5000000 reached at 5000000
02-05 12:29:15.849: D/StoryMaker(10018): Input #0, mpeg, from '/storage/emulated/0/Android/data/org.storymaker.app/files/render/1423157352338/tmp.mpg':
02-05 12:29:15.849: D/StoryMaker(10018): Duration: 00:00:19.80, start: 1.000000, bitrate: 140 kb/s
02-05 12:29:15.849: D/VideoRenderer(10018): Duration: 00:00:19.80, start: 1.000000, bitrate: 140 kb/s
02-05 12:29:15.856: D/StoryMaker(10018): Stream #0:0[0x1e0]: Video: mpeg1video, yuv420p, 720x480 [SAR 1:1 DAR 3:2], 104857 kb/s, 5 fps, 5 tbr, 90k tbn, 5 tbc
02-05 12:29:15.856: D/PublishFragment(10018): Duration: 00:00:19.80, start: 1.000000, bitrate: 140 kb/s
02-05 12:29:15.872: D/StoryMaker(10018): [buffer @ 0xc0b390] w:720 h:480 pixfmt:yuv420p tb:1/90000 sar:1/1 sws_param:flags=2
02-05 12:29:15.872: D/StoryMaker(10018): [buffersink @ 0xc0b560] No opaque field provided
02-05 12:29:15.880: D/StoryMaker(10018): Output #0, mp4, to '/storage/emulated/0/Movies/Issue+Highlights05022015122912.mp4':
02-05 12:29:15.880: D/StoryMaker(10018): Metadata:
02-05 12:29:15.880: D/StoryMaker(10018): encoder : Lavf54.6.100
02-05 12:29:15.880: D/StoryMaker(10018): Stream #0:0: Video: mpeg4 ( [0][0][0] / 0x0020), yuv420p, 720x480 [SAR 1:1 DAR 3:2], q=2-31, 1500 kb/s, 5 tbn, 5 tbc
02-05 12:29:15.880: D/StoryMaker(10018): Stream mapping:
02-05 12:29:15.880: D/StoryMaker(10018): Stream #0:0 -> #0:0 (mpeg1video -> mpeg4)
02-05 12:29:15.880: D/StoryMaker(10018): Press [q] to stop, [?] for help
02-05 12:29:16.927: D/VideoRenderer(10018): frame= 26 fps=0.0 q=2.0 size= 111kB time=00:00:05.20 bitrate= 175.3kbits/s
02-05 12:29:16.942: D/PublishFragment(10018): frame= 26 fps=0.0 q=2.0 size= 111kB time=00:00:05.20 bitrate= 175.3kbits/s 2600%
02-05 12:29:17.435: D/VideoRenderer(10018): frame= 54 fps= 52 q=2.0 size= 218kB time=00:00:10.80 bitrate= 165.7kbits/s
02-05 12:29:17.458: D/PublishFragment(10018): frame= 54 fps= 52 q=2.0 size= 218kB time=00:00:10.80 bitrate= 165.7kbits/s 5200%
02-05 12:29:17.755: D/StoryMaker(10018): video:327kB audio:0kB global headers:0kB muxing overhead 0.372876%
02-05 12:29:17.755: D/VideoRenderer(10018): frame= 83 fps= 54 q=2.0 size= 274kB time=00:00:16.60 bitrate= 135.3kbits/s
02-05 12:29:17.763: D/VideoRenderer(10018): frame= 100 fps= 53 q=2.0 Lsize= 328kB time=00:00:20.00 bitrate= 134.5kbits/s
02-05 12:29:17.771: D/PublishFragment(10018): frame= 83 fps= 54 q=2.0 size= 274kB time=00:00:16.60 bitrate= 135.3kbits/s 8400%
02-05 12:29:17.778: D/JobBase(10018): onSuccess: /storage/emulated/0/Movies/Issue+Highlights05022015122912.mp4
02-05 12:29:17.849: D/RenderService(10018): jobSucceeded: org.storymaker.app.model.Job@42661698, with code: /storage/emulated/0/Movies/Issue+Highlights05022015122912.mp4
02-05 12:29:17.849: D/PublishController(10018): jobSucceeded: org.storymaker.app.model.Job@42661698, with code: /storage/emulated/0/Movies/Issue+Highlights05022015122912.mp4
02-05 12:29:17.849: D/PublisherBase(10018): jobSucceeded: org.storymaker.app.model.Job@42661698
02-05 12:29:17.856: D/PublishFragment(10018): frame= 100 fps= 53 q=2.0 Lsize= 328kB time=00:00:20.00 bitrate= 134.5kbits/s 10500%
02-05 12:29:17.927: D/FacebookPublisher(10018): startUpload
02-05 12:29:18.653: D/FacebookSiteController(10018): Upload file: Entering upload
02-05 12:29:18.677: D/SiteController(10018): don't use tor
02-05 12:29:18.685: D/PublishFragment(10018): Uploading to Facebook...
02-05 12:29:18.716: D/FacebookSiteController(10018): media upload problem. Error= {HttpStatus: -1, errorCode: -1, errorType: null, errorMessage: java.lang.NullPointerException}
02-05 12:29:18.810: D/dalvikvm(385): GC_EXPLICIT freed 1068K, 25% free 19920K/26340K, paused 4ms+11ms, total 109ms
02-05 12:29:18.810: D/JobBase(10018): onFailure: errorCode: 1, with message: 1
02-05 12:29:18.911: D/UploadService(10018): jobFailed: org.storymaker.app.model.Job@41e17680, with errorCode: 1, and errorMessage: {HttpStatus: -1, errorCode: -1, errorType: null, errorMessage: java.lang.NullPointerException}
02-05 12:29:18.911: D/PublishController(10018): jobFailed: org.storymaker.app.model.Job@41e17680, with errorCode: 1, and errorMessage: {HttpStatus: -1, errorCode: -1, errorType: null, errorMessage: java.lang.NullPointerException}
02-05 12:29:18.911: I/iu.UploadsManager(927): NEW; upload media id: 439; iu: -1
02-05 12:29:18.911: I/iu.UploadsManager(927): NEW; add media id: 439
02-05 12:29:18.919: D/PublisherBase(10018): jobFailed: org.storymaker.app.model.Job@41e17680
02-05 12:29:19.106: I/iu.UploadsManager(927): NEW; upload media id: 440; iu: -1
02-05 12:29:19.106: I/iu.UploadsManager(927): NEW; add media id: 440
02-05 12:29:19.122: D/dalvikvm(10018): GC_EXPLICIT freed 3432K, 28% free 70127K/97204K, paused 21ms+18ms, total 201ms
02-05 12:29:19.294: I/iu.UploadsManager(927): NEW; upload media id: 441; iu: -1
02-05 12:29:19.294: I/iu.UploadsManager(927): NEW; add media id: 441
02-05 12:29:19.505: I/iu.UploadsManager(927): NEW; upload media id: 442; iu: -1
02-05 12:29:19.505: I/iu.UploadsManager(927): NEW; add media id: 442
02-05 12:29:19.708: I/iu.UploadsManager(927): NEW; upload media id: 443; iu: -1
02-05 12:29:19.708: I/iu.UploadsManager(927): NEW; add media id: 443
02-05 12:29:19.724: I/iu.UploadsManager(927): End new media; added: 5, uploading: 5, time: 1809 ms
Sign up for free to join this conversation on GitHub. Already have an account? Sign in to comment