Skip to content

Instantly share code, notes, and snippets.

@MoritzLost

MoritzLost/Mediainfo.txt Secret

Created Jun 30, 2016
Embed
What would you like to do?
AZZURRO
General
Complete name : C:\Users\Moritz\Desktop\AZZURRO\VIDEO_TS\AZZURRO_01.mpg
Format : MPEG-PS
File size : 5.06 GiB
Duration : 1h 36mn
Overall bit rate : 7 477 Kbps
Video
ID : 224 (0xE0)
Format : MPEG Video
Format version : Version 2
Format profile : Main@Main
Format settings, BVOP : Yes
Format settings, Matrix : Custom
Format settings, GOP : M=2, N=12
Format settings, picture structure : Frame
Duration : 1h 36mn
Bit rate : 6 880 Kbps
Maximum bit rate : 7 000 Kbps
Width : 720 pixels
Height : 576 pixels
Display aspect ratio : 4:3
Frame rate : 25.000 fps
Standard : PAL
Color space : YUV
Chroma subsampling : 4:2:0
Bit depth : 8 bits
Scan type : Interlaced
Scan order : Top Field First
Compression mode : Lossy
Bits/(Pixel*Frame) : 0.664
Time code of first frame : 10:00:00:00
Time code source : Group of pictures header
GOP, Open/Closed : Closed
Stream size : 4.66 GiB (92%)
Audio
ID : 189 (0xBD)-128 (0x80)
Format : AC-3
Format/Info : Audio Coding 3
Mode extension : CM (complete main)
Format settings, Endianness : Big
Muxing mode : DVD-Video
Duration : 1h 36mn
Bit rate mode : Constant
Bit rate : 448 Kbps
Channel(s) : 2 channels
Channel positions : Front: L R
Sampling rate : 48.0 KHz
Bit depth : 16 bits
Compression mode : Lossy
Stream size : 311 MiB (6%)
Sign up for free to join this conversation on GitHub. Already have an account? Sign in to comment