Create a gist now

Instantly share code, notes, and snippets.

Embed
What would you like to do?
Comparing Instagram videos before and after upload
General
Complete name : /Users/zettt/Desktop/IMG_0292.mov
Format : MPEG-4
Format profile : Base Media / Version 2
Codec ID : mp42
File size : 3.95 MiB
Duration : 9s 643ms
Overall bit rate : 3 437 Kbps
Encoded date : UTC 2015-01-04 14:29:22
Tagged date : UTC 2015-01-04 14:29:25
Video
ID : 1
Format : AVC
Format/Info : Advanced Video Codec
Format profile : High@L4.1
Format settings, CABAC : Yes
Format settings, ReFrames : 2 frames
Codec ID : avc1
Codec ID/Info : Advanced Video Coding
Duration : 9s 643ms
Bit rate : 3 367 Kbps
Width : 640 pixels
Height : 640 pixels
Display aspect ratio : 1.000
Frame rate mode : Variable
Frame rate : 29.970 fps
Minimum frame rate : 28.571 fps
Maximum frame rate : 30.000 fps
Color space : YUV
Chroma subsampling : 4:2:0
Bit depth : 8 bits
Scan type : Progressive
Bits/(Pixel*Frame) : 0.274
Stream size : 3.87 MiB (98%)
Title : Core Media Video
Encoded date : UTC 2015-01-04 14:29:22
Tagged date : UTC 2015-01-04 14:29:25
Color primaries : BT.601 NTSC
Transfer characteristics : BT.709
Matrix coefficients : BT.601
Audio
ID : 2
Format : AAC
Format/Info : Advanced Audio Codec
Format profile : LC
Codec ID : 40
Duration : 9s 641ms
Source duration : 9s 706ms
Bit rate mode : Constant
Bit rate : 64.0 Kbps
Channel(s) : 2 channels
Channel(s)_Original : 1 channel
Channel positions : Front: C
Sampling rate : 44.1 KHz
Compression mode : Lossy
Stream size : 75.0 KiB (2%)
Source stream size : 75.3 KiB (2%)
Title : Core Media Audio
Encoded date : UTC 2015-01-04 14:29:22
Tagged date : UTC 2015-01-04 14:29:25
General
Complete name : /Users/zettt/Desktop/IMG_0291.mp4
Format : MPEG-4
Format profile : Base Media
Codec ID : isom
File size : 5.62 MiB
Duration : 9s 705ms
Overall bit rate mode : Variable
Overall bit rate : 4 859 Kbps
Recorded date : 2015-01-04T15:25:06+0100
Encoded date : UTC 1904-01-01 00:00:00
Tagged date : UTC 1904-01-01 00:00:00
Writing application : Lavf55.33.100
Video
ID : 1
Format : AVC
Format/Info : Advanced Video Codec
Format profile : Baseline@L3.1
Format settings, CABAC : No
Format settings, ReFrames : 1 frame
Codec ID : avc1
Codec ID/Info : Advanced Video Coding
Duration : 9s 610ms
Bit rate : 4 645 Kbps
Width : 640 pixels
Height : 640 pixels
Display aspect ratio : 1.000
Rotation : 90°
Frame rate mode : Constant
Frame rate : 29.970 fps
Color space : YUV
Chroma subsampling : 4:2:0
Bit depth : 8 bits
Scan type : Progressive
Bits/(Pixel*Frame) : 0.378
Stream size : 5.42 MiB (96%)
Writing library : x264 core 142
Encoding settings : cabac=0 / ref=1 / deblock=1:0:0 / analyse=0x1:0x131 / me=dia / subme=2 / psy=0 / mixed_ref=0 / me_range=16 / chroma_me=1 / trellis=0 / 8x8dct=0 / cqm=0 / deadzone=21,11 / fast_pskip=1 / chroma_qp_offset=0 / threads=12 / lookahead_threads=4 / sliced_threads=0 / nr=0 / decimate=1 / interlaced=0 / bluray_compat=0 / constrained_intra=0 / bframes=0 / weightp=0 / keyint=250 / keyint_min=25 / scenecut=40 / intra_refresh=0 / rc_lookahead=40 / rc=abr / mbtree=1 / bitrate=4645 / ratetol=1.0 / qcomp=0.60 / qpmin=10 / qpmax=51 / qpstep=4 / ip_ratio=1.41 / aq=1:1.00
Encoded date : UTC 1904-01-01 00:00:00
Tagged date : UTC 1904-01-01 00:00:00
Audio
ID : 2
Format : AAC
Format/Info : Advanced Audio Codec
Format profile : LC
Codec ID : 40
Duration : 9s 705ms
Duration_LastFrame : -3ms
Bit rate mode : Variable
Bit rate : 165 Kbps
Maximum bit rate : 192 Kbps
Channel(s) : 2 channels
Channel(s)_Original : 1 channel
Channel positions : Front: C
Sampling rate : 48.0 KHz
Compression mode : Lossy
Stream size : 195 KiB (3%)
Encoded date : UTC 1904-01-01 00:00:00
Tagged date : UTC 1904-01-01 00:00:00
Sign up for free to join this conversation on GitHub. Already have an account? Sign in to comment