Skip to content

Instantly share code, notes, and snippets.

Embed
What would you like to do?
General
Complete name : evo-telefono.mp4
Format : MPEG-4
Format profile : Base Media / Version 2
Codec ID : mp42 (isom/mp41/mp42)
File size : 6.41 MiB
Duration : 1 min 2 s
Overall bit rate : 857 kb/s
Encoded date : UTC 2019-11-21 12:31:56
Tagged date : UTC 2019-11-21 12:31:59
Video
ID : 1
Format : AVC
Format/Info : Advanced Video Codec
Format profile : Baseline@L3
Format settings, CABAC : No
Format settings, ReFrames : 1 frame
Format settings, GOP : M=1, N=15
Codec ID : avc1
Codec ID/Info : Advanced Video Coding
Duration : 1 min 2 s
Duration_FirstFrame : -8 ms
Bit rate : 791 kb/s
Width : 480 pixels
Height : 480 pixels
Display aspect ratio : 1.000
Frame rate mode : Constant
Frame rate : 30.000 FPS
Color space : YUV
Chroma subsampling : 4:2:0
Bit depth : 8 bits
Scan type : Progressive
Bits/(Pixel*Frame) : 0.114
Stream size : 5.92 MiB (92%)
Title : Core Media Video
Encoded date : UTC 2019-11-21 12:31:56
Tagged date : UTC 2019-11-21 12:31:59
Color range : Limited
Color primaries : BT.601 NTSC
Transfer characteristics : BT.709
Matrix coefficients : BT.601
Audio
ID : 2
Format : AAC
Format/Info : Advanced Audio Codec
Format profile : LC
Codec ID : 40
Duration : 1 min 2 s
Source duration : 1 min 2 s
Bit rate mode : Constant
Bit rate : 64.0 kb/s
Channel(s) : 2 channels
Channel positions : Front: L R
Sampling rate : 44.1 kHz
Frame rate : 43.066 FPS (1024 spf)
Compression mode : Lossy
Stream size : 478 KiB (7%)
Source stream size : 478 KiB (7%)
Title : Core Media Audio
Encoded date : UTC 2019-11-21 12:31:56
Tagged date : UTC 2019-11-21 12:31:59
Sign up for free to join this conversation on GitHub. Already have an account? Sign in to comment
You can’t perform that action at this time.