Skip to content

Instantly share code, notes, and snippets.

@dracos
Last active Dec 27, 2015
Embed
What would you like to do?
Output of script
$ python broken.py
speeches/fixtures/expected_outputs/mp3/lamb_first_three_seconds.mp3
[Binary data]
Output #0, s16le, to 'pipe:':
Metadata:
encoder : Lavf55.19.104
Stream #0:0: Audio: pcm_s16le, 44100 Hz, stereo, s16, 1411 kb/s
Stream mapping:
Stream #0:0 -> #0:0 (mp3 -> pcm_s16le)
Press [q] to stop, [?] for help
size= 14kB time=00:00:00.07 bitrate=1411.2kbits/s
video:0kB audio:14kB subtitle:0 global headers:0kB muxing overhead 0.000000%
Received signal 15: terminating.
3.0
speeches/fixtures/expected_outputs/mp3/lamb_from_four_seconds_onwards.mp3
Output #0, s16le, to 'pipe:':
Metadata:
encoder : Lavf55.19.104
Stream #0:0: Audio: pcm_s16le, 44100 Hz, stereo, s16, 1411 kb/s
Stream mapping:
Stream #0:0 -> #0:0 (mp3 -> pcm_s16le)
Press [q] to stop, [?] for help
size= 0kB time=00:00:00.00 bitrate=N/A
video:0kB audio:0kB subtitle:0 global headers:0kB muxing overhead nan%
Output file is empty, nothing was encoded (check -ss / -t / -frames parameters if used)
Received signal 15: terminating.
1.0
speeches/fixtures/expected_outputs/mp3/lamb_from_three_to_four_seconds.mp3
Output #0, s16le, to 'pipe:':
Metadata:
track : 1
genre : Other
encoder : Lavf55.19.104
Stream #0:0: Audio: pcm_s16le, 44100 Hz, stereo, s16, 1411 kb/s
Stream mapping:
Stream #0:0 -> #0:0 (mp3 -> pcm_s16le)
Press [q] to stop, [?] for help
size= 0kB time=00:00:00.00 bitrate=N/A
video:0kB audio:0kB subtitle:0 global headers:0kB muxing overhead nan%
Output file is empty, nothing was encoded (check -ss / -t / -frames parameters if used)
Received signal 15: terminating.
1.0
speeches/fixtures/expected_outputs/mp3/lamb_mp3_from_3gp.mp3
^CException KeyboardInterrupt: KeyboardInterrupt() in <bound method FFmpegAudioFile.__del__ of <audioread.ffdec.FFmpegAudioFile object at 0x10a883f90>> ignored
6.0
speeches/fixtures/expected_outputs/mp3/lamb_mp3_from_iphone.mp3
Output #0, s16le, to 'pipe:':
Metadata:
encoder : Lavf55.19.104
Stream #0:0: Audio: pcm_s16le, 8000 Hz, mono, s16, 128 kb/s
Stream mapping:
Stream #0:0 -> #0:0 (mp3 -> pcm_s16le)
Press [q] to stop, [?] for help
size= 0kB time=00:00:00.00 bitrate=N/A
video:0kB audio:0kB subtitle:0 global headers:0kB muxing overhead nan%
Output file is empty, nothing was encoded (check -ss / -t / -frames parameters if used)
Received signal 15: terminating.
5.0
speeches/fixtures/expected_outputs/mp3/lamb_mp3_from_stereo.mp3
Output #0, s16le, to 'pipe:':
Metadata:
encoder : Lavf55.19.104
Stream #0:0: Audio: pcm_s16le, 44100 Hz, stereo, s16, 1411 kb/s
Stream mapping:
Stream #0:0 -> #0:0 (mp3 -> pcm_s16le)
Press [q] to stop, [?] for help
size= 0kB time=00:00:00.00 bitrate=N/A
video:0kB audio:0kB subtitle:0 global headers:0kB muxing overhead nan%
Output file is empty, nothing was encoded (check -ss / -t / -frames parameters if used)
Received signal 15: terminating.
5.0
speeches/fixtures/expected_outputs/mp3/lamb_whole.mp3
[Binary data]
5.0
$ python broken.py
speeches/fixtures/expected_outputs/mp3/lamb_first_three_seconds.mp3
[Binary output]
Output #0, s16le, to 'pipe:':
Metadata:
encoder : Lavf55.19.104
Stream #0:0: Audio: pcm_s16le, 44100 Hz, stereo, s16, 1411 kb/s
Stream mapping:
Stream #0:0 -> #0:0 (mp3 -> pcm_s16le)
Press [q] to stop, [?] for help
size= 27kB time=00:00:00.15 bitrate=1411.2kbits/s
video:0kB audio:27kB subtitle:0 global headers:0kB muxing overhead 0.000000%
Received signal 15: terminating.
3.0
speeches/fixtures/expected_outputs/mp3/lamb_from_four_seconds_onwards.mp3
[Binary output]
1.0
Output #0, s16le, to 'pipe:':
Metadata:
encoder : Lavf55.19.104
Stream #0:0: Audio: pcm_s16le, 44100 Hz, stereo, s16, 1411 kb/s
Stream mapping:
Stream #0:0 -> #0:0 (mp3 -> pcm_s16le)
Press [q] to stop, [?] for help
size= 0kB time=00:00:00.00 bitrate=N/A
video:0kB audio:0kB subtitle:0 global headers:0kB muxing overhead nan%
Output file is empty, nothing was encoded (check -ss / -t / -frames parameters if used)
Received signal 15: terminating.
speeches/fixtures/expected_outputs/mp3/lamb_from_three_to_four_seconds.mp3
Output #0, s16le, to 'pipe:':
Metadata:
track : 1
genre : Other
encoder : Lavf55.19.104
Stream #0:0: Audio: pcm_s16le, 44100 Hz, stereo, s16, 1411 kb/s
Stream mapping:
Stream #0:0 -> #0:0 (mp3 -> pcm_s16le)
Press [q] to stop, [?] for help
size= 0kB time=00:00:00.00 bitrate=N/A
video:0kB audio:0kB subtitle:0 global headers:0kB muxing overhead nan%
Output file is empty, nothing was encoded (check -ss / -t / -frames parameters if used)
Received signal 15: terminating.
1.0
speeches/fixtures/expected_outputs/mp3/lamb_mp3_from_3gp.mp3
[Binary data]
Output #0, s16le, to 'pipe:':
Metadata:
major_brand : 3gp4
minor_version : 768
compatible_brands: 3gp43gp6
copyright-eng :
encoder : Lavf55.19.104
Stream #0:0: Audio: pcm_s16le, 8000 Hz, mono, s16, 128 kb/s
Stream mapping:
Stream #0:0 -> #0:0 (mp3 -> pcm_s16le)
Press [q] to stop, [?] for help
size= 3kB time=00:00:00.21 bitrate= 128.0kbits/s
video:0kB audio:3kB subtitle:0 global headers:0kB muxing overhead 0.000000%
Received signal 15: terminating.
??????
6.0
speeches/fixtures/expected_outputs/mp3/lamb_mp3_from_iphone.mp3
Output #0, s16le, to 'pipe:':
Metadata:
encoder : Lavf55.19.104
Stream #0:0: Audio: pcm_s16le, 8000 Hz, mono, s16, 128 kb/s
Stream mapping:
Stream #0:0 -> #0:0 (mp3 -> pcm_s16le)
Press [q] to stop, [?] for help
size= 0kB time=00:00:00.00 bitrate=N/A
video:0kB audio:0kB subtitle:0 global headers:0kB muxing overhead nan%
Output file is empty, nothing was encoded (check -ss / -t / -frames parameters if used)
Received signal 15: terminating.
5.0
speeches/fixtures/expected_outputs/mp3/lamb_mp3_from_stereo.mp3
Output #0, s16le, to 'pipe:':
Metadata:
encoder : Lavf55.19.104
Stream #0:0: Audio: pcm_s16le, 44100 Hz, stereo, s16, 1411 kb/s
Stream mapping:
Stream #0:0 -> #0:0 (mp3 -> pcm_s16le)
Press [q] to stop, [?] for help
size= 0kB time=00:00:00.00 bitrate=N/A
video:0kB audio:0kB subtitle:0 global headers:0kB muxing overhead nan%
Output file is empty, nothing was encoded (check -ss / -t / -frames parameters if used)
Received signal 15: terminating.
5.0
speeches/fixtures/expected_outputs/mp3/lamb_whole.mp3
Output #0, s16le, to 'pipe:':
Metadata:
encoder : Lavf55.19.104
Stream #0:0: Audio: pcm_s16le, 44100 Hz, stereo, s16, 1411 kb/s
Stream mapping:
Stream #0:0 -> #0:0 (mp3 -> pcm_s16le)
Press [q] to stop, [?] for help
size= 0kB time=00:00:00.00 bitrate=N/A
video:0kB audio:0kB subtitle:0 global headers:0kB muxing overhead nan%
Output file is empty, nothing was encoded (check -ss / -t / -frames parameters if used)
Received signal 15: terminating.
5.0
Sign up for free to join this conversation on GitHub. Already have an account? Sign in to comment