Skip to content

Instantly share code, notes, and snippets.

Embed
What would you like to do?
HandBrake Nightly 20180507165526-801d3ed (2018050701) - 64bit
OS: Microsoft Windows NT 10.0.17666.0 - 64bit
CPU: Intel(R) Xeon(R) CPU E3-1245 v6 @ 3.70GHz
Ram: 16271 MB,
GPU Information:
Intel(R) HD Graphics P630 - 23.20.16.4973
Screen: 3840x2160
Temp Dir: C:\Users\Frederick\AppData\Local\Temp\
Install Dir: C:\Program Files\HandBrake Nightly
Data Dir: C:\Users\Frederick\AppData\Roaming\HandBrake Team\HandBrake\1.2.0.0
-------------------------------------------
# Starting Encode ...
[13:36:25] hb_init: starting libhb thread
[13:36:26] 1 job(s) to process
[13:36:26] json job:
{
"Audio": {
"AudioList": [
{
"DRC": 0.0,
"Encoder": 1125984256,
"Gain": 0.0,
"Mixdown": -1,
"NormalizeMixLevel": false,
"Samplerate": 48000,
"Track": 0,
"DitherMethod": 0
}
],
"CopyMask": [
1073807360,
1073743872,
1074003968,
1073750016,
1090519040,
1074790400,
1074266112,
1107296256
],
"FallbackEncoder": 2048
},
"Destination": {
"ChapterList": [],
"ChapterMarkers": false,
"AlignAVStart": false,
"File": "S:\\Render\\JAG Season 10\\JAG 10x01.encode.mkv",
"Mp4Options": {
"IpodAtom": false,
"Mp4Optimize": false
},
"Mux": 2097152
},
"Filters": {
"FilterList": [
{
"ID": 11,
"Settings": {
"crop-bottom": "0",
"crop-left": "0",
"crop-right": "0",
"crop-top": "0",
"height": "480",
"width": "720"
}
},
{
"ID": 6,
"Settings": {
"mode": "0"
}
}
]
},
"PAR": {
"Num": 32,
"Den": 27
},
"Metadata": {},
"SequenceID": 0,
"Source": {
"Angle": 1,
"Range": {
"Type": "time",
"Start": 0,
"End": 2700000
},
"Title": 1,
"Path": "D:\\Render\\JAG Season 10\\JAG 10x01.mkv"
},
"Subtitle": {
"Search": {
"Burn": false,
"Default": false,
"Enable": false,
"Forced": false
},
"SubtitleList": []
},
"Video": {
"Encoder": 128,
"Level": "auto",
"TwoPass": false,
"Turbo": false,
"ColorMatrixCode": 0,
"Options": "",
"Preset": "medium",
"Quality": 63.0,
"HWDecode": false,
"QSV": {
"Decode": false,
"AsyncDepth": 0
}
}
}
[13:36:26] CPU: Intel(R) Xeon(R) CPU E3-1245 v6 @ 3.70GHz
[13:36:26] - Intel microarchitecture Kaby Lake
[13:36:26] - logical processor count: 8
[13:36:26] Intel Quick Sync Video support: yes
[13:36:26] - Intel Media SDK hardware: API 1.25 (minimum: 1.3)
[13:36:26] - H.264 encoder: yes
[13:36:26] - preferred implementation: hardware (any) via D3D11
[13:36:26] - capabilities (hardware): breftype icq+la+i+downs vsinfo opt1 opt2+mbbrc+extbrc+trellis+ib_adapt+nmpslice
[13:36:26] - H.265 encoder: yes (8bit: yes, 10bit: yes)
[13:36:26] - preferred implementation: hardware (any) via D3D11
[13:36:26] - capabilities (hardware): bpyramid icq vsinfo opt1
[13:36:26] hb_scan: path=D:\Render\JAG Season 10\JAG 10x01.mkv, title_index=1
udfread ERROR: ECMA 167 Volume Recognition failed
src/libbluray/disc/disc.c:323: failed opening UDF image D:\Render\JAG Season 10\JAG 10x01.mkv
src/libbluray/disc/disc.c:424: error opening file BDMV\index.bdmv
src/libbluray/disc/disc.c:424: error opening file BDMV\BACKUP\index.bdmv
[13:36:26] bd: not a bd - trying as a stream/file instead
libdvdnav: Using dvdnav version 5.0.3
libdvdread:DVDOpenFileUDF:UDFFindFile /VIDEO_TS/VIDEO_TS.IFO failed
libdvdread:DVDOpenFileUDF:UDFFindFile /VIDEO_TS/VIDEO_TS.BUP failed
libdvdread: Can't open file VIDEO_TS.IFO.
libdvdnav: vm: failed to read VIDEO_TS.IFO
[13:36:26] dvd: not a dvd - trying as a stream/file instead
Input #0, matroska,webm, from 'D:\Render\JAG Season 10\JAG 10x01.mkv':
Metadata:
CREATION_TIME : 2018-05-09T03:06:17Z
ENCODER : Lavf57.7.2
Duration: 00:44:20.18, start: 0.000000, bitrate: N/A
Chapter #0:0: start 0.000000, end 72.764000
Metadata:
title : Chapter 1
Chapter #0:1: start 72.764000, end 120.103000
Metadata:
title : Chapter 2
Chapter #0:2: start 120.103000, end 889.372000
Metadata:
title : Chapter 3
Chapter #0:3: start 889.372000, end 1384.158000
Metadata:
title : Chapter 4
Chapter #0:4: start 1384.158000, end 2024.915000
Metadata:
title : Chapter 5
Chapter #0:5: start 2024.915000, end 2630.895000
Metadata:
title : Chapter 6
Chapter #0:6: start 2630.895000, end 2660.099000
Metadata:
title : Chapter 7
Stream #0:0: Video: hevc (Main)
yuv420p, tv, smpte170m/smpte170m/bt709
720x480 [PAR 32:27 DAR 16:9], PAR 186:157 DAR 279:157
23.98 fps, 1k tbn (default)
Stream #0:1(eng): Audio: aac (LC)
48000 Hz, stereo, fltp (default)
Metadata:
title : Stereo
Stream #0:2(eng): Subtitle: ssa
[13:36:26] scan: decoding previews for title 1
[13:36:26] scan: audio 0x1: aac, rate=48000Hz, bitrate=1 English (AAC) (2.0 ch)
[13:36:26] scan: 10 previews, 720x480, 23.976 fps, autocrop = 0/0/2/0, aspect 16:9, PAR 32:27
[13:36:26] scan: supported video decoders: avcodec qsv
[13:36:26] libhb: scan thread found 1 valid title(s)
[13:36:26] starting job
[13:36:26] Auto Passthru: allowed codecs are AAC, AC3, E-AC3, TrueHD, DTS, DTS-HD, MP3, FLAC
[13:36:26] Auto Passthru: fallback is AC3
[13:36:26] Auto Passthru: using AAC Passthru for track 1
[13:36:26] job configuration:
[13:36:26] * source
[13:36:26] + D:\Render\JAG Season 10\JAG 10x01.mkv
[13:36:26] + title 1, start 00:00:0.00 stop 00:00:30.00
[13:36:26] + container: matroska,webm
[13:36:26] * destination
[13:36:26] + S:\Render\JAG Season 10\JAG 10x01.encode.mkv
[13:36:26] + container: Matroska (libavformat)
[13:36:26] * video track
[13:36:26] + decoder: hevc
[13:36:26] + filters
[13:36:26] + Framerate Shaper (mode=0)
[13:36:26] + frame rate: same as source (around 23.976 fps)
[13:36:26] + Crop and Scale (width=720:height=480:crop-top=0:crop-bottom=0:crop-left=0:crop-right=0)
[13:36:26] + source: 720 * 480, crop (0/0/0/0): 720 * 480, scale: 720 * 480
[13:36:26] + Output geometry
[13:36:26] + storage dimensions: 720 x 480
[13:36:26] + pixel aspect ratio: 32 : 27
[13:36:26] + display dimensions: 853 x 480
[13:36:26] + encoder: VP9 (libvpx)
[13:36:26] + preset: medium
[13:36:26] + quality: 63.00 (CQ)
[13:36:26] * audio track 1
[13:36:26] + decoder: English (AAC) (2.0 ch) (track 1, id 0x1)
[13:36:26] + samplerate: 48000 Hz
[13:36:26] + AAC Passthru
[13:36:26] sync: expecting 743 video frames
[13:36:26] encavcodecInit: VP9 encoder
[13:36:26] encavcodec: encoding at CQ 63.00
[13:36:26] encavcodec: encoding with stored aspect 32/27
[13:36:26] sync: first pts audio 0x1 is 0
[13:36:26] sync: first pts video is 3870
[13:36:26] sync: "Chapter 1" (1) at frame 1 time 3870
[13:37:55] sync: reached audio 0x1 pts 2701440, exiting early
[13:37:55] sync: reached video pts 2702032, exiting early
[13:38:01] work: average encoding speed for job is 8.047884 fps
[13:38:02] vfr: lost time: 0 (0 frames)
[13:38:02] vfr: gained time: 0 (0 frames) (0 not accounted for)
[13:38:02] aac-decoder done: 5507 frames, 0 decoder errors
[13:38:02] hevc-decoder done: 2799 frames, 0 decoder errors
[13:38:02] sync: got 719 frames, 743 expected
[13:38:02] sync: framerate min 23.981 fps, max 30.303 fps, avg 23.983 fps
[13:38:02] mux: track 0, 719 frames, 30757966 bytes, 8182.57 kbps, fifo 512
[13:38:02] mux: track 1, 1407 frames, 600775 bytes, 159.82 kbps, fifo 1024
[13:38:02] libhb: work result = 0
# Encode Completed ...
Sign up for free to join this conversation on GitHub. Already have an account? Sign in to comment