Skip to content

Instantly share code, notes, and snippets.

Embed
What would you like to do?
General
Complete name : /path/to/140612_Canon-00000.MTS.mp4
Format : MPEG-4
Format profile : Base Media
Codec ID : isom
File size : 32.9 MiB
Duration : 2mn 0s
Overall bit rate mode : Variable
Overall bit rate : 2 294 Kbps
Encoded date : UTC 2014-07-14 14:21:21
Tagged date : UTC 2014-07-14 14:21:21
Video
ID : 1
Format : AVC
Format/Info : Advanced Video Codec
Format profile : High@L4.0
Format settings, CABAC : Yes
Format settings, ReFrames : 2 frames
Format settings, GOP : M=3, N=15
Codec ID : avc1
Codec ID/Info : Advanced Video Coding
Duration : 2mn 0s
Bit rate mode : Variable
Bit rate : 2 229 Kbps
Maximum bit rate : 12.0 Mbps
Width : 1 440 pixels
Height : 1 080 pixels
Display aspect ratio : 16:9
Frame rate mode : Constant
Frame rate : 29.970 fps
Color space : YUV
Chroma subsampling : 4:2:0
Bit depth : 8 bits
Scan type : Interlaced
Scan order : Top Field First
Bits/(Pixel*Frame) : 0.048
Stream size : 31.9 MiB (97%)
Title : 140612_Canon-00000.MTS.h264:fps=29.97 - Imported with GPAC 0.5.0-rev4065
Encoded date : UTC 2014-07-14 14:21:21
Tagged date : UTC 2014-07-14 14:21:21
Audio
ID : 2
Format : AAC
Format/Info : Advanced Audio Codec
Format profile : LC
Codec ID : 40
Duration : 1mn 0s
Bit rate mode : Variable
Bit rate : 125 Kbps
Maximum bit rate : 148 Kbps
Channel(s) : 2 channels
Channel positions : Front: L R
Sampling rate : 48.0 KHz
Compression mode : Lossy
Stream size : 919 KiB (3%)
Title : 140612_Canon-00000.MTS.aac - Imported with GPAC 0.5.0-rev4065
Encoded date : UTC 2014-07-14 14:21:21
Tagged date : UTC 2014-07-14 14:21:21
Sign up for free to join this conversation on GitHub. Already have an account? Sign in to comment
You can’t perform that action at this time.