Skip to content

Instantly share code, notes, and snippets.

Embed
What would you like to do?
Complete ffmpeg output
ffmpeg version 4.2.3 Copyright (c) 2000-2020 the FFmpeg developers
built with Apple clang version 11.0.3 (clang-1103.0.32.59)
configuration: --prefix=/usr/local/Cellar/ffmpeg/4.2.3_1 --enable-shared --enable-pthreads --enable-version3 --enable-avresample --cc=clang --host-cflags=-fno-stack-check --host-ldflags= --enable-ffplay --enable-gnutls --enable-gpl --enable-libaom --enable-libbluray --enable-libdav1d --enable-libmp3lame --enable-libopus --enable-librubberband --enable-libsnappy --enable-libsrt --enable-libtesseract --enable-libtheora --enable-libvidstab --enable-libvorbis --enable-libvpx --enable-libwebp --enable-libx264 --enable-libx265 --enable-libxvid --enable-lzma --enable-libfontconfig --enable-libfreetype --enable-frei0r --enable-libass --enable-libopencore-amrnb --enable-libopencore-amrwb --enable-libopenjpeg --enable-librtmp --enable-libspeex --enable-libsoxr --enable-videotoolbox --disable-libjack --disable-indev=jack
libavutil 56. 31.100 / 56. 31.100
libavcodec 58. 54.100 / 58. 54.100
libavformat 58. 29.100 / 58. 29.100
libavdevice 58. 8.100 / 58. 8.100
libavfilter 7. 57.100 / 7. 57.100
libavresample 4. 0. 0 / 4. 0. 0
libswscale 5. 5.100 / 5. 5.100
libswresample 3. 5.100 / 3. 5.100
libpostproc 55. 5.100 / 55. 5.100
Input #0, mov,mp4,m4a,3gp,3g2,mj2, from 'ESW2.mp4':
Metadata:
major_brand : isom
minor_version : 512
compatible_brands: isomiso2avc1mp41
title : -
artist : -
encoder : Lavf58.29.100
description : -
Duration: 02:02:17.95, start: 0.000000, bitrate: 711 kb/s
Stream #0:0(eng): Video: h264 (High) (avc1 / 0x31637661), yuv420p, 960x720 [SAR 1:1 DAR 4:3], 607 kb/s, 25 fps, 25 tbr, 12800 tbn, 50 tbc (default)
Metadata:
handler_name : Mainconcept MP4 Video Media Handler
Stream #0:1(eng): Audio: aac (LC) (mp4a / 0x6134706D), 44100 Hz, stereo, fltp, 97 kb/s (default)
Metadata:
handler_name : Mainconcept MP4 Sound Media Handler
Stream mapping:
Stream #0:0 (h264) -> trim
Stream #0:0 (h264) -> trim
Stream #0:0 (h264) -> trim
Stream #0:0 (h264) -> trim
Stream #0:0 (h264) -> trim
Stream #0:0 (h264) -> trim
Stream #0:0 (h264) -> trim
Stream #0:0 (h264) -> trim
Stream #0:0 (h264) -> trim
Stream #0:0 (h264) -> trim
Stream #0:0 (h264) -> trim
Stream #0:0 (h264) -> trim
Stream #0:0 (h264) -> trim
Stream #0:0 (h264) -> trim
Stream #0:0 (h264) -> trim
Stream #0:0 (h264) -> trim
Stream #0:0 (h264) -> trim
Stream #0:0 (h264) -> trim
Stream #0:0 (h264) -> trim
Stream #0:0 (h264) -> trim
Stream #0:0 (h264) -> trim
Stream #0:0 (h264) -> trim
Stream #0:0 (h264) -> trim
Stream #0:0 (h264) -> trim
Stream #0:0 (h264) -> trim
Stream #0:0 (h264) -> trim
Stream #0:1 (aac) -> atrim
Stream #0:1 (aac) -> atrim
Stream #0:1 (aac) -> atrim
Stream #0:1 (aac) -> atrim
Stream #0:1 (aac) -> atrim
Stream #0:1 (aac) -> atrim
Stream #0:1 (aac) -> atrim
Stream #0:1 (aac) -> atrim
Stream #0:1 (aac) -> atrim
Stream #0:1 (aac) -> atrim
Stream #0:1 (aac) -> atrim
Stream #0:1 (aac) -> atrim
Stream #0:1 (aac) -> atrim
Stream #0:1 (aac) -> atrim
Stream #0:1 (aac) -> atrim
Stream #0:1 (aac) -> atrim
Stream #0:1 (aac) -> atrim
Stream #0:1 (aac) -> atrim
Stream #0:1 (aac) -> atrim
Stream #0:1 (aac) -> atrim
Stream #0:1 (aac) -> atrim
Stream #0:1 (aac) -> atrim
Stream #0:1 (aac) -> atrim
Stream #0:1 (aac) -> atrim
Stream #0:1 (aac) -> atrim
Stream #0:1 (aac) -> atrim
concat:out:v0 -> Stream #0:0 (libx264)
concat:out:a0 -> Stream #0:1 (aac)
Press [q] to stop, [?] for help
-async is forwarded to lavfi similarly to -af aresample=async=1:min_hard_comp=0.100000:first_pts=0.
Last message repeated 25 times
[libx264 @ 0x7fdb7f054e00] using SAR=1/1
[libx264 @ 0x7fdb7f054e00] using cpu capabilities: MMX2 SSE2Fast SSSE3 SSE4.2 AVX FMA3 BMI2 AVX2
[libx264 @ 0x7fdb7f054e00] profile High, level 3.1, 4:2:0, 8-bit
[libx264 @ 0x7fdb7f054e00] 264 - core 159 r2999 296494a - H.264/MPEG-4 AVC codec - Copyleft 2003-2020 - http://www.videolan.org/x264.html - options: cabac=1 ref=3 deblock=1:0:0 analyse=0x3:0x113 me=hex subme=7 psy=1 psy_rd=1.00:0.00 mixed_ref=1 me_range=16 chroma_me=1 trellis=1 8x8dct=1 cqm=0 deadzone=21,11 fast_pskip=1 chroma_qp_offset=-2 threads=12 lookahead_threads=2 sliced_threads=0 nr=0 decimate=1 interlaced=0 bluray_compat=0 constrained_intra=0 bframes=3 b_pyramid=2 b_adapt=1 b_bias=0 direct=1 weightb=1 open_gop=0 weightp=2 keyint=250 keyint_min=25 scenecut=40 intra_refresh=0 rc_lookahead=40 rc=crf mbtree=1 crf=23.0 qcomp=0.60 qpmin=0 qpmax=69 qpstep=4 ip_ratio=1.40 aq=1:1.00
Output #0, mp4, to 'video_parts/infb4_4.mp4':
Metadata:
major_brand : isom
minor_version : 512
compatible_brands: isomiso2avc1mp41
title : -
artist : -
description : -
encoder : Lavf58.29.100
Stream #0:0: Video: h264 (libx264) (avc1 / 0x31637661), yuv420p(progressive), 960x720 [SAR 1:1 DAR 4:3], q=-1--1, 25 fps, 12800 tbn, 25 tbc (default)
Metadata:
encoder : Lavc58.54.100 libx264
Side data:
cpb: bitrate max/min/avg: 0/0/0 buffer size: 0 vbv_delay: -1
Stream #0:1: Audio: aac (LC) (mp4a / 0x6134706D), 44100 Hz, stereo, fltp, 128 kb/s (default)
Metadata:
encoder : Lavc58.54.100 aac
frame= 139 fps=0.0 q=28.0 size= 0kB time=00:00:05.85 bitrate= 0.1kbits/s speed=11.7x
frame= 334 fps=334 q=28.0 size= 256kB time=00:00:13.58 bitrate= 154.4kbits/s dup=0 drop=26 speed=13.6x
Error while filtering: Cannot allocate memory
Failed to inject frame into filter network: Cannot allocate memory
Error while processing the decoded data for stream #0:1
[libx264 @ 0x7fdb7f054e00] frame I:2 Avg QP:15.45 size: 81838
[libx264 @ 0x7fdb7f054e00] frame P:78 Avg QP:16.63 size: 288
[libx264 @ 0x7fdb7f054e00] frame B:225 Avg QP:22.22 size: 66
[libx264 @ 0x7fdb7f054e00] consecutive B-frames: 1.0% 1.3% 1.0% 96.7%
[libx264 @ 0x7fdb7f054e00] mb I I16..4: 46.7% 14.3% 39.0%
[libx264 @ 0x7fdb7f054e00] mb P I16..4: 0.0% 0.0% 0.0% P16..4: 1.7% 0.1% 0.0% 0.0% 0.0% skip:98.1%
[libx264 @ 0x7fdb7f054e00] mb B I16..4: 0.0% 0.1% 0.0% B16..8: 0.7% 0.0% 0.0% direct: 0.0% skip:99.2% L0:40.2% L1:59.6% BI: 0.2%
[libx264 @ 0x7fdb7f054e00] 8x8 transform intra:21.2% inter:49.5%
[libx264 @ 0x7fdb7f054e00] coded y,uvDC,uvAC intra: 25.2% 38.8% 37.4% inter: 0.1% 0.3% 0.1%
[libx264 @ 0x7fdb7f054e00] i16 v,h,dc,p: 81% 18% 1% 0%
[libx264 @ 0x7fdb7f054e00] i8 v,h,dc,ddl,ddr,vr,hd,vl,hu: 45% 9% 45% 1% 0% 0% 0% 0% 1%
[libx264 @ 0x7fdb7f054e00] i4 v,h,dc,ddl,ddr,vr,hd,vl,hu: 44% 24% 8% 2% 4% 5% 5% 3% 5%
[libx264 @ 0x7fdb7f054e00] i8c dc,h,v,p: 59% 26% 12% 3%
[libx264 @ 0x7fdb7f054e00] Weighted P-Frames: Y:0.0% UV:0.0%
[libx264 @ 0x7fdb7f054e00] ref P L0: 89.3% 4.7% 3.9% 2.2%
[libx264 @ 0x7fdb7f054e00] ref B L0: 62.4% 35.8% 1.8%
[libx264 @ 0x7fdb7f054e00] ref B L1: 96.8% 3.2%
[libx264 @ 0x7fdb7f054e00] kb/s:131.74
[aac @ 0x7fdb7f00d400] Qavg: 1313.379
[aac @ 0x7fdb7f00d400] 2 frames left in the queue on closing
Conversion failed!
Sign up for free to join this conversation on GitHub. Already have an account? Sign in to comment