Skip to content

Instantly share code, notes, and snippets.

Embed
What would you like to do?
Bunch of FFMPEG debug stuff.
root@handler-nzdri:/tmp# cat /proc/meminfo
MemTotal: 7368688 kB
MemFree: 1444716 kB
MemAvailable: 6566060 kB
Buffers: 217740 kB
Cached: 4747756 kB
SwapCached: 0 kB
Active: 2687652 kB
Inactive: 2560684 kB
Active(anon): 285556 kB
Inactive(anon): 184 kB
Active(file): 2402096 kB
Inactive(file): 2560500 kB
Unevictable: 3440 kB
Mlocked: 3440 kB
SwapTotal: 0 kB
SwapFree: 0 kB
Dirty: 76 kB
Writeback: 0 kB
AnonPages: 286340 kB
Mapped: 103028 kB
Shmem: 704 kB
Slab: 450868 kB
SReclaimable: 412164 kB
SUnreclaim: 38704 kB
KernelStack: 4352 kB
PageTables: 5160 kB
NFS_Unstable: 0 kB
Bounce: 0 kB
WritebackTmp: 0 kB
CommitLimit: 3684344 kB
Committed_AS: 1013664 kB
VmallocTotal: 34359738367 kB
VmallocUsed: 16948 kB
VmallocChunk: 34359609548 kB
HardwareCorrupted: 0 kB
AnonHugePages: 0 kB
HugePages_Total: 0
HugePages_Free: 0
HugePages_Rsvd: 0
HugePages_Surp: 0
Hugepagesize: 2048 kB
DirectMap4k: 91124 kB
DirectMap2M: 4313088 kB
DirectMap1G: 3145728 kB
$> top
top - 18:36:45 up 12 days, 17:41, 2 users, load average: 8.26, 3.82, 1.63
Tasks: 151 total, 1 running, 150 sleeping, 0 stopped, 0 zombie
%Cpu(s): 16.0 us, 0.7 sy, 68.4 ni, 14.8 id, 0.0 wa, 0.0 hi, 0.0 si, 0.0 st
KiB Mem: 7368688 total, 6964568 used, 404120 free, 217744 buffers
KiB Swap: 0 total, 0 used, 0 free, 5405952 cached
PID USER PR NI VIRT RES SHR S %CPU %MEM TIME+ COMMAND
22482 root 20 0 2113m 230m 13m S 676.2 3.2 17:41.60 ffmpeg
ffmpeg -y -ss 0.846 -i /tmp/f5543c87-77f5-466a-9f9f-4ba8b40fae03.webm -ss 1.863 -i /tmp/f6cf2730-bfb3-40e5-aef6-3a03ca24333d.webm -filter_complex '[0:v]pad=640*2:480[left];[left][1:v]overlay=x=640+(640-w)/2:y=(480-h)/2;amix' -async 1 -r 24 -shortest -flags +global_header /tmp/4a387f3ba0944aa19eeac0332f15ec53.mp4 &> ffmpeg.log
ffmpeg version git-2015-11-09-480bad7 Copyright (c) 2000-2015 the FFmpeg developers
built with gcc 4.8 (Ubuntu 4.8.4-2ubuntu1~14.04)
configuration: --extra-libs=-ldl --enable-gpl --enable-libass --enable-libfdk-aac --enable-libmp3lame --enable-libopus --enable-libtheora --enable-libvorbis --enable-libvpx --enable-libx264 --enable-libx265 --enable-nonfree
libavutil 55. 5.100 / 55. 5.100
libavcodec 57. 15.100 / 57. 15.100
libavformat 57. 14.100 / 57. 14.100
libavdevice 57. 0.100 / 57. 0.100
libavfilter 6. 15.100 / 6. 15.100
libswscale 4. 0.100 / 4. 0.100
libswresample 2. 0.101 / 2. 0.101
libpostproc 54. 0.100 / 54. 0.100
Input #0, matroska,webm, from '/tmp/f5543c87-77f5-466a-9f9f-4ba8b40fae03.webm':
Metadata:
encoder : libwebm-0.2.1.0
creation_time : 2015-12-16 18:15:50
Duration: 00:18:07.24, start: 0.000000, bitrate: 989 kb/s
Stream #0:0(eng): Audio: opus, 48000 Hz, mono, fltp (default)
Stream #0:1(eng): Video: vp8, yuv420p, 640x480, SAR 1:1 DAR 4:3, 15 tbr, 1k tbn, 1k tbc (default)
Input #1, matroska,webm, from '/tmp/f6cf2730-bfb3-40e5-aef6-3a03ca24333d.webm':
Metadata:
encoder : libwebm-0.2.1.0
creation_time : 2015-12-16 18:15:50
Duration: 00:18:07.99, start: 0.000000, bitrate: 1016 kb/s
Stream #1:0(eng): Audio: opus, 48000 Hz, mono, fltp (default)
Stream #1:1(eng): Video: vp8, yuv420p, 640x480, SAR 1:1 DAR 4:3, 1k tbr, 1k tbn, 1k tbc (default)
-async is forwarded to lavfi similarly to -af aresample=async=1:min_hard_comp=0.100000:first_pts=0.
Last message repeated 1 times
[libx264 @ 0x2d507a0] using SAR=1/1
[libx264 @ 0x2d507a0] using cpu capabilities: MMX2 SSE2Fast SSSE3 SSE4.2 AVX
[libx264 @ 0x2d507a0] profile High, level 3.1
[libx264 @ 0x2d507a0] 264 - core 148 r2 7599210 - H.264/MPEG-4 AVC codec - Copyleft 2003-2015 - http://www.videolan.org/x264.html - options: cabac=1 ref=3 deblock=1:0:0 analyse=0x3:0x113 me=hex subme=7 psy=1 psy_rd=1.00:0.00 mixed_ref=1 me_range=16 chroma_me=1 trellis=1 8x8dct=1 cqm=0 deadzone=21,11 fast_pskip=1 chroma_qp_offset=-2 threads=12 lookahead_threads=2 sliced_threads=0 nr=0 decimate=1 interlaced=0 bluray_compat=0 constrained_intra=0 bframes=3 b_pyramid=2 b_adapt=1 b_bias=0 direct=1 weightb=1 open_gop=0 weightp=2 keyint=250 keyint_min=24 scenecut=40 intra_refresh=0 rc_lookahead=40 rc=crf mbtree=1 crf=23.0 qcomp=0.60 qpmin=0 qpmax=69 qpstep=4 ip_ratio=1.40 aq=1:1.00
Output #0, mp4, to '/tmp/4a387f3ba0944aa19eeac0332f15ec53.mp4':
Metadata:
encoder : Lavf57.14.100
Stream #0:0: Video: h264 (libx264) ([33][0][0][0] / 0x0021), yuv420p, 1280x480 [SAR 1:1 DAR 8:3], q=-1--1, 24 fps, 12288 tbn, 24 tbc (default)
Metadata:
encoder : Lavc57.15.100 libx264
Stream #0:1: Audio: aac (libfdk_aac) ([64][0][0][0] / 0x0040), 48000 Hz, mono, s16, 104 kb/s (default)
Metadata:
encoder : Lavc57.15.100 libfdk_aac
Stream mapping:
Stream #0:0 (opus) -> amix:input0
Stream #0:1 (vp8) -> pad
Stream #1:0 (opus) -> amix:input1
Stream #1:1 (vp8) -> overlay:overlay
overlay -> Stream #0:0 (libx264)
amix -> Stream #0:1 (libfdk_aac)
Press [q] to stop, [?] for help
frame= 92 fps=0.0 q=28.0 size= 212kB time=00:00:04.07 bitrate= 425.9kbits/s dup=46 drop=0
frame= 172 fps=171 q=28.0 size= 693kB time=00:00:07.40 bitrate= 767.0kbits/s dup=76 drop=0
frame= 236 fps=156 q=28.0 size= 1043kB time=00:00:10.04 bitrate= 850.3kbits/s dup=100 drop=0
frame= 284 fps=141 q=28.0 size= 1342kB time=00:00:12.05 bitrate= 912.2kbits/s dup=118 drop=0
frame= 329 fps=131 q=28.0 size= 1720kB time=00:00:13.95 bitrate=1010.1kbits/s dup=135 drop=0
Past duration 0.607994 too large
frame= 380 fps=126 q=28.0 size= 2026kB time=00:00:16.04 bitrate=1034.5kbits/s dup=154 drop=0
frame= 428 fps=121 q=28.0 size= 2305kB time=00:00:18.06 bitrate=1045.2kbits/s dup=172 drop=0
frame= 471 fps=116 q=28.0 size= 2577kB time=00:00:19.84 bitrate=1064.0kbits/s dup=188 drop=0
frame= 516 fps=113 q=28.0 size= 2865kB time=00:00:21.76 bitrate=1078.7kbits/s dup=205 drop=0
frame= 565 fps=112 q=28.0 size= 3240kB time=00:00:23.76 bitrate=1116.7kbits/s dup=223 drop=0
frame= 612 fps=110 q=28.0 size= 3501kB time=00:00:25.70 bitrate=1115.6kbits/s dup=241 drop=0
frame= 657 fps=108 q=28.0 size= 3783kB time=00:00:27.58 bitrate=1123.5kbits/s dup=258 drop=0
Past duration 0.607994 too large
frame= 703 fps=107 q=28.0 size= 4036kB time=00:00:29.52 bitrate=1119.8kbits/s dup=275 drop=0
frame= 751 fps=106 q=28.0 size= 4328kB time=00:00:31.53 bitrate=1124.4kbits/s dup=293 drop=0
frame= 804 fps=106 q=28.0 size= 4619kB time=00:00:33.77 bitrate=1120.5kbits/s dup=313 drop=0
frame= 857 fps=105 q=28.0 size= 4983kB time=00:00:35.92 bitrate=1136.2kbits/s dup=333 drop=0
frame= 906 fps=105 q=28.0 size= 5239kB time=00:00:38.03 bitrate=1128.4kbits/s dup=351 drop=0
Past duration 0.607994 too large
frame= 951 fps=104 q=28.0 size= 5536kB time=00:00:39.87 bitrate=1137.4kbits/s dup=368 drop=0
frame= 993 fps=103 q=28.0 size= 5849kB time=00:00:41.60 bitrate=1151.8kbits/s dup=384 drop=0
frame= 1036 fps=102 q=28.0 size= 6169kB time=00:00:43.37 bitrate=1165.2kbits/s dup=400 drop=0
frame= 1082 fps=101 q=28.0 size= 6499kB time=00:00:45.35 bitrate=1173.9kbits/s dup=417 drop=0
frame= 1128 fps=101 q=28.0 size= 6762kB time=00:00:47.27 bitrate=1171.7kbits/s dup=434 drop=0
frame= 1172 fps=100 q=28.0 size= 7069kB time=00:00:49.08 bitrate=1179.7kbits/s dup=451 drop=0
frame= 1216 fps=100 q=28.0 size= 7353kB time=00:00:51.00 bitrate=1180.9kbits/s dup=467 drop=0
frame= 1257 fps= 99 q=28.0 size= 7656kB time=00:00:52.56 bitrate=1193.2kbits/s dup=483 drop=0
frame= 1302 fps= 98 q=28.0 size= 7934kB time=00:00:54.48 bitrate=1193.0kbits/s dup=500 drop=0
Past duration 0.671989 too large
frame= 1346 fps= 98 q=28.0 size= 8248kB time=00:00:56.32 bitrate=1199.7kbits/s dup=520 drop=0
frame= 1397 fps= 98 q=28.0 size= 8528kB time=00:00:58.45 bitrate=1195.1kbits/s dup=539 drop=0
frame= 1441 fps= 98 q=28.0 size= 8808kB time=00:01:00.26 bitrate=1197.3kbits/s dup=556 drop=0
Past duration 0.615990 too large
frame= 1487 fps= 98 q=28.0 size= 9099kB time=00:01:02.20 bitrate=1198.2kbits/s dup=573 drop=0
frame= 1535 fps= 97 q=28.0 size= 9409kB time=00:01:04.19 bitrate=1200.8kbits/s dup=591 drop=0
frame= 1583 fps= 97 q=28.0 size= 9730kB time=00:01:06.30 bitrate=1202.1kbits/s dup=609 drop=0
frame= 1634 fps= 97 q=28.0 size= 10001kB time=00:01:08.33 bitrate=1199.0kbits/s dup=628 drop=0
frame= 1682 fps= 97 q=28.0 size= 10265kB time=00:01:10.29 bitrate=1196.3kbits/s dup=646 drop=0
frame= 1725 fps= 97 q=28.0 size= 10516kB time=00:01:12.19 bitrate=1193.3kbits/s dup=662 drop=0
frame= 1772 fps= 97 q=28.0 size= 10818kB time=00:01:14.06 bitrate=1196.4kbits/s dup=680 drop=0
Past duration 0.615990 too large
frame= 1823 fps= 97 q=28.0 size= 11161kB time=00:01:16.24 bitrate=1199.2kbits/s dup=699 drop=0
frame= 1874 fps= 97 q=28.0 size= 11425kB time=00:01:18.33 bitrate=1194.8kbits/s dup=718 drop=0
frame= 1925 fps= 97 q=28.0 size= 11673kB time=00:01:20.51 bitrate=1187.7kbits/s dup=737 drop=0
frame= 1978 fps= 97 q=28.0 size= 11964kB time=00:01:22.68 bitrate=1185.3kbits/s dup=757 drop=0
frame= 2026 fps= 97 q=28.0 size= 12231kB time=00:01:24.67 bitrate=1183.3kbits/s dup=775 drop=0
frame= 2071 fps= 97 q=28.0 size= 12559kB time=00:01:26.54 bitrate=1188.7kbits/s dup=792 drop=0
frame= 2119 fps= 97 q=28.0 size= 12816kB time=00:01:28.53 bitrate=1185.8kbits/s dup=810 drop=0
frame= 2164 fps= 97 q=28.0 size= 13105kB time=00:01:30.34 bitrate=1188.2kbits/s dup=827 drop=0
frame= 2205 fps= 96 q=28.0 size= 13391kB time=00:01:32.13 bitrate=1190.6kbits/s dup=842 drop=0
frame= 2252 fps= 96 q=28.0 size= 13713kB time=00:01:34.03 bitrate=1194.6kbits/s dup=860 drop=0
Past duration 0.775993 too large
frame= 2308 fps= 97 q=28.0 size= 14074kB time=00:01:36.32 bitrate=1197.0kbits/s dup=881 drop=0
frame= 2360 fps= 97 q=28.0 size= 14321kB time=00:01:38.51 bitrate=1190.8kbits/s dup=900 drop=0
frame= 2409 fps= 97 q=28.0 size= 14564kB time=00:01:40.56 bitrate=1186.4kbits/s dup=919 drop=0
frame= 2455 fps= 97 q=28.0 size= 14872kB time=00:01:42.52 bitrate=1188.3kbits/s dup=936 drop=0
frame= 2501 fps= 97 q=28.0 size= 15180kB time=00:01:44.49 bitrate=1190.1kbits/s dup=953 drop=0
frame= 2548 fps= 96 q=28.0 size= 15462kB time=00:01:46.41 bitrate=1190.3kbits/s dup=971 drop=0
frame= 2599 fps= 96 q=28.0 size= 15809kB time=00:01:48.50 bitrate=1193.6kbits/s dup=990 drop=0
frame= 2652 fps= 97 q=28.0 size= 16107kB time=00:01:50.78 bitrate=1191.1kbits/s dup=1010 drop=0
frame= 2701 fps= 97 q=28.0 size= 16400kB time=00:01:52.78 bitrate=1191.1kbits/s dup=1028 drop=0
frame= 2751 fps= 97 q=28.0 size= 16715kB time=00:01:54.88 bitrate=1191.9kbits/s dup=1047 drop=0
Past duration 1.055992 too large
frame= 2799 fps= 97 q=28.0 size= 16984kB time=00:01:56.86 bitrate=1190.5kbits/s dup=1069 drop=0
Past duration 0.631996 too large
frame= 2852 fps= 97 q=28.0 size= 17348kB time=00:01:59.10 bitrate=1193.2kbits/s dup=1089 drop=0
frame= 2904 fps= 97 q=28.0 size= 17616kB time=00:02:01.30 bitrate=1189.7kbits/s dup=1108 drop=0
frame= 2954 fps= 97 q=28.0 size= 17910kB time=00:02:03.37 bitrate=1189.2kbits/s dup=1127 drop=0
Past duration 1.495995 too large
Past duration 0.983986 too large
frame= 3002 fps= 97 q=28.0 size= 18203kB time=00:02:05.33 bitrate=1189.8kbits/s dup=1145 drop=0
frame= 3050 fps= 97 q=28.0 size= 18474kB time=00:02:07.33 bitrate=1188.5kbits/s dup=1163 drop=0
frame= 3103 fps= 97 q=28.0 size= 18818kB time=00:02:09.53 bitrate=1190.1kbits/s dup=1183 drop=0
frame= 3151 fps= 97 q=28.0 size= 19078kB time=00:02:11.54 bitrate=1188.1kbits/s dup=1201 drop=0
frame= 3194 fps= 97 q=28.0 size= 19389kB time=00:02:13.37 bitrate=1190.9kbits/s dup=1217 drop=0
Past duration 0.607994 too large
frame= 3241 fps= 97 q=28.0 size= 19686kB time=00:02:15.21 bitrate=1192.7kbits/s dup=1235 drop=0
frame= 3284 fps= 97 q=28.0 size= 19942kB time=00:02:17.10 bitrate=1191.5kbits/s dup=1251 drop=0
frame= 3332 fps= 96 q=28.0 size= 20279kB time=00:02:19.07 bitrate=1194.5kbits/s dup=1269 drop=0
Past duration 0.607994 too large
frame= 3381 fps= 96 q=28.0 size= 20562kB time=00:02:21.09 bitrate=1193.8kbits/s dup=1287 drop=0
frame= 3436 fps= 97 q=28.0 size= 20858kB time=00:02:23.36 bitrate=1191.9kbits/s dup=1308 drop=0
frame= 3487 fps= 97 q=28.0 size= 21135kB time=00:02:25.51 bitrate=1189.8kbits/s dup=1327 drop=0
frame= 3536 fps= 97 q=28.0 size= 21411kB time=00:02:27.56 bitrate=1188.6kbits/s dup=1345 drop=0
frame= 3586 fps= 97 q=28.0 size= 21768kB time=00:02:29.61 bitrate=1191.9kbits/s dup=1364 drop=0
Error while decoding stream #1:0: Cannot allocate memory
Last message repeated 2 times
frame= 3637 fps= 97 q=28.0 size= 22059kB time=00:02:31.78 bitrate=1190.5kbits/s dup=1383 drop=0
frame= 3690 fps= 97 q=28.0 size= 22331kB time=00:02:33.96 bitrate=1188.2kbits/s dup=1403 drop=0
frame= 3740 fps= 97 q=28.0 size= 22575kB time=00:02:36.05 bitrate=1185.1kbits/s dup=1422 drop=0
frame= 3786 fps= 97 q=28.0 size= 22846kB time=00:02:38.01 bitrate=1184.4kbits/s dup=1439 drop=0
Past duration 0.607994 too large
frame= 3837 fps= 97 q=28.0 size= 23194kB time=00:02:40.12 bitrate=1186.6kbits/s dup=1459 drop=0
frame= 3882 fps= 97 q=28.0 size= 23495kB time=00:02:42.00 bitrate=1188.1kbits/s dup=1476 drop=0
frame= 3935 fps= 97 q=28.0 size= 23762kB time=00:02:44.18 bitrate=1185.6kbits/s dup=1496 drop=0
frame= 3983 fps= 97 q=28.0 size= 24017kB time=00:02:46.20 bitrate=1183.8kbits/s dup=1514 drop=0
frame= 4031 fps= 97 q=28.0 size= 24295kB time=00:02:48.21 bitrate=1183.1kbits/s dup=1532 drop=0
frame= 4085 fps= 97 q=28.0 size= 24611kB time=00:02:50.45 bitrate=1182.8kbits/s dup=1552 drop=0
frame= 4133 fps= 97 q=28.0 size= 24889kB time=00:02:52.50 bitrate=1181.9kbits/s dup=1570 drop=0
frame= 4178 fps= 97 q=28.0 size= 25172kB time=00:02:54.35 bitrate=1182.7kbits/s dup=1587 drop=0
Error while decoding stream #1:0: Cannot allocate memory
Last message repeated 14 times
frame= 4241 fps= 97 q=28.0 size= 25503kB time=00:02:56.68 bitrate=1182.5kbits/s dup=1626 drop=0
frame= 4300 fps= 97 q=28.0 size= 25749kB time=00:02:59.39 bitrate=1175.8kbits/s dup=1648 drop=0
frame= 4354 fps= 97 q=28.0 size= 26108kB time=00:03:01.63 bitrate=1177.5kbits/s dup=1668 drop=0
frame= 4407 fps= 97 q=28.0 size= 26388kB time=00:03:03.82 bitrate=1175.9kbits/s dup=1688 drop=0
frame= 4455 fps= 97 q=28.0 size= 26654kB time=00:03:05.83 bitrate=1175.0kbits/s dup=1706 drop=0
frame= 4508 fps= 97 q=28.0 size= 26931kB time=00:03:08.09 bitrate=1172.9kbits/s dup=1726 drop=0
frame= 4562 fps= 97 q=28.0 size= 27247kB time=00:03:10.31 bitrate=1172.8kbits/s dup=1746 drop=0
frame= 4608 fps= 97 q=28.0 size= 27522kB time=00:03:12.36 bitrate=1172.1kbits/s dup=1763 drop=0
frame= 4650 fps= 97 q=28.0 size= 27844kB time=00:03:13.98 bitrate=1175.9kbits/s dup=1779 drop=0
frame= 4695 fps= 97 q=28.0 size= 28145kB time=00:03:15.90 bitrate=1176.9kbits/s dup=1796 drop=0
frame= 4735 fps= 97 q=28.0 size= 28430kB time=00:03:17.54 bitrate=1178.9kbits/s dup=1811 drop=0
Past duration 0.607994 too large
frame= 4781 fps= 97 q=28.0 size= 28715kB time=00:03:19.48 bitrate=1179.2kbits/s dup=1828 drop=0
frame= 4831 fps= 97 q=28.0 size= 29037kB time=00:03:21.51 bitrate=1180.4kbits/s dup=1847 drop=0
frame= 4882 fps= 97 q=28.0 size= 29306kB time=00:03:23.71 bitrate=1178.5kbits/s dup=1866 drop=0
frame= 4932 fps= 97 q=28.0 size= 29602kB time=00:03:25.69 bitrate=1178.9kbits/s dup=1885 drop=0
frame= 4980 fps= 97 q=28.0 size= 29883kB time=00:03:27.70 bitrate=1178.6kbits/s dup=1903 drop=0
frame= 5029 fps= 97 q=28.0 size= 30147kB time=00:03:29.81 bitrate=1177.1kbits/s dup=1921 drop=0
frame= 5077 fps= 97 q=28.0 size= 30513kB time=00:03:31.79 bitrate=1180.2kbits/s dup=1939 drop=0
frame= 5130 fps= 97 q=28.0 size= 30796kB time=00:03:34.05 bitrate=1178.6kbits/s dup=1959 drop=0
frame= 5183 fps= 97 q=28.0 size= 31041kB time=00:03:36.17 bitrate=1176.3kbits/s dup=1979 drop=0
Past duration 0.767998 too large
frame= 5228 fps= 97 q=28.0 size= 31301kB time=00:03:38.09 bitrate=1175.7kbits/s dup=1996 drop=0
frame= 5277 fps= 97 q=28.0 size= 31599kB time=00:03:40.07 bitrate=1176.2kbits/s dup=2014 drop=0
frame= 5328 fps= 97 q=28.0 size= 31953kB time=00:03:42.31 bitrate=1177.4kbits/s dup=2033 drop=0
frame= 5375 fps= 97 q=28.0 size= 32217kB time=00:03:44.21 bitrate=1177.1kbits/s dup=2051 drop=0
frame= 5428 fps= 97 q=28.0 size= 32491kB time=00:03:46.45 bitrate=1175.4kbits/s dup=2071 drop=0
frame= 5479 fps= 97 q=28.0 size= 32749kB time=00:03:48.54 bitrate=1173.9kbits/s dup=2090 drop=0
frame= 5527 fps= 97 q=28.0 size= 33049kB time=00:03:50.57 bitrate=1174.2kbits/s dup=2108 drop=0
frame= 5576 fps= 97 q=28.0 size= 33399kB time=00:03:52.61 bitrate=1176.2kbits/s dup=2126 drop=0
frame= 5628 fps= 97 q=28.0 size= 33689kB time=00:03:54.70 bitrate=1175.9kbits/s dup=2146 drop=0
Past duration 1.103996 too large
frame= 5680 fps= 97 q=28.0 size= 33986kB time=00:03:56.90 bitrate=1175.2kbits/s dup=2169 drop=0
frame= 5730 fps= 97 q=28.0 size= 34239kB time=00:03:59.01 bitrate=1173.5kbits/s dup=2188 drop=0
frame= 5775 fps= 97 q=28.0 size= 34546kB time=00:04:00.85 bitrate=1175.0kbits/s dup=2205 drop=0
frame= 5824 fps= 97 q=28.0 size= 34898kB time=00:04:02.94 bitrate=1176.8kbits/s dup=2223 drop=0
frame= 5872 fps= 97 q=28.0 size= 35178kB time=00:04:04.92 bitrate=1176.6kbits/s dup=2241 drop=0
frame= 5920 fps= 97 q=28.0 size= 35481kB time=00:04:06.93 bitrate=1177.1kbits/s dup=2259 drop=0
frame= 5972 fps= 97 q=28.0 size= 35776kB time=00:04:09.02 bitrate=1176.9kbits/s dup=2279 drop=0
frame= 6024 fps= 97 q=28.0 size= 36071kB time=00:04:11.22 bitrate=1176.2kbits/s dup=2298 drop=0
frame= 6074 fps= 97 q=28.0 size= 36446kB time=00:04:13.37 bitrate=1178.4kbits/s dup=2317 drop=0
frame= 6127 fps= 97 q=28.0 size= 36742kB time=00:04:15.53 bitrate=1177.9kbits/s dup=2337 drop=0
Past duration 0.607994 too large
frame= 6178 fps= 97 q=28.0 size= 37014kB time=00:04:17.68 bitrate=1176.7kbits/s dup=2356 drop=0
frame= 6226 fps= 97 q=28.0 size= 37285kB time=00:04:19.73 bitrate=1176.0kbits/s dup=2374 drop=0
frame= 6274 fps= 97 q=28.0 size= 37581kB time=00:04:21.69 bitrate=1176.4kbits/s dup=2392 drop=0
frame= 6327 fps= 97 q=28.0 size= 37912kB time=00:04:23.89 bitrate=1176.9kbits/s dup=2412 drop=0
frame= 6376 fps= 97 q=28.0 size= 38174kB time=00:04:25.98 bitrate=1175.7kbits/s dup=2430 drop=0
frame= 6427 fps= 97 q=28.0 size= 38429kB time=00:04:28.05 bitrate=1174.4kbits/s dup=2449 drop=0
frame= 6474 fps= 97 q=28.0 size= 38710kB time=00:04:30.03 bitrate=1174.3kbits/s dup=2469 drop=0
frame= 6522 fps= 97 q=28.0 size= 39021kB time=00:04:32.02 bitrate=1175.1kbits/s dup=2487 drop=0
frame= 6570 fps= 97 q=28.0 size= 39356kB time=00:04:34.06 bitrate=1176.4kbits/s dup=2505 drop=0
frame= 6618 fps= 97 q=28.0 size= 39644kB time=00:04:36.03 bitrate=1176.5kbits/s dup=2523 drop=0
frame= 6666 fps= 97 q=28.0 size= 39971kB time=00:04:38.03 bitrate=1177.7kbits/s dup=2541 drop=0
frame= 6714 fps= 97 q=28.0 size= 40266kB time=00:04:40.06 bitrate=1177.8kbits/s dup=2559 drop=0
frame= 6757 fps= 97 q=28.0 size= 40564kB time=00:04:41.83 bitrate=1179.1kbits/s dup=2575 drop=0
frame= 6807 fps= 97 q=28.0 size= 40953kB time=00:04:43.86 bitrate=1181.9kbits/s dup=2594 drop=0
frame= 6853 fps= 97 q=28.0 size= 41239kB time=00:04:45.76 bitrate=1182.2kbits/s dup=2611 drop=0
frame= 6901 fps= 97 q=28.0 size= 41531kB time=00:04:47.82 bitrate=1182.0kbits/s dup=2629 drop=0
frame= 6951 fps= 97 q=28.0 size= 41828kB time=00:04:49.89 bitrate=1182.0kbits/s dup=2648 drop=0
frame= 7002 fps= 97 q=28.0 size= 42113kB time=00:04:52.01 bitrate=1181.4kbits/s dup=2667 drop=0
frame= 7048 fps= 97 q=28.0 size= 42400kB time=00:04:53.99 bitrate=1181.5kbits/s dup=2684 drop=0
Past duration 0.607994 too large
frame= 7095 fps= 97 q=28.0 size= 42740kB time=00:04:56.02 bitrate=1182.8kbits/s dup=2702 drop=0
frame= 7141 fps= 97 q=28.0 size= 43064kB time=00:04:57.81 bitrate=1184.6kbits/s dup=2732 drop=0
Past duration 0.607994 too large
Error while decoding stream #1:0: Cannot allocate memory
Last message repeated 20 times
frame= 7194 fps= 97 q=28.0 size= 43304kB time=00:05:00.01 bitrate=1182.4kbits/s dup=2752 drop=0
frame= 7240 fps= 97 q=28.0 size= 43592kB time=00:05:01.90 bitrate=1182.8kbits/s dup=2769 drop=0
frame= 7288 fps= 97 q=28.0 size= 43887kB time=00:05:03.95 bitrate=1182.8kbits/s dup=2787 drop=0
Past duration 0.623985 too large
frame= 7338 fps= 97 q=28.0 size= 44218kB time=00:05:06.02 bitrate=1183.7kbits/s dup=2806 drop=0
frame= 7389 fps= 97 q=28.0 size= 44475kB time=00:05:08.18 bitrate=1182.2kbits/s dup=2825 drop=0
frame= 7437 fps= 97 q=28.0 size= 44757kB time=00:05:10.18 bitrate=1182.0kbits/s dup=2843 drop=0
frame= 7487 fps= 97 q=28.0 size= 45063kB time=00:05:12.17 bitrate=1182.6kbits/s dup=2862 drop=0
frame= 7536 fps= 97 q=28.0 size= 45352kB time=00:05:14.28 bitrate=1182.1kbits/s dup=2881 drop=0
frame= 7584 fps= 97 q=28.0 size= 45752kB time=00:05:16.28 bitrate=1185.0kbits/s dup=2899 drop=0
frame= 7631 fps= 97 q=28.0 size= 46031kB time=00:05:18.22 bitrate=1184.9kbits/s dup=2917 drop=0
frame= 7679 fps= 97 q=28.0 size= 46280kB time=00:05:20.29 bitrate=1183.7kbits/s dup=2935 drop=0
frame= 7720 fps= 97 q=28.0 size= 46601kB time=00:05:21.98 bitrate=1185.6kbits/s dup=2950 drop=0
frame= 7763 fps= 97 q=28.0 size= 46923kB time=00:05:23.77 bitrate=1187.2kbits/s dup=2966 drop=0
frame= 7805 fps= 96 q=28.0 size= 47256kB time=00:05:25.52 bitrate=1189.2kbits/s dup=2982 drop=0
frame= 7853 fps= 96 q=28.0 size= 47629kB time=00:05:27.48 bitrate=1191.4kbits/s dup=3000 drop=0
frame= 7898 fps= 96 q=28.0 size= 47944kB time=00:05:29.40 bitrate=1192.3kbits/s dup=3017 drop=0
frame= 7943 fps= 96 q=28.0 size= 48271kB time=00:05:31.22 bitrate=1193.9kbits/s dup=3034 drop=0
frame= 7987 fps= 96 q=28.0 size= 48587kB time=00:05:33.09 bitrate=1194.9kbits/s dup=3050 drop=0
frame= 8032 fps= 96 q=28.0 size= 48874kB time=00:05:35.01 bitrate=1195.1kbits/s dup=3067 drop=0
frame= 8080 fps= 96 q=28.0 size= 49191kB time=00:05:36.89 bitrate=1196.1kbits/s dup=3085 drop=0
frame= 8127 fps= 96 q=28.0 size= 49456kB time=00:05:38.92 bitrate=1195.4kbits/s dup=3103 drop=0
frame= 8178 fps= 96 q=28.0 size= 49733kB time=00:05:41.05 bitrate=1194.6kbits/s dup=3122 drop=0
frame= 8221 fps= 96 q=28.0 size= 49987kB time=00:05:42.86 bitrate=1194.3kbits/s dup=3138 drop=0
frame= 8266 fps= 96 q=28.0 size= 50274kB time=00:05:44.72 bitrate=1194.7kbits/s dup=3155 drop=0
frame= 8312 fps= 96 q=28.0 size= 50625kB time=00:05:46.66 bitrate=1196.3kbits/s dup=3172 drop=0
frame= 8360 fps= 96 q=28.0 size= 50921kB time=00:05:48.60 bitrate=1196.6kbits/s dup=3190 drop=0
frame= 8408 fps= 96 q=28.0 size= 51230kB time=00:05:50.63 bitrate=1196.9kbits/s dup=3208 drop=0
frame= 8455 fps= 96 q=28.0 size= 51521kB time=00:05:52.55 bitrate=1197.1kbits/s dup=3226 drop=0
frame= 8503 fps= 96 q=28.0 size= 51839kB time=00:05:54.56 bitrate=1197.7kbits/s dup=3244 drop=0
frame= 8552 fps= 96 q=28.0 size= 52122kB time=00:05:56.67 bitrate=1197.1kbits/s dup=3267 drop=0
Error while decoding stream #1:0: Cannot allocate memory
Last message repeated 55 times
frame= 8602 fps= 96 q=28.0 size= 52465kB time=00:05:58.74 bitrate=1198.1kbits/s dup=3286 drop=0
frame= 8653 fps= 96 q=28.0 size= 52730kB time=00:06:00.85 bitrate=1197.1kbits/s dup=3306 drop=0
frame= 8703 fps= 96 q=28.0 size= 53067kB time=00:06:02.88 bitrate=1198.0kbits/s dup=3325 drop=0
frame= 8754 fps= 96 q=28.0 size= 53378kB time=00:06:05.05 bitrate=1197.8kbits/s dup=3344 drop=0
frame= 8805 fps= 96 q=28.0 size= 53662kB time=00:06:07.14 bitrate=1197.3kbits/s dup=3363 drop=0
frame= 8858 fps= 96 q=28.0 size= 54008kB time=00:06:09.36 bitrate=1197.8kbits/s dup=3383 drop=0
frame= 8906 fps= 96 q=28.0 size= 54280kB time=00:06:11.34 bitrate=1197.4kbits/s dup=3401 drop=0
frame= 8951 fps= 96 q=28.0 size= 54601kB time=00:06:13.29 bitrate=1198.2kbits/s dup=3418 drop=0
frame= 8995 fps= 96 q=28.0 size= 54898kB time=00:06:15.12 bitrate=1198.9kbits/s dup=3434 drop=0
frame= 9039 fps= 96 q=28.0 size= 55178kB time=00:06:16.93 bitrate=1199.2kbits/s dup=3451 drop=0
frame= 9087 fps= 96 q=28.0 size= 55510kB time=00:06:18.92 bitrate=1200.1kbits/s dup=3469 drop=0
frame= 9133 fps= 96 q=28.0 size= 55816kB time=00:06:20.88 bitrate=1200.5kbits/s dup=3486 drop=0
frame= 9184 fps= 96 q=28.0 size= 56120kB time=00:06:23.01 bitrate=1200.3kbits/s dup=3505 drop=0
Past duration 0.719994 too large
frame= 9234 fps= 96 q=28.0 size= 56391kB time=00:06:25.04 bitrate=1199.8kbits/s dup=3524 drop=0
Past duration 0.711998 too large
frame= 9285 fps= 96 q=28.0 size= 56679kB time=00:06:27.13 bitrate=1199.4kbits/s dup=3543 drop=0
frame= 9335 fps= 96 q=28.0 size= 57030kB time=00:06:29.24 bitrate=1200.2kbits/s dup=3562 drop=0
frame= 9386 fps= 96 q=28.0 size= 57332kB time=00:06:31.36 bitrate=1200.1kbits/s dup=3581 drop=0
frame= 9432 fps= 96 q=28.0 size= 57606kB time=00:06:33.32 bitrate=1199.8kbits/s dup=3598 drop=0
frame= 9480 fps= 96 q=28.0 size= 57874kB time=00:06:35.30 bitrate=1199.3kbits/s dup=3616 drop=0
frame= 9530 fps= 96 q=28.0 size= 58165kB time=00:06:37.37 bitrate=1199.1kbits/s dup=3635 drop=0
Past duration 0.607994 too large
frame= 9583 fps= 96 q=28.0 size= 58542kB time=00:06:39.44 bitrate=1200.6kbits/s dup=3655 drop=0
frame= 9630 fps= 96 q=28.0 size= 58817kB time=00:06:43.07 bitrate=1195.4kbits/s dup=3672 drop=0
frame= 9687 fps= 96 q=28.0 size= 59156kB time=00:06:43.84 bitrate=1200.0kbits/s dup=3719 drop=0
frame= 9743 fps= 96 q=28.0 size= 59313kB time=00:06:46.18 bitrate=1196.2kbits/s dup=3740 drop=0
frame= 9784 fps= 96 q=28.0 size= 59618kB time=00:06:47.93 bitrate=1197.2kbits/s dup=3755 drop=0
frame= 9832 fps= 96 q=28.0 size= 59992kB time=00:06:49.87 bitrate=1199.0kbits/s dup=3773 drop=0
frame= 9880 fps= 96 q=28.0 size= 60289kB time=00:06:51.92 bitrate=1199.0kbits/s dup=3791 drop=0
frame= 9925 fps= 96 q=28.0 size= 60558kB time=00:06:53.80 bitrate=1198.9kbits/s dup=3808 drop=0
frame= 9970 fps= 96 q=28.0 size= 60843kB time=00:06:55.65 bitrate=1199.1kbits/s dup=3825 drop=0
Error while decoding stream #1:0: Cannot allocate memory
Last message repeated 8 times
frame=10018 fps= 96 q=28.0 size= 61158kB time=00:06:57.40 bitrate=1200.3kbits/s dup=3856 drop=0
Error while decoding stream #1:0: Cannot allocate memory
Last message repeated 6 times
frame=10075 fps= 96 q=28.0 size= 61442kB time=00:07:00.01 bitrate=1198.4kbits/s dup=3878 drop=0
frame=10123 fps= 96 q=28.0 size= 61749kB time=00:07:02.05 bitrate=1198.5kbits/s dup=3897 drop=0
frame=10176 fps= 96 q=28.0 size= 62049kB time=00:07:04.25 bitrate=1198.1kbits/s dup=3917 drop=0
frame=10231 fps= 96 q=28.0 size= 62350kB time=00:07:06.56 bitrate=1197.4kbits/s dup=3938 drop=0
Error while decoding stream #1:0: Cannot allocate memory
Last message repeated 22 times
frame=10285 fps= 96 q=28.0 size= 62645kB time=00:07:08.84 bitrate=1196.7kbits/s dup=3958 drop=0
frame=10341 fps= 96 q=28.0 size= 63010kB time=00:07:11.16 bitrate=1197.2kbits/s dup=3980 drop=0
frame=10390 fps= 96 q=28.0 size= 63352kB time=00:07:13.25 bitrate=1197.8kbits/s dup=3998 drop=0
frame=10438 fps= 96 q=28.0 size= 63624kB time=00:07:15.22 bitrate=1197.6kbits/s dup=4016 drop=0
frame=10486 fps= 96 q=28.0 size= 63923kB time=00:07:17.20 bitrate=1197.7kbits/s dup=4034 drop=0
frame=10535 fps= 96 q=28.0 size= 64230kB time=00:07:19.21 bitrate=1198.0kbits/s dup=4053 drop=0
frame=10582 fps= 96 q=28.0 size= 64598kB time=00:07:21.21 bitrate=1199.4kbits/s dup=4070 drop=0
frame=10631 fps= 96 q=28.0 size= 64893kB time=00:07:23.24 bitrate=1199.3kbits/s dup=4089 drop=0
frame=10683 fps= 96 q=28.0 size= 65166kB time=00:07:25.39 bitrate=1198.6kbits/s dup=4108 drop=0
frame=10736 fps= 96 q=28.0 size= 65457kB time=00:07:27.63 bitrate=1197.9kbits/s dup=4128 drop=0
frame=10787 fps= 96 q=28.0 size= 65734kB time=00:07:29.79 bitrate=1197.2kbits/s dup=4147 drop=0
frame=10835 fps= 96 q=28.0 size= 66084kB time=00:07:31.69 bitrate=1198.5kbits/s dup=4165 drop=0
Past duration 0.775993 too large
frame=10887 fps= 96 q=28.0 size= 66382kB time=00:07:33.86 bitrate=1198.2kbits/s dup=4185 drop=0
frame=10936 fps= 96 q=28.0 size= 66638kB time=00:07:36.00 bitrate=1197.2kbits/s dup=4203 drop=0
frame=10984 fps= 96 q=28.0 size= 66912kB time=00:07:38.00 bitrate=1196.8kbits/s dup=4221 drop=0
frame=11034 fps= 96 q=28.0 size= 67203kB time=00:07:40.07 bitrate=1196.6kbits/s dup=4240 drop=0
frame=11083 fps= 96 q=28.0 size= 67554kB time=00:07:42.10 bitrate=1197.6kbits/s dup=4258 drop=0
frame=11135 fps= 96 q=28.0 size= 67819kB time=00:07:44.23 bitrate=1196.8kbits/s dup=4278 drop=0
frame=11189 fps= 96 q=28.0 size= 68092kB time=00:07:46.51 bitrate=1195.7kbits/s dup=4298 drop=0
frame=11237 fps= 96 q=28.0 size= 68360kB time=00:07:48.54 bitrate=1195.2kbits/s dup=4316 drop=0
frame=11290 fps= 96 q=28.0 size= 68651kB time=00:07:50.67 bitrate=1194.9kbits/s dup=4336 drop=0
frame=11339 fps= 96 q=28.0 size= 69012kB time=00:07:52.81 bitrate=1195.7kbits/s dup=4354 drop=0
Past duration 0.615990 too large
frame=11389 fps= 96 q=28.0 size= 69298kB time=00:07:54.88 bitrate=1195.4kbits/s dup=4373 drop=0
frame=11410 fps= 96 q=28.0 size= 69391kB time=00:07:55.69 bitrate=1195.0kbits/s dup=4381 drop=0
frame=11461 fps= 96 q=28.0 size= 69699kB time=00:07:57.82 bitrate=1194.9kbits/s dup=4406 drop=0
frame=11512 fps= 96 q=28.0 size= 69963kB time=00:08:00.04 bitrate=1193.9kbits/s dup=4425 drop=0
frame=11562 fps= 96 q=28.0 size= 70351kB time=00:08:02.04 bitrate=1195.5kbits/s dup=4444 drop=0
Past duration 0.607994 too large
frame=11611 fps= 96 q=28.0 size= 70653kB time=00:08:04.11 bitrate=1195.6kbits/s dup=4462 drop=0
frame=11658 fps= 96 q=28.0 size= 70919kB time=00:08:06.05 bitrate=1195.3kbits/s dup=4480 drop=0
Past duration 0.815987 too large
frame=11707 fps= 96 q=28.0 size= 71186kB time=00:08:08.06 bitrate=1194.8kbits/s dup=4499 drop=0
frame=11752 fps= 96 q=28.0 size= 71451kB time=00:08:09.96 bitrate=1194.6kbits/s dup=4516 drop=0
frame=11797 fps= 96 q=28.0 size= 71754kB time=00:08:11.84 bitrate=1195.1kbits/s dup=4533 drop=0
frame=11838 fps= 96 q=28.0 size= 72098kB time=00:08:13.65 bitrate=1196.4kbits/s dup=4548 drop=0
frame=11887 fps= 96 q=28.0 size= 72408kB time=00:08:15.57 bitrate=1196.9kbits/s dup=4568 drop=0
frame=11938 fps= 96 q=28.0 size= 72704kB time=00:08:17.64 bitrate=1196.8kbits/s dup=4587 drop=0
frame=11994 fps= 96 q=28.0 size= 72998kB time=00:08:19.94 bitrate=1196.1kbits/s dup=4608 drop=0
Past duration 0.607994 too large
Past duration 0.631996 too large
frame=12042 fps= 96 q=28.0 size= 73273kB time=00:08:22.03 bitrate=1195.6kbits/s dup=4626 drop=0
frame=12093 fps= 96 q=28.0 size= 73609kB time=00:08:24.19 bitrate=1196.0kbits/s dup=4645 drop=0
frame=12139 fps= 96 q=28.0 size= 73867kB time=00:08:26.11 bitrate=1195.6kbits/s dup=4662 drop=0
frame=12186 fps= 96 q=28.0 size= 74165kB time=00:08:28.11 bitrate=1195.7kbits/s dup=4680 drop=0
frame=12237 fps= 96 q=28.0 size= 74449kB time=00:08:30.22 bitrate=1195.3kbits/s dup=4701 drop=0
frame=12288 fps= 96 q=28.0 size= 74737kB time=00:08:32.38 bitrate=1194.9kbits/s dup=4720 drop=0
frame=12341 fps= 96 q=28.0 size= 75093kB time=00:08:34.49 bitrate=1195.7kbits/s dup=4740 drop=0
frame=12394 fps= 96 q=28.0 size= 75376kB time=00:08:36.69 bitrate=1195.1kbits/s dup=4760 drop=0
frame=12448 fps= 96 q=28.0 size= 75654kB time=00:08:38.93 bitrate=1194.3kbits/s dup=4780 drop=0
frame=12501 fps= 96 q=28.0 size= 75916kB time=00:08:41.21 bitrate=1193.2kbits/s dup=4800 drop=0
Past duration 0.607994 too large
Error while decoding stream #1:0: Cannot allocate memory
Last message repeated 2 times
frame=12554 fps= 96 q=28.0 size= 76196kB time=00:08:43.47 bitrate=1192.4kbits/s dup=4820 drop=0
frame=12603 fps= 96 q=28.0 size= 76504kB time=00:08:45.50 bitrate=1192.6kbits/s dup=4838 drop=0
frame=12650 fps= 96 q=28.0 size= 76779kB time=00:08:47.31 bitrate=1192.8kbits/s dup=4856 drop=0
Past duration 0.607994 too large
frame=12696 fps= 96 q=28.0 size= 77058kB time=00:08:49.25 bitrate=1192.7kbits/s dup=4873 drop=0
Past duration 0.607994 too large
frame=12743 fps= 96 q=28.0 size= 77374kB time=00:08:51.24 bitrate=1193.1kbits/s dup=4891 drop=0
frame=12789 fps= 96 q=28.0 size= 77656kB time=00:08:53.16 bitrate=1193.2kbits/s dup=4908 drop=0
frame=12835 fps= 96 q=28.0 size= 78007kB time=00:08:55.06 bitrate=1194.3kbits/s dup=4925 drop=0
frame=12882 fps= 96 q=28.0 size= 78306kB time=00:08:57.08 bitrate=1194.4kbits/s dup=4957 drop=0
frame=12934 fps= 96 q=28.0 size= 78564kB time=00:08:59.22 bitrate=1193.6kbits/s dup=4976 drop=0
Error while decoding stream #1:0: Cannot allocate memory
Last message repeated 26 times
frame=12986 fps= 96 q=28.0 size= 78845kB time=00:09:01.39 bitrate=1193.0kbits/s dup=4996 drop=0
frame=13037 fps= 96 q=28.0 size= 79105kB time=00:09:03.61 bitrate=1192.1kbits/s dup=5015 drop=0
frame=13088 fps= 96 q=28.0 size= 79474kB time=00:09:05.64 bitrate=1193.2kbits/s dup=5034 drop=0
Past duration 0.615990 too large
frame=13141 fps= 96 q=28.0 size= 79765kB time=00:09:07.77 bitrate=1192.9kbits/s dup=5054 drop=0
frame=13197 fps= 96 q=28.0 size= 80060kB time=00:09:10.08 bitrate=1192.3kbits/s dup=5075 drop=0
frame=13250 fps= 96 q=28.0 size= 80335kB time=00:09:12.29 bitrate=1191.6kbits/s dup=5095 drop=0
frame=13299 fps= 96 q=28.0 size= 80617kB time=00:09:14.38 bitrate=1191.2kbits/s dup=5113 drop=0
frame=13349 fps= 96 q=28.0 size= 80973kB time=00:09:16.41 bitrate=1192.1kbits/s dup=5132 drop=0
frame=13400 fps= 96 q=28.0 size= 81261kB time=00:09:18.61 bitrate=1191.7kbits/s dup=5151 drop=0
frame=13443 fps= 96 q=28.0 size= 81521kB time=00:09:20.32 bitrate=1191.9kbits/s dup=5167 drop=0
frame=13491 fps= 96 q=28.0 size= 81835kB time=00:09:22.34 bitrate=1192.1kbits/s dup=5185 drop=0
Past duration 0.607994 too large
frame=13536 fps= 96 q=28.0 size= 82156kB time=00:09:24.26 bitrate=1192.7kbits/s dup=5202 drop=0
frame=13579 fps= 96 q=28.0 size= 82493kB time=00:09:26.01 bitrate=1193.9kbits/s dup=5218 drop=0
frame=13622 fps= 96 q=28.0 size= 82790kB time=00:09:27.82 bitrate=1194.4kbits/s dup=5234 drop=0
frame=13670 fps= 96 q=28.0 size= 83080kB time=00:09:29.83 bitrate=1194.4kbits/s dup=5252 drop=0
frame=13717 fps= 96 q=28.0 size= 83356kB time=00:09:31.73 bitrate=1194.4kbits/s dup=5270 drop=0
frame=13763 fps= 96 q=28.0 size= 83649kB time=00:09:33.61 bitrate=1194.6kbits/s dup=5287 drop=0
frame=13805 fps= 96 q=28.0 size= 83939kB time=00:09:35.42 bitrate=1195.0kbits/s dup=5303 drop=0
frame=13853 fps= 96 q=28.0 size= 84298kB time=00:09:37.40 bitrate=1196.0kbits/s dup=5321 drop=0
frame=13899 fps= 96 q=28.0 size= 84566kB time=00:09:39.34 bitrate=1195.8kbits/s dup=5338 drop=0
frame=13947 fps= 96 q=28.0 size= 84846kB time=00:09:41.39 bitrate=1195.5kbits/s dup=5356 drop=0
frame=13994 fps= 96 q=28.0 size= 85153kB time=00:09:43.33 bitrate=1195.8kbits/s dup=5374 drop=0
frame=14041 fps= 96 q=28.0 size= 85434kB time=00:09:45.25 bitrate=1195.8kbits/s dup=5391 drop=0
frame=14088 fps= 96 q=28.0 size= 85819kB time=00:09:47.24 bitrate=1197.2kbits/s dup=5409 drop=0
frame=14137 fps= 96 q=28.0 size= 86112kB time=00:09:49.29 bitrate=1197.1kbits/s dup=5427 drop=0
frame=14186 fps= 96 q=28.0 size= 86410kB time=00:09:51.29 bitrate=1197.2kbits/s dup=5448 drop=0
frame=14240 fps= 96 q=28.0 size= 86716kB time=00:09:53.51 bitrate=1196.9kbits/s dup=5468 drop=0
frame=14285 fps= 96 q=28.0 size= 87001kB time=00:09:55.39 bitrate=1197.0kbits/s dup=5485 drop=0
Past duration 1.320000 too large
Past duration 1.047997 too large
frame=14337 fps= 96 q=28.0 size= 87357kB time=00:09:57.58 bitrate=1197.5kbits/s dup=5508 drop=0
frame=14386 fps= 96 q=28.0 size= 87612kB time=00:09:59.65 bitrate=1196.9kbits/s dup=5527 drop=0
frame=14432 fps= 96 q=28.0 size= 87894kB time=00:10:01.57 bitrate=1196.9kbits/s dup=5544 drop=0
frame=14477 fps= 96 q=28.0 size= 88204kB time=00:10:03.47 bitrate=1197.3kbits/s dup=5561 drop=0
frame=14522 fps= 96 q=28.0 size= 88524kB time=00:10:05.31 bitrate=1198.0kbits/s dup=5578 drop=0
frame=14573 fps= 96 q=28.0 size= 88869kB time=00:10:07.42 bitrate=1198.5kbits/s dup=5597 drop=0
frame=14621 fps= 96 q=28.0 size= 89153kB time=00:10:09.40 bitrate=1198.4kbits/s dup=5615 drop=0
frame=14669 fps= 96 q=28.0 size= 89445kB time=00:10:11.43 bitrate=1198.4kbits/s dup=5633 drop=0
frame=14715 fps= 96 q=28.0 size= 89711kB time=00:10:13.37 bitrate=1198.1kbits/s dup=5650 drop=0
frame=14763 fps= 96 q=28.0 size= 89974kB time=00:10:15.44 bitrate=1197.6kbits/s dup=5668 drop=0
frame=14813 fps= 96 q=28.0 size= 90336kB time=00:10:17.40 bitrate=1198.6kbits/s dup=5687 drop=0
frame=14866 fps= 96 q=28.0 size= 90626kB time=00:10:19.66 bitrate=1198.1kbits/s dup=5707 drop=0
Past duration 0.607994 too large
frame=14912 fps= 96 q=28.0 size= 90903kB time=00:10:21.58 bitrate=1198.0kbits/s dup=5724 drop=0
frame=14963 fps= 96 q=28.0 size= 91197kB time=00:10:23.68 bitrate=1197.9kbits/s dup=5743 drop=0
frame=15008 fps= 96 q=28.0 size= 91438kB time=00:10:25.51 bitrate=1197.5kbits/s dup=5760 drop=0
frame=15054 fps= 96 q=28.0 size= 91712kB time=00:10:27.45 bitrate=1197.4kbits/s dup=5777 drop=0
frame=15104 fps= 96 q=28.0 size= 92097kB time=00:10:29.56 bitrate=1198.4kbits/s dup=5796 drop=0
frame=15154 fps= 96 q=28.0 size= 92401kB time=00:10:31.65 bitrate=1198.3kbits/s dup=5815 drop=0
frame=15205 fps= 96 q=28.0 size= 92701kB time=00:10:33.79 bitrate=1198.2kbits/s dup=5834 drop=0
frame=15256 fps= 96 q=28.0 size= 92986kB time=00:10:35.86 bitrate=1198.0kbits/s dup=5853 drop=0
frame=15304 fps= 96 q=28.0 size= 93239kB time=00:10:37.88 bitrate=1197.4kbits/s dup=5871 drop=0
frame=15350 fps= 96 q=28.0 size= 93585kB time=00:10:39.82 bitrate=1198.2kbits/s dup=5888 drop=0
frame=15395 fps= 96 q=28.0 size= 93878kB time=00:10:41.68 bitrate=1198.5kbits/s dup=5905 drop=0
Past duration 0.623985 too large
frame=15443 fps= 96 q=28.0 size= 94197kB time=00:10:43.64 bitrate=1198.9kbits/s dup=5930 drop=0
frame=15493 fps= 96 q=28.0 size= 94488kB time=00:10:45.73 bitrate=1198.7kbits/s dup=5949 drop=0
frame=15541 fps= 96 q=28.0 size= 94798kB time=00:10:47.72 bitrate=1198.9kbits/s dup=5967 drop=0
frame=15592 fps= 96 q=28.0 size= 95146kB time=00:10:49.87 bitrate=1199.4kbits/s dup=5986 drop=0
frame=15638 fps= 96 q=28.0 size= 95426kB time=00:10:51.79 bitrate=1199.3kbits/s dup=6003 drop=0
Past duration 0.663994 too large
frame=15688 fps= 96 q=28.0 size= 95668kB time=00:10:53.93 bitrate=1198.5kbits/s dup=6022 drop=0
frame=15734 fps= 96 q=28.0 size= 95959kB time=00:10:55.87 bitrate=1198.6kbits/s dup=6039 drop=0
Past duration 1.207985 too large
Past duration 0.695992 too large
frame=15782 fps= 96 q=28.0 size= 96237kB time=00:10:57.89 bitrate=1198.3kbits/s dup=6070 drop=0
frame=15832 fps= 96 q=28.0 size= 96553kB time=00:10:59.90 bitrate=1198.6kbits/s dup=6089 drop=0
frame=15878 fps= 96 q=28.0 size= 96863kB time=00:11:01.82 bitrate=1199.0kbits/s dup=6106 drop=0
frame=15930 fps= 96 q=28.0 size= 97160kB time=00:11:03.97 bitrate=1198.7kbits/s dup=6126 drop=0
frame=15982 fps= 96 q=28.0 size= 97429kB time=00:11:06.17 bitrate=1198.1kbits/s dup=6145 drop=0
Past duration 0.783989 too large
frame=16027 fps= 96 q=28.0 size= 97700kB time=00:11:08.05 bitrate=1198.1kbits/s dup=6162 drop=0
frame=16074 fps= 96 q=28.0 size= 98059kB time=00:11:09.93 bitrate=1199.1kbits/s dup=6180 drop=0
frame=16125 fps= 96 q=28.0 size= 98368kB time=00:11:12.10 bitrate=1199.0kbits/s dup=6199 drop=0
frame=16174 fps= 96 q=28.0 size= 98650kB time=00:11:14.09 bitrate=1198.9kbits/s dup=6217 drop=0
frame=16222 fps= 96 q=28.0 size= 98982kB time=00:11:16.18 bitrate=1199.2kbits/s dup=6235 drop=0
frame=16269 fps= 96 q=28.0 size= 99238kB time=00:11:18.14 bitrate=1198.8kbits/s dup=6253 drop=0
frame=16317 fps= 96 q=28.0 size= 99589kB time=00:11:20.08 bitrate=1199.6kbits/s dup=6271 drop=0
frame=16368 fps= 96 q=28.0 size= 99868kB time=00:11:22.26 bitrate=1199.1kbits/s dup=6290 drop=0
frame=16416 fps= 96 q=28.0 size= 100178kB time=00:11:24.24 bitrate=1199.4kbits/s dup=6308 drop=0
frame=16466 fps= 96 q=28.0 size= 100461kB time=00:11:26.31 bitrate=1199.1kbits/s dup=6327 drop=0
frame=16513 fps= 96 q=28.0 size= 100756kB time=00:11:28.21 bitrate=1199.3kbits/s dup=6344 drop=0
frame=16562 fps= 96 q=28.0 size= 101097kB time=00:11:30.24 bitrate=1199.9kbits/s dup=6363 drop=0
Past duration 0.607994 too large
Past duration 0.623985 too large
Past duration 0.607994 too large
frame=16605 fps= 96 q=28.0 size= 101409kB time=00:11:32.16 bitrate=1200.2kbits/s dup=6379 drop=0
frame=16653 fps= 96 q=28.0 size= 101703kB time=00:11:34.14 bitrate=1200.3kbits/s dup=6397 drop=0
Past duration 0.623985 too large
frame=16694 fps= 96 q=28.0 size= 101982kB time=00:11:35.80 bitrate=1200.7kbits/s dup=6412 drop=0
frame=16739 fps= 96 q=28.0 size= 102258kB time=00:11:37.70 bitrate=1200.6kbits/s dup=6429 drop=0
frame=16782 fps= 96 q=28.0 size= 102548kB time=00:11:39.47 bitrate=1201.0kbits/s dup=6445 drop=0
Past duration 0.607994 too large
frame=16832 fps= 96 q=28.0 size= 102882kB time=00:11:41.58 bitrate=1201.3kbits/s dup=6466 drop=0
frame=16881 fps= 96 q=28.0 size= 103206kB time=00:11:43.70 bitrate=1201.4kbits/s dup=6484 drop=0
frame=16926 fps= 96 q=28.0 size= 103509kB time=00:11:45.40 bitrate=1202.1kbits/s dup=6501 drop=0
frame=16973 fps= 96 q=28.0 size= 103774kB time=00:11:47.45 bitrate=1201.6kbits/s dup=6519 drop=0
frame=17018 fps= 96 q=28.0 size= 104042kB time=00:11:49.33 bitrate=1201.6kbits/s dup=6536 drop=0
frame=17070 fps= 96 q=28.0 size= 104396kB time=00:11:51.53 bitrate=1201.9kbits/s dup=6555 drop=0
frame=17121 fps= 96 q=28.0 size= 104670kB time=00:11:53.57 bitrate=1201.6kbits/s dup=6574 drop=0
frame=17171 fps= 96 q=28.0 size= 104956kB time=00:11:55.71 bitrate=1201.3kbits/s dup=6593 drop=0
frame=17221 fps= 96 q=28.0 size= 105258kB time=00:11:57.82 bitrate=1201.2kbits/s dup=6617 drop=0
frame=17270 fps= 96 q=28.0 size= 105554kB time=00:11:59.80 bitrate=1201.3kbits/s dup=6635 drop=0
Past duration 0.607994 too large
frame=17318 fps= 96 q=28.0 size= 105898kB time=00:12:01.79 bitrate=1201.9kbits/s dup=6653 drop=0
frame=17373 fps= 96 q=28.0 size= 106230kB time=00:12:04.07 bitrate=1201.9kbits/s dup=6674 drop=0
frame=17427 fps= 96 q=28.0 size= 106533kB time=00:12:06.35 bitrate=1201.5kbits/s dup=6694 drop=0
frame=17478 fps= 96 q=28.0 size= 106817kB time=00:12:08.51 bitrate=1201.1kbits/s dup=6713 drop=0
frame=17531 fps= 96 q=28.0 size= 107114kB time=00:12:10.70 bitrate=1200.9kbits/s dup=6733 drop=0
Past duration 0.607994 too large
frame=17579 fps= 96 q=28.0 size= 107434kB time=00:12:12.62 bitrate=1201.3kbits/s dup=6751 drop=0
frame=17629 fps= 96 q=28.0 size= 107691kB time=00:12:14.78 bitrate=1200.6kbits/s dup=6770 drop=0
Past duration 0.607994 too large
frame=17677 fps= 96 q=28.0 size= 107970kB time=00:12:16.78 bitrate=1200.5kbits/s dup=6788 drop=0
frame=17726 fps= 96 q=28.0 size= 108239kB time=00:12:18.85 bitrate=1200.1kbits/s dup=6806 drop=0
Past duration 0.607994 too large
frame=17774 fps= 96 q=28.0 size= 108523kB time=00:12:20.86 bitrate=1200.0kbits/s dup=6824 drop=0
frame=17822 fps= 96 q=28.0 size= 108863kB time=00:12:22.86 bitrate=1200.5kbits/s dup=6842 drop=0
frame=17867 fps= 96 q=28.0 size= 109147kB time=00:12:24.70 bitrate=1200.7kbits/s dup=6859 drop=0
frame=17917 fps= 96 q=28.0 size= 109435kB time=00:12:26.79 bitrate=1200.5kbits/s dup=6878 drop=0
frame=17966 fps= 96 q=28.0 size= 109738kB time=00:12:28.82 bitrate=1200.5kbits/s dup=6896 drop=0
frame=18013 fps= 96 q=28.0 size= 110051kB time=00:12:30.78 bitrate=1200.8kbits/s dup=6918 drop=0
frame=18067 fps= 96 q=28.0 size= 110413kB time=00:12:33.00 bitrate=1201.2kbits/s dup=6942 drop=0
frame=18120 fps= 96 q=28.0 size= 110711kB time=00:12:35.26 bitrate=1200.8kbits/s dup=6962 drop=0
frame=18165 fps= 96 q=28.0 size= 111045kB time=00:12:37.12 bitrate=1201.5kbits/s dup=6979 drop=0
frame=18211 fps= 96 q=28.0 size= 111315kB time=00:12:39.06 bitrate=1201.3kbits/s dup=6996 drop=0
frame=18261 fps= 96 q=28.0 size= 111629kB time=00:12:41.10 bitrate=1201.5kbits/s dup=7015 drop=0
frame=18314 fps= 96 q=28.0 size= 111978kB time=00:12:43.28 bitrate=1201.8kbits/s dup=7035 drop=0
frame=18363 fps= 96 q=28.0 size= 112265kB time=00:12:45.41 bitrate=1201.5kbits/s dup=7053 drop=0
frame=18409 fps= 96 q=28.0 size= 112542kB time=00:12:47.29 bitrate=1201.6kbits/s dup=7070 drop=0
frame=18456 fps= 96 q=28.0 size= 112860kB time=00:12:49.25 bitrate=1201.9kbits/s dup=7088 drop=0
frame=18504 fps= 96 q=28.0 size= 113152kB time=00:12:51.22 bitrate=1201.9kbits/s dup=7106 drop=0
frame=18550 fps= 96 q=28.0 size= 113410kB time=00:12:53.16 bitrate=1201.6kbits/s dup=7123 drop=0
frame=18600 fps= 96 q=28.0 size= 113760kB time=00:12:55.29 bitrate=1202.0kbits/s dup=7142 drop=0
Past duration 0.719994 too large
frame=18648 fps= 96 q=28.0 size= 114041kB time=00:12:57.25 bitrate=1201.9kbits/s dup=7174 drop=0
Error while decoding stream #1:0: Cannot allocate memory
Last message repeated 25 times
frame=18702 fps= 96 q=28.0 size= 114287kB time=00:12:59.54 bitrate=1201.0kbits/s dup=7194 drop=0
Past duration 0.615990 too large
frame=18749 fps= 96 q=28.0 size= 114569kB time=00:13:01.46 bitrate=1201.0kbits/s dup=7212 drop=0
frame=18797 fps= 96 q=28.0 size= 114881kB time=00:13:03.42 bitrate=1201.3kbits/s dup=7230 drop=0
frame=18848 fps= 96 q=28.0 size= 115226kB time=00:13:05.57 bitrate=1201.6kbits/s dup=7249 drop=0
Past duration 0.607994 too large
frame=18899 fps= 96 q=28.0 size= 115502kB time=00:13:07.71 bitrate=1201.2kbits/s dup=7268 drop=0
frame=18949 fps= 96 q=28.0 size= 115757kB time=00:13:09.69 bitrate=1200.8kbits/s dup=7287 drop=0
frame=18997 fps= 96 q=28.0 size= 116062kB time=00:13:11.72 bitrate=1200.9kbits/s dup=7307 drop=0
frame=19049 fps= 96 q=28.0 size= 116343kB time=00:13:14.00 bitrate=1200.4kbits/s dup=7326 drop=0
Past duration 0.607994 too large
frame=19102 fps= 96 q=28.0 size= 116681kB time=00:13:16.18 bitrate=1200.5kbits/s dup=7346 drop=0
frame=19149 fps= 96 q=28.0 size= 116980kB time=00:13:18.12 bitrate=1200.7kbits/s dup=7364 drop=0
frame=19198 fps= 96 q=28.0 size= 117285kB time=00:13:20.12 bitrate=1200.8kbits/s dup=7382 drop=0
frame=19245 fps= 96 q=28.0 size= 117565kB time=00:13:22.11 bitrate=1200.7kbits/s dup=7400 drop=0
Past duration 0.639992 too large
frame=19293 fps= 96 q=28.0 size= 117864kB time=00:13:24.20 bitrate=1200.6kbits/s dup=7418 drop=0
frame=19342 fps= 96 q=28.0 size= 118229kB time=00:13:26.16 bitrate=1201.4kbits/s dup=7436 drop=0
frame=19392 fps= 96 q=28.0 size= 118528kB time=00:13:28.27 bitrate=1201.3kbits/s dup=7455 drop=0
frame=19440 fps= 96 q=28.0 size= 118806kB time=00:13:30.15 bitrate=1201.3kbits/s dup=7473 drop=0
frame=19488 fps= 96 q=28.0 size= 119112kB time=00:13:32.18 bitrate=1201.4kbits/s dup=7491 drop=0
frame=19536 fps= 96 q=28.0 size= 119425kB time=00:13:34.20 bitrate=1201.6kbits/s dup=7509 drop=0
frame=19584 fps= 96 q=28.0 size= 119791kB time=00:13:36.19 bitrate=1202.3kbits/s dup=7527 drop=0
Past duration 0.735985 too large
frame=19635 fps= 96 q=28.0 size= 120074kB time=00:13:38.32 bitrate=1202.0kbits/s dup=7546 drop=0
frame=19681 fps= 96 q=28.0 size= 120368kB time=00:13:40.24 bitrate=1202.1kbits/s dup=7563 drop=0
frame=19731 fps= 96 q=28.0 size= 120674kB time=00:13:42.37 bitrate=1202.1kbits/s dup=7582 drop=0
frame=19781 fps= 96 q=28.0 size= 120987kB time=00:13:44.42 bitrate=1202.2kbits/s dup=7601 drop=0
frame=19829 fps= 96 q=28.0 size= 121318kB time=00:13:46.53 bitrate=1202.4kbits/s dup=7619 drop=0
frame=19878 fps= 96 q=28.0 size= 121624kB time=00:13:48.54 bitrate=1202.5kbits/s dup=7637 drop=0
frame=19928 fps= 96 q=28.0 size= 121890kB time=00:13:50.54 bitrate=1202.2kbits/s dup=7656 drop=0
frame=19976 fps= 96 q=28.0 size= 122164kB time=00:13:52.57 bitrate=1202.0kbits/s dup=7674 drop=0
frame=20027 fps= 96 q=28.0 size= 122461kB time=00:13:54.75 bitrate=1201.8kbits/s dup=7693 drop=0
frame=20078 fps= 96 q=28.0 size= 122804kB time=00:13:56.88 bitrate=1202.1kbits/s dup=7717 drop=0
frame=20129 fps= 96 q=28.0 size= 123077kB time=00:13:58.99 bitrate=1201.7kbits/s dup=7736 drop=0
frame=20179 fps= 96 q=28.0 size= 123348kB time=00:14:00.98 bitrate=1201.5kbits/s dup=7755 drop=0
frame=20230 fps= 96 q=28.0 size= 123642kB time=00:14:03.22 bitrate=1201.2kbits/s dup=7774 drop=0
frame=20281 fps= 96 q=28.0 size= 123901kB time=00:14:05.37 bitrate=1200.6kbits/s dup=7793 drop=0
Past duration 0.615990 too large
frame=20328 fps= 96 q=28.0 size= 124239kB time=00:14:07.21 bitrate=1201.3kbits/s dup=7811 drop=0
frame=20374 fps= 96 q=28.0 size= 124516kB time=00:14:09.25 bitrate=1201.1kbits/s dup=7828 drop=0
frame=20426 fps= 96 q=28.0 size= 124812kB time=00:14:11.30 bitrate=1201.0kbits/s dup=7848 drop=0
Past duration 0.727989 too large
Past duration 0.735985 too large
frame=20478 fps= 96 q=28.0 size= 125087kB time=00:14:13.50 bitrate=1200.6kbits/s dup=7867 drop=0
frame=20525 fps= 96 q=28.0 size= 125384kB time=00:14:15.44 bitrate=1200.7kbits/s dup=7885 drop=0
frame=20574 fps= 96 q=28.0 size= 125765kB time=00:14:17.47 bitrate=1201.5kbits/s dup=7903 drop=0
frame=20624 fps= 96 q=28.0 size= 126090kB time=00:14:19.54 bitrate=1201.7kbits/s dup=7922 drop=0
frame=20672 fps= 96 q=28.0 size= 126375kB time=00:14:21.61 bitrate=1201.5kbits/s dup=7940 drop=0
frame=20718 fps= 96 q=28.0 size= 126693kB time=00:14:23.44 bitrate=1202.0kbits/s dup=7957 drop=0
frame=20766 fps= 96 q=28.0 size= 127038kB time=00:14:25.49 bitrate=1202.4kbits/s dup=7976 drop=0
frame=20816 fps= 96 q=28.0 size= 127415kB time=00:14:27.58 bitrate=1203.1kbits/s dup=7995 drop=0
frame=20865 fps= 96 q=28.0 size= 127721kB time=00:14:29.61 bitrate=1203.2kbits/s dup=8013 drop=0
frame=20912 fps= 96 q=28.0 size= 128018kB time=00:14:31.55 bitrate=1203.3kbits/s dup=8031 drop=0
frame=20957 fps= 96 q=28.0 size= 128335kB time=00:14:33.47 bitrate=1203.6kbits/s dup=8048 drop=0
frame=21003 fps= 96 q=28.0 size= 128629kB time=00:14:35.37 bitrate=1203.8kbits/s dup=8065 drop=0
frame=21046 fps= 96 q=25.0 size= 128928kB time=00:14:37.18 bitrate=1204.1kbits/s dup=8081 drop=0
frame=21088 fps= 96 q=28.0 size= 129290kB time=00:14:38.93 bitrate=1205.0kbits/s dup=8097 drop=0
frame=21134 fps= 96 q=28.0 size= 129588kB time=00:14:40.81 bitrate=1205.2kbits/s dup=8114 drop=0
frame=21181 fps= 96 q=28.0 size= 129910kB time=00:14:42.79 bitrate=1205.5kbits/s dup=8133 drop=0
frame=21227 fps= 96 q=28.0 size= 130204kB time=00:14:44.75 bitrate=1205.6kbits/s dup=8151 drop=0
frame=21267 fps= 96 q=28.0 size= 130503kB time=00:14:46.42 bitrate=1206.1kbits/s dup=8166 drop=0
Past duration 0.639992 too large
frame=21312 fps= 96 q=28.0 size= 130923kB time=00:14:48.23 bitrate=1207.5kbits/s dup=8183 drop=0
frame=21357 fps= 96 q=28.0 size= 131219kB time=00:14:50.15 bitrate=1207.6kbits/s dup=8200 drop=0
frame=21401 fps= 96 q=28.0 size= 131515kB time=00:14:51.94 bitrate=1207.9kbits/s dup=8216 drop=0
frame=21448 fps= 96 q=28.0 size= 131824kB time=00:14:53.88 bitrate=1208.1kbits/s dup=8234 drop=0
frame=21494 fps= 96 q=28.0 size= 132111kB time=00:14:56.57 bitrate=1207.1kbits/s dup=8251 drop=0
Past duration 0.983986 too large
frame=21549 fps= 96 q=28.0 size= 132447kB time=00:14:58.13 bitrate=1208.1kbits/s dup=8286 drop=0
Error while decoding stream #1:0: Cannot allocate memory
Last message repeated 22 times
frame=21608 fps= 96 q=28.0 size= 132782kB time=00:15:00.58 bitrate=1207.8kbits/s dup=8308 drop=0
frame=21659 fps= 96 q=28.0 size= 133056kB time=00:15:02.65 bitrate=1207.5kbits/s dup=8327 drop=0
frame=21712 fps= 96 q=28.0 size= 133362kB time=00:15:04.85 bitrate=1207.4kbits/s dup=8347 drop=0
frame=21758 fps= 96 q=28.0 size= 133627kB time=00:15:06.79 bitrate=1207.2kbits/s dup=8364 drop=0
frame=21809 fps= 96 q=28.0 size= 133964kB time=00:15:09.01 bitrate=1207.3kbits/s dup=8383 drop=0
Error while decoding stream #1:0: Cannot allocate memory
Last message repeated 88 times
frame=21862 fps= 96 q=28.0 size= 134230kB time=00:15:11.36 bitrate=1206.6kbits/s dup=8403 drop=0
frame=21920 fps= 96 q=28.0 size= 134563kB time=00:15:13.49 bitrate=1206.7kbits/s dup=8425 drop=0
frame=21974 fps= 96 q=28.0 size= 134789kB time=00:15:15.86 bitrate=1205.6kbits/s dup=8445 drop=0
frame=22022 fps= 96 q=28.0 size= 135081kB time=00:15:17.84 bitrate=1205.6kbits/s dup=8463 drop=0
Past duration 0.615990 too large
frame=22072 fps= 96 q=28.0 size= 135420kB time=00:15:19.97 bitrate=1205.9kbits/s dup=8482 drop=0
frame=22120 fps= 96 q=28.0 size= 135700kB time=00:15:21.94 bitrate=1205.8kbits/s dup=8500 drop=0
frame=22168 fps= 96 q=28.0 size= 136045kB time=00:15:23.92 bitrate=1206.2kbits/s dup=8518 drop=0
frame=22216 fps= 96 q=28.0 size= 136343kB time=00:15:25.95 bitrate=1206.2kbits/s dup=8536 drop=0
frame=22270 fps= 96 q=28.0 size= 136645kB time=00:15:28.17 bitrate=1206.0kbits/s dup=8556 drop=0
frame=22323 fps= 96 q=28.0 size= 136980kB time=00:15:30.43 bitrate=1206.0kbits/s dup=8576 drop=0
frame=22368 fps= 96 q=28.0 size= 137245kB time=00:15:32.24 bitrate=1206.0kbits/s dup=8593 drop=0
frame=22411 fps= 96 q=28.0 size= 137538kB time=00:15:34.10 bitrate=1206.2kbits/s dup=8609 drop=0
frame=22459 fps= 96 q=28.0 size= 137837kB time=00:15:36.08 bitrate=1206.3kbits/s dup=8627 drop=0
frame=22512 fps= 96 q=28.0 size= 138125kB time=00:15:38.32 bitrate=1205.9kbits/s dup=8647 drop=0
Past duration 0.623985 too large
frame=22563 fps= 96 q=28.0 size= 138497kB time=00:15:40.41 bitrate=1206.4kbits/s dup=8666 drop=0
frame=22612 fps= 96 q=28.0 size= 138776kB time=00:15:42.46 bitrate=1206.3kbits/s dup=8684 drop=0
frame=22660 fps= 96 q=28.0 size= 139092kB time=00:15:44.51 bitrate=1206.4kbits/s dup=8702 drop=0
frame=22704 fps= 96 q=28.0 size= 139374kB time=00:15:46.34 bitrate=1206.5kbits/s dup=8719 drop=0
frame=22753 fps= 96 q=28.0 size= 139659kB time=00:15:48.28 bitrate=1206.5kbits/s dup=8737 drop=0
frame=22797 fps= 96 q=28.0 size= 139956kB time=00:15:50.10 bitrate=1206.7kbits/s dup=8754 drop=0
frame=22844 fps= 96 q=28.0 size= 140309kB time=00:15:52.19 bitrate=1207.1kbits/s dup=8771 drop=0
frame=22888 fps= 96 q=28.0 size= 140606kB time=00:15:54.00 bitrate=1207.4kbits/s dup=8788 drop=0
frame=22934 fps= 96 q=28.0 size= 140939kB time=00:15:55.88 bitrate=1207.9kbits/s dup=8805 drop=0
Past duration 1.239998 too large
Past duration 0.751991 too large
frame=22981 fps= 96 q=28.0 size= 141232kB time=00:15:57.84 bitrate=1207.9kbits/s dup=8828 drop=0
frame=23030 fps= 96 q=28.0 size= 141548kB time=00:15:59.89 bitrate=1208.0kbits/s dup=8846 drop=0
frame=23078 fps= 96 q=28.0 size= 141913kB time=00:16:01.87 bitrate=1208.6kbits/s dup=8864 drop=0
frame=23126 fps= 96 q=28.0 size= 142249kB time=00:16:03.84 bitrate=1209.0kbits/s dup=8882 drop=0
frame=23171 fps= 96 q=28.0 size= 142543kB time=00:16:05.76 bitrate=1209.1kbits/s dup=8899 drop=0
frame=23217 fps= 96 q=28.0 size= 142841kB time=00:16:07.65 bitrate=1209.3kbits/s dup=8916 drop=0
frame=23262 fps= 96 q=28.0 size= 143126kB time=00:16:09.55 bitrate=1209.3kbits/s dup=8933 drop=0
frame=23307 fps= 96 q=28.0 size= 143494kB time=00:16:11.41 bitrate=1210.1kbits/s dup=8950 drop=0
Past duration 0.631996 too large
frame=23355 fps= 96 q=28.0 size= 143805kB time=00:16:13.35 bitrate=1210.3kbits/s dup=8969 drop=0
frame=23406 fps= 96 q=28.0 size= 144110kB time=00:16:15.55 bitrate=1210.1kbits/s dup=8988 drop=0
frame=23454 fps= 96 q=28.0 size= 144415kB time=00:16:17.51 bitrate=1210.3kbits/s dup=9006 drop=0
frame=23504 fps= 96 q=28.0 size= 144719kB time=00:16:19.58 bitrate=1210.2kbits/s dup=9025 drop=0
frame=23555 fps= 96 q=28.0 size= 145050kB time=00:16:21.71 bitrate=1210.4kbits/s dup=9044 drop=0
frame=23604 fps= 96 q=28.0 size= 145424kB time=00:16:23.85 bitrate=1210.9kbits/s dup=9062 drop=0
frame=23649 fps= 96 q=28.0 size= 145733kB time=00:16:25.68 bitrate=1211.2kbits/s dup=9079 drop=0
Past duration 0.607994 too large
frame=23692 fps= 96 q=28.0 size= 146038kB time=00:16:27.45 bitrate=1211.5kbits/s dup=9095 drop=0
Past duration 0.607994 too large
frame=23732 fps= 96 q=28.0 size= 146334kB time=00:16:29.09 bitrate=1212.0kbits/s dup=9110 drop=0
frame=23776 fps= 96 q=28.0 size= 146613kB time=00:16:30.97 bitrate=1212.0kbits/s dup=9127 drop=0
Error while decoding stream #1:0: Cannot allocate memory
Last message repeated 9 times
frame=23820 fps= 96 q=28.0 size= 146945kB time=00:16:32.85 bitrate=1212.4kbits/s dup=9143 drop=0
frame=23865 fps= 96 q=28.0 size= 147253kB time=00:16:34.70 bitrate=1212.7kbits/s dup=9160 drop=0
frame=23912 fps= 96 q=28.0 size= 147520kB time=00:16:36.62 bitrate=1212.6kbits/s dup=9178 drop=0
Past duration 0.607994 too large
frame=23958 fps= 96 q=28.0 size= 147813kB time=00:16:38.57 bitrate=1212.6kbits/s dup=9195 drop=0
frame=24004 fps= 96 q=28.0 size= 148123kB time=00:16:40.34 bitrate=1213.0kbits/s dup=9212 drop=0
frame=24052 fps= 96 q=28.0 size= 148420kB time=00:16:42.41 bitrate=1212.9kbits/s dup=9230 drop=0
frame=24104 fps= 96 q=28.0 size= 148820kB time=00:16:44.56 bitrate=1213.6kbits/s dup=9275 drop=0
frame=24164 fps= 96 q=28.0 size= 149028kB time=00:16:47.16 bitrate=1212.2kbits/s dup=9298 drop=0
frame=24211 fps= 96 q=28.0 size= 149313kB time=00:16:49.00 bitrate=1212.3kbits/s dup=9316 drop=0
frame=24252 fps= 96 q=28.0 size= 149599kB time=00:16:50.73 bitrate=1212.5kbits/s dup=9331 drop=0
frame=24296 fps= 96 q=25.0 size= 149942kB time=00:16:52.54 bitrate=1213.1kbits/s dup=9348 drop=0
frame=24342 fps= 96 q=28.0 size= 150285kB time=00:16:54.48 bitrate=1213.6kbits/s dup=9365 drop=0
frame=24397 fps= 96 q=28.0 size= 150634kB time=00:16:56.81 bitrate=1213.6kbits/s dup=9399 drop=0
frame=24452 fps= 96 q=28.0 size= 150912kB time=00:16:59.09 bitrate=1213.1kbits/s dup=9419 drop=0
Error while decoding stream #1:0: Cannot allocate memory
Last message repeated 20 times
frame=24502 fps= 96 q=28.0 size= 151216kB time=00:17:01.16 bitrate=1213.1kbits/s dup=9438 drop=0
frame=24555 fps= 96 q=28.0 size= 151502kB time=00:17:03.40 bitrate=1212.7kbits/s dup=9458 drop=0
frame=24607 fps= 96 q=28.0 size= 151870kB time=00:17:05.57 bitrate=1213.1kbits/s dup=9477 drop=0
frame=24654 fps= 96 q=28.0 size= 152156kB time=00:17:07.52 bitrate=1213.1kbits/s dup=9495 drop=0
frame=24702 fps= 96 q=28.0 size= 152466kB time=00:17:09.48 bitrate=1213.2kbits/s dup=9513 drop=0
frame=24748 fps= 96 q=28.0 size= 152782kB time=00:17:11.46 bitrate=1213.4kbits/s dup=9530 drop=0
frame=24798 fps= 96 q=28.0 size= 153050kB time=00:17:13.51 bitrate=1213.1kbits/s dup=9549 drop=0
frame=24848 fps= 96 q=28.0 size= 153364kB time=00:17:15.49 bitrate=1213.3kbits/s dup=9568 drop=0
frame=24891 fps= 96 q=28.0 size= 153723kB time=00:17:17.35 bitrate=1214.0kbits/s dup=9584 drop=0
frame=24934 fps= 96 q=28.0 size= 154025kB time=00:17:19.16 bitrate=1214.2kbits/s dup=9600 drop=0
frame=24982 fps= 96 q=28.0 size= 154320kB time=00:17:21.15 bitrate=1214.2kbits/s dup=9618 drop=0
frame=25028 fps= 96 q=28.0 size= 154644kB time=00:17:23.09 bitrate=1214.5kbits/s dup=9635 drop=0
frame=25077 fps= 96 q=28.0 size= 154974kB time=00:17:25.07 bitrate=1214.8kbits/s dup=9654 drop=0
frame=25123 fps= 95 q=28.0 size= 155279kB time=00:17:27.08 bitrate=1214.8kbits/s dup=9671 drop=0
frame=25167 fps= 95 q=28.0 size= 155557kB time=00:17:28.87 bitrate=1214.9kbits/s dup=9687 drop=0
frame=25208 fps= 95 q=28.0 size= 155874kB time=00:17:30.58 bitrate=1215.4kbits/s dup=9703 drop=0
frame=25256 fps= 95 q=28.0 size= 156205kB time=00:17:32.52 bitrate=1215.8kbits/s dup=9721 drop=0
frame=25302 fps= 95 q=28.0 size= 156510kB time=00:17:34.46 bitrate=1215.9kbits/s dup=9738 drop=0
frame=25353 fps= 95 q=28.0 size= 156876kB time=00:17:36.61 bitrate=1216.3kbits/s dup=9758 drop=0
frame=25398 fps= 95 q=28.0 size= 157176kB time=00:17:38.53 bitrate=1216.4kbits/s dup=9776 drop=0
frame=25438 fps= 95 q=28.0 size= 157520kB time=00:17:40.11 bitrate=1217.2kbits/s dup=9791 drop=0
frame=25480 fps= 95 q=28.0 size= 157859kB time=00:17:41.86 bitrate=1217.8kbits/s dup=9807 drop=0
frame=25520 fps= 95 q=28.0 size= 158193kB time=00:17:43.48 bitrate=1218.6kbits/s dup=9822 drop=0
frame=25566 fps= 95 q=28.0 size= 158523kB time=00:17:45.47 bitrate=1218.8kbits/s dup=9839 drop=0
frame=25612 fps= 95 q=28.0 size= 158804kB time=00:17:47.37 bitrate=1218.8kbits/s dup=9856 drop=0
frame=25662 fps= 95 q=28.0 size= 159098kB time=00:17:49.48 bitrate=1218.7kbits/s dup=9875 drop=0
Past duration 0.735985 too large
frame=25707 fps= 95 q=28.0 size= 159341kB time=00:17:51.31 bitrate=1218.4kbits/s dup=9892 drop=0
frame=25751 fps= 95 q=28.0 size= 159676kB time=00:17:53.17 bitrate=1218.9kbits/s dup=9908 drop=0
frame=25798 fps= 95 q=28.0 size= 159987kB time=00:17:55.15 bitrate=1219.0kbits/s dup=9926 drop=0
frame=25848 fps= 95 q=28.0 size= 160400kB time=00:17:57.18 bitrate=1219.8kbits/s dup=9950 drop=0
frame=25899 fps= 95 q=28.0 size= 160657kB time=00:17:59.38 bitrate=1219.3kbits/s dup=9969 drop=0
frame=25947 fps= 95 q=28.0 size= 160941kB time=00:18:01.30 bitrate=1219.3kbits/s dup=9988 drop=0
frame=25988 fps= 95 q=28.0 size= 161272kB time=00:18:03.09 bitrate=1219.8kbits/s dup=10003 drop=0
frame=26033 fps= 95 q=28.0 size= 161586kB time=00:18:04.92 bitrate=1220.1kbits/s dup=10020 drop=0
frame=26075 fps= 83 q=-1.0 Lsize= 162902kB time=00:18:06.42 bitrate=1228.3kbits/s dup=10036 drop=0
video:148286kB audio:13889kB subtitle:0kB other streams:0kB global headers:0kB muxing overhead: 0.447709%
[libx264 @ 0x2d507a0] frame I:105 Avg QP:16.56 size: 66967
[libx264 @ 0x2d507a0] frame P:8722 Avg QP:20.05 size: 13388
[libx264 @ 0x2d507a0] frame B:17248 Avg QP:24.71 size: 1626
[libx264 @ 0x2d507a0] consecutive B-frames: 10.7% 0.5% 8.1% 80.6%
[libx264 @ 0x2d507a0] mb I I16..4: 19.0% 52.8% 28.2%
[libx264 @ 0x2d507a0] mb P I16..4: 1.3% 3.6% 0.8% P16..4: 32.6% 11.1% 6.8% 0.0% 0.0% skip:43.8%
[libx264 @ 0x2d507a0] mb B I16..4: 0.0% 0.2% 0.0% B16..8: 23.7% 1.4% 0.3% direct: 0.6% skip:73.7% L0:45.8% L1:47.4% BI: 6.8%
[libx264 @ 0x2d507a0] 8x8 transform intra:62.2% inter:55.2%
[libx264 @ 0x2d507a0] coded y,uvDC,uvAC intra: 70.0% 66.2% 26.2% inter: 10.1% 8.4% 0.8%
[libx264 @ 0x2d507a0] i16 v,h,dc,p: 17% 30% 21% 31%
[libx264 @ 0x2d507a0] i8 v,h,dc,ddl,ddr,vr,hd,vl,hu: 22% 18% 18% 5% 7% 9% 7% 8% 7%
[libx264 @ 0x2d507a0] i4 v,h,dc,ddl,ddr,vr,hd,vl,hu: 29% 17% 14% 5% 8% 10% 6% 7% 4%
[libx264 @ 0x2d507a0] i8c dc,h,v,p: 52% 19% 23% 6%
[libx264 @ 0x2d507a0] Weighted P-Frames: Y:0.0% UV:0.0%
[libx264 @ 0x2d507a0] ref P L0: 63.2% 16.0% 13.9% 6.9% 0.0%
[libx264 @ 0x2d507a0] ref B L0: 91.2% 7.2% 1.5%
[libx264 @ 0x2d507a0] ref B L1: 94.8% 5.2%
[libx264 @ 0x2d507a0] kb/s:1118.09
Sign up for free to join this conversation on GitHub. Already have an account? Sign in to comment
You can’t perform that action at this time.