Skip to content

Instantly share code, notes, and snippets.

Embed
What would you like to do?
ffprobe show_programs sample
[PROGRAM]
program_id=0
program_num=0
nb_streams=2
pmt_pid=0
pcr_pid=0
start_pts=2000033
start_time=2.000033
end_pts=N/A
end_time=N/A
TAG:variant_bitrate=827299
[STREAM]
index=0
codec_name=h264
codec_long_name=H.264 / AVC / MPEG-4 AVC / MPEG-4 part 10
profile=High
codec_type=video
codec_time_base=1001/60000
codec_tag_string=[27][0][0][0]
codec_tag=0x001b
width=640
height=360
coded_width=640
coded_height=368
has_b_frames=1
sample_aspect_ratio=1:1
display_aspect_ratio=16:9
pix_fmt=yuv420p
level=31
color_range=tv
color_space=bt709
color_transfer=bt709
color_primaries=bt709
chroma_location=left
field_order=unknown
timecode=N/A
refs=1
is_avc=false
nal_length_size=0
id=N/A
r_frame_rate=30000/1001
avg_frame_rate=30000/1001
time_base=1/90000
start_pts=183003
start_time=2.033367
duration_ts=N/A
duration=N/A
bit_rate=N/A
max_bit_rate=N/A
bits_per_raw_sample=8
nb_frames=N/A
nb_read_frames=N/A
nb_read_packets=N/A
DISPOSITION:default=0
DISPOSITION:dub=0
DISPOSITION:original=0
DISPOSITION:comment=0
DISPOSITION:lyrics=0
DISPOSITION:karaoke=0
DISPOSITION:forced=0
DISPOSITION:hearing_impaired=0
DISPOSITION:visual_impaired=0
DISPOSITION:clean_effects=0
DISPOSITION:attached_pic=0
DISPOSITION:timed_thumbnails=0
TAG:variant_bitrate=827299
[/STREAM]
[STREAM]
index=5
codec_name=aac
codec_long_name=AAC (Advanced Audio Coding)
profile=LC
codec_type=audio
codec_time_base=1/48000
codec_tag_string=[0][0][0][0]
codec_tag=0x0000
sample_fmt=fltp
sample_rate=48000
channels=2
channel_layout=stereo
bits_per_sample=0
id=N/A
r_frame_rate=0/0
avg_frame_rate=0/0
time_base=1/90000
start_pts=180003
start_time=2.000033
duration_ts=N/A
duration=N/A
bit_rate=139875
max_bit_rate=N/A
bits_per_raw_sample=N/A
nb_frames=N/A
nb_read_frames=N/A
nb_read_packets=N/A
DISPOSITION:default=1
DISPOSITION:dub=0
DISPOSITION:original=0
DISPOSITION:comment=0
DISPOSITION:lyrics=0
DISPOSITION:karaoke=0
DISPOSITION:forced=0
DISPOSITION:hearing_impaired=0
DISPOSITION:visual_impaired=0
DISPOSITION:clean_effects=0
DISPOSITION:attached_pic=0
DISPOSITION:timed_thumbnails=0
TAG:variant_bitrate=567617
TAG:id3v2_priv.com.elementaltechnologies.timestamp.utc=2019-06-06T00:00:00Z
TAG:id3v2_priv.com.apple.streaming.transportStreamTimestamp=\x00\x00\x00\x00\x00\x02\xbf#
TAG:language=eng
TAG:comment=Alternate Audio
[/STREAM]
[/PROGRAM]
[PROGRAM]
program_id=1
program_num=0
nb_streams=2
pmt_pid=0
pcr_pid=0
start_pts=2000033
start_time=2.000033
end_pts=N/A
end_time=N/A
TAG:variant_bitrate=10476339
[STREAM]
index=1
codec_name=h264
codec_long_name=H.264 / AVC / MPEG-4 AVC / MPEG-4 part 10
profile=High
codec_type=video
codec_time_base=1001/60000
codec_tag_string=[27][0][0][0]
codec_tag=0x001b
width=1920
height=1080
coded_width=1920
coded_height=1088
has_b_frames=1
sample_aspect_ratio=1:1
display_aspect_ratio=16:9
pix_fmt=yuv420p
level=40
color_range=tv
color_space=bt709
color_transfer=bt709
color_primaries=bt709
chroma_location=left
field_order=unknown
timecode=N/A
refs=1
is_avc=false
nal_length_size=0
id=N/A
r_frame_rate=30000/1001
avg_frame_rate=30000/1001
time_base=1/90000
start_pts=183003
start_time=2.033367
duration_ts=N/A
duration=N/A
bit_rate=N/A
max_bit_rate=N/A
bits_per_raw_sample=8
nb_frames=N/A
nb_read_frames=N/A
nb_read_packets=N/A
DISPOSITION:default=0
DISPOSITION:dub=0
DISPOSITION:original=0
DISPOSITION:comment=0
DISPOSITION:lyrics=0
DISPOSITION:karaoke=0
DISPOSITION:forced=0
DISPOSITION:hearing_impaired=0
DISPOSITION:visual_impaired=0
DISPOSITION:clean_effects=0
DISPOSITION:attached_pic=0
DISPOSITION:timed_thumbnails=0
TAG:variant_bitrate=10476339
[/STREAM]
[STREAM]
index=5
codec_name=aac
codec_long_name=AAC (Advanced Audio Coding)
profile=LC
codec_type=audio
codec_time_base=1/48000
codec_tag_string=[0][0][0][0]
codec_tag=0x0000
sample_fmt=fltp
sample_rate=48000
channels=2
channel_layout=stereo
bits_per_sample=0
id=N/A
r_frame_rate=0/0
avg_frame_rate=0/0
time_base=1/90000
start_pts=180003
start_time=2.000033
duration_ts=N/A
duration=N/A
bit_rate=139875
max_bit_rate=N/A
bits_per_raw_sample=N/A
nb_frames=N/A
nb_read_frames=N/A
nb_read_packets=N/A
DISPOSITION:default=1
DISPOSITION:dub=0
DISPOSITION:original=0
DISPOSITION:comment=0
DISPOSITION:lyrics=0
DISPOSITION:karaoke=0
DISPOSITION:forced=0
DISPOSITION:hearing_impaired=0
DISPOSITION:visual_impaired=0
DISPOSITION:clean_effects=0
DISPOSITION:attached_pic=0
DISPOSITION:timed_thumbnails=0
TAG:variant_bitrate=567617
TAG:id3v2_priv.com.elementaltechnologies.timestamp.utc=2019-06-06T00:00:00Z
TAG:id3v2_priv.com.apple.streaming.transportStreamTimestamp=\x00\x00\x00\x00\x00\x02\xbf#
TAG:language=eng
TAG:comment=Alternate Audio
[/STREAM]
[/PROGRAM]
[PROGRAM]
program_id=2
program_num=0
nb_streams=2
pmt_pid=0
pcr_pid=0
start_pts=2000033
start_time=2.000033
end_pts=N/A
end_time=N/A
TAG:variant_bitrate=6827774
[STREAM]
index=2
codec_name=h264
codec_long_name=H.264 / AVC / MPEG-4 AVC / MPEG-4 part 10
profile=High
codec_type=video
codec_time_base=1001/60000
codec_tag_string=[27][0][0][0]
codec_tag=0x001b
width=1280
height=720
coded_width=1280
coded_height=720
has_b_frames=1
sample_aspect_ratio=1:1
display_aspect_ratio=16:9
pix_fmt=yuv420p
level=31
color_range=tv
color_space=bt709
color_transfer=bt709
color_primaries=bt709
chroma_location=left
field_order=unknown
timecode=N/A
refs=1
is_avc=false
nal_length_size=0
id=N/A
r_frame_rate=30000/1001
avg_frame_rate=30000/1001
time_base=1/90000
start_pts=183003
start_time=2.033367
duration_ts=N/A
duration=N/A
bit_rate=N/A
max_bit_rate=N/A
bits_per_raw_sample=8
nb_frames=N/A
nb_read_frames=N/A
nb_read_packets=N/A
DISPOSITION:default=0
DISPOSITION:dub=0
DISPOSITION:original=0
DISPOSITION:comment=0
DISPOSITION:lyrics=0
DISPOSITION:karaoke=0
DISPOSITION:forced=0
DISPOSITION:hearing_impaired=0
DISPOSITION:visual_impaired=0
DISPOSITION:clean_effects=0
DISPOSITION:attached_pic=0
DISPOSITION:timed_thumbnails=0
TAG:variant_bitrate=6827774
[/STREAM]
[STREAM]
index=5
codec_name=aac
codec_long_name=AAC (Advanced Audio Coding)
profile=LC
codec_type=audio
codec_time_base=1/48000
codec_tag_string=[0][0][0][0]
codec_tag=0x0000
sample_fmt=fltp
sample_rate=48000
channels=2
channel_layout=stereo
bits_per_sample=0
id=N/A
r_frame_rate=0/0
avg_frame_rate=0/0
time_base=1/90000
start_pts=180003
start_time=2.000033
duration_ts=N/A
duration=N/A
bit_rate=139875
max_bit_rate=N/A
bits_per_raw_sample=N/A
nb_frames=N/A
nb_read_frames=N/A
nb_read_packets=N/A
DISPOSITION:default=1
DISPOSITION:dub=0
DISPOSITION:original=0
DISPOSITION:comment=0
DISPOSITION:lyrics=0
DISPOSITION:karaoke=0
DISPOSITION:forced=0
DISPOSITION:hearing_impaired=0
DISPOSITION:visual_impaired=0
DISPOSITION:clean_effects=0
DISPOSITION:attached_pic=0
DISPOSITION:timed_thumbnails=0
TAG:variant_bitrate=567617
TAG:id3v2_priv.com.elementaltechnologies.timestamp.utc=2019-06-06T00:00:00Z
TAG:id3v2_priv.com.apple.streaming.transportStreamTimestamp=\x00\x00\x00\x00\x00\x02\xbf#
TAG:language=eng
TAG:comment=Alternate Audio
[/STREAM]
[/PROGRAM]
[PROGRAM]
program_id=3
program_num=0
nb_streams=2
pmt_pid=0
pcr_pid=0
start_pts=2000033
start_time=2.000033
end_pts=N/A
end_time=N/A
TAG:variant_bitrate=5141220
[STREAM]
index=3
codec_name=h264
codec_long_name=H.264 / AVC / MPEG-4 AVC / MPEG-4 part 10
profile=High
codec_type=video
codec_time_base=1001/60000
codec_tag_string=[27][0][0][0]
codec_tag=0x001b
width=960
height=540
coded_width=960
coded_height=544
has_b_frames=1
sample_aspect_ratio=1:1
display_aspect_ratio=16:9
pix_fmt=yuv420p
level=31
color_range=unknown
color_space=unknown
color_transfer=unknown
color_primaries=unknown
chroma_location=left
field_order=unknown
timecode=N/A
refs=1
is_avc=false
nal_length_size=0
id=N/A
r_frame_rate=30000/1001
avg_frame_rate=30000/1001
time_base=1/90000
start_pts=183003
start_time=2.033367
duration_ts=N/A
duration=N/A
bit_rate=N/A
max_bit_rate=N/A
bits_per_raw_sample=8
nb_frames=N/A
nb_read_frames=N/A
nb_read_packets=N/A
DISPOSITION:default=0
DISPOSITION:dub=0
DISPOSITION:original=0
DISPOSITION:comment=0
DISPOSITION:lyrics=0
DISPOSITION:karaoke=0
DISPOSITION:forced=0
DISPOSITION:hearing_impaired=0
DISPOSITION:visual_impaired=0
DISPOSITION:clean_effects=0
DISPOSITION:attached_pic=0
DISPOSITION:timed_thumbnails=0
TAG:variant_bitrate=5141220
[/STREAM]
[STREAM]
index=5
codec_name=aac
codec_long_name=AAC (Advanced Audio Coding)
profile=LC
codec_type=audio
codec_time_base=1/48000
codec_tag_string=[0][0][0][0]
codec_tag=0x0000
sample_fmt=fltp
sample_rate=48000
channels=2
channel_layout=stereo
bits_per_sample=0
id=N/A
r_frame_rate=0/0
avg_frame_rate=0/0
time_base=1/90000
start_pts=180003
start_time=2.000033
duration_ts=N/A
duration=N/A
bit_rate=139875
max_bit_rate=N/A
bits_per_raw_sample=N/A
nb_frames=N/A
nb_read_frames=N/A
nb_read_packets=N/A
DISPOSITION:default=1
DISPOSITION:dub=0
DISPOSITION:original=0
DISPOSITION:comment=0
DISPOSITION:lyrics=0
DISPOSITION:karaoke=0
DISPOSITION:forced=0
DISPOSITION:hearing_impaired=0
DISPOSITION:visual_impaired=0
DISPOSITION:clean_effects=0
DISPOSITION:attached_pic=0
DISPOSITION:timed_thumbnails=0
TAG:variant_bitrate=567617
TAG:id3v2_priv.com.elementaltechnologies.timestamp.utc=2019-06-06T00:00:00Z
TAG:id3v2_priv.com.apple.streaming.transportStreamTimestamp=\x00\x00\x00\x00\x00\x02\xbf#
TAG:language=eng
TAG:comment=Alternate Audio
[/STREAM]
[/PROGRAM]
[PROGRAM]
program_id=4
program_num=0
nb_streams=2
pmt_pid=0
pcr_pid=0
start_pts=2000033
start_time=2.000033
end_pts=N/A
end_time=N/A
TAG:variant_bitrate=567617
[STREAM]
index=4
codec_name=h264
codec_long_name=H.264 / AVC / MPEG-4 AVC / MPEG-4 part 10
profile=High
codec_type=video
codec_time_base=1001/60000
codec_tag_string=[27][0][0][0]
codec_tag=0x001b
width=480
height=270
coded_width=480
coded_height=272
has_b_frames=0
sample_aspect_ratio=1:1
display_aspect_ratio=16:9
pix_fmt=yuv420p
level=21
color_range=tv
color_space=bt709
color_transfer=bt709
color_primaries=bt709
chroma_location=left
field_order=unknown
timecode=N/A
refs=1
is_avc=false
nal_length_size=0
id=N/A
r_frame_rate=30000/1001
avg_frame_rate=30000/1001
time_base=1/90000
start_pts=183003
start_time=2.033367
duration_ts=N/A
duration=N/A
bit_rate=N/A
max_bit_rate=N/A
bits_per_raw_sample=8
nb_frames=N/A
nb_read_frames=N/A
nb_read_packets=N/A
DISPOSITION:default=0
DISPOSITION:dub=0
DISPOSITION:original=0
DISPOSITION:comment=0
DISPOSITION:lyrics=0
DISPOSITION:karaoke=0
DISPOSITION:forced=0
DISPOSITION:hearing_impaired=0
DISPOSITION:visual_impaired=0
DISPOSITION:clean_effects=0
DISPOSITION:attached_pic=0
DISPOSITION:timed_thumbnails=0
TAG:variant_bitrate=567617
[/STREAM]
[STREAM]
index=5
codec_name=aac
codec_long_name=AAC (Advanced Audio Coding)
profile=LC
codec_type=audio
codec_time_base=1/48000
codec_tag_string=[0][0][0][0]
codec_tag=0x0000
sample_fmt=fltp
sample_rate=48000
channels=2
channel_layout=stereo
bits_per_sample=0
id=N/A
r_frame_rate=0/0
avg_frame_rate=0/0
time_base=1/90000
start_pts=180003
start_time=2.000033
duration_ts=N/A
duration=N/A
bit_rate=139875
max_bit_rate=N/A
bits_per_raw_sample=N/A
nb_frames=N/A
nb_read_frames=N/A
nb_read_packets=N/A
DISPOSITION:default=1
DISPOSITION:dub=0
DISPOSITION:original=0
DISPOSITION:comment=0
DISPOSITION:lyrics=0
DISPOSITION:karaoke=0
DISPOSITION:forced=0
DISPOSITION:hearing_impaired=0
DISPOSITION:visual_impaired=0
DISPOSITION:clean_effects=0
DISPOSITION:attached_pic=0
DISPOSITION:timed_thumbnails=0
TAG:variant_bitrate=567617
TAG:id3v2_priv.com.elementaltechnologies.timestamp.utc=2019-06-06T00:00:00Z
TAG:id3v2_priv.com.apple.streaming.transportStreamTimestamp=\x00\x00\x00\x00\x00\x02\xbf#
TAG:language=eng
TAG:comment=Alternate Audio
[/STREAM]
[/PROGRAM]
[PROGRAM]
program_id=5
program_num=0
nb_streams=2
pmt_pid=0
pcr_pid=0
start_pts=2000033
start_time=2.000033
end_pts=892123042
end_time=892.123042
TAG:variant_bitrate=2114267
[STREAM]
index=6
codec_name=hevc
codec_long_name=H.265 / HEVC (High Efficiency Video Coding)
profile=unknown
codec_type=video
codec_time_base=0/1
codec_tag_string=hev1
codec_tag=0x31766568
width=960
height=540
coded_width=960
coded_height=540
has_b_frames=0
sample_aspect_ratio=N/A
display_aspect_ratio=N/A
pix_fmt=unknown
level=-99
color_range=unknown
color_space=unknown
color_transfer=unknown
color_primaries=unknown
chroma_location=unspecified
field_order=unknown
timecode=N/A
refs=1
id=N/A
r_frame_rate=30000/1
avg_frame_rate=0/0
time_base=1/30000
start_pts=60001
start_time=2.000033
duration_ts=26703690
duration=890.123000
bit_rate=318874
max_bit_rate=N/A
bits_per_raw_sample=N/A
nb_frames=N/A
nb_read_frames=N/A
nb_read_packets=N/A
DISPOSITION:default=0
DISPOSITION:dub=0
DISPOSITION:original=0
DISPOSITION:comment=0
DISPOSITION:lyrics=0
DISPOSITION:karaoke=0
DISPOSITION:forced=0
DISPOSITION:hearing_impaired=0
DISPOSITION:visual_impaired=0
DISPOSITION:clean_effects=0
DISPOSITION:attached_pic=0
DISPOSITION:timed_thumbnails=0
TAG:variant_bitrate=2114267
TAG:major_brand=iso5
TAG:minor_version=1
TAG:compatible_brands=isomiso5hlsf
TAG:creation_time=2019-06-17T18:32:46.000000Z
[/STREAM]
[STREAM]
index=12
codec_name=aac
codec_long_name=AAC (Advanced Audio Coding)
profile=LC
codec_type=audio
codec_time_base=1/48000
codec_tag_string=mp4a
codec_tag=0x6134706d
sample_fmt=fltp
sample_rate=48000
channels=2
channel_layout=stereo
bits_per_sample=0
id=N/A
r_frame_rate=0/0
avg_frame_rate=0/0
time_base=1/48000
start_pts=96002
start_time=2.000042
duration_ts=42725904
duration=890.123000
bit_rate=93102
max_bit_rate=N/A
bits_per_raw_sample=N/A
nb_frames=N/A
nb_read_frames=N/A
nb_read_packets=N/A
DISPOSITION:default=1
DISPOSITION:dub=0
DISPOSITION:original=0
DISPOSITION:comment=0
DISPOSITION:lyrics=0
DISPOSITION:karaoke=0
DISPOSITION:forced=0
DISPOSITION:hearing_impaired=0
DISPOSITION:visual_impaired=0
DISPOSITION:clean_effects=0
DISPOSITION:attached_pic=0
DISPOSITION:timed_thumbnails=0
TAG:major_brand=iso5
TAG:minor_version=1
TAG:compatible_brands=isomiso5hlsf
TAG:creation_time=2019-06-17T18:33:24.000000Z
TAG:language=eng
TAG:comment=Alternate Audio
[/STREAM]
[/PROGRAM]
[PROGRAM]
program_id=6
program_num=0
nb_streams=2
pmt_pid=0
pcr_pid=0
start_pts=2000033
start_time=2.000033
end_pts=892123042
end_time=892.123042
TAG:variant_bitrate=4473957
[STREAM]
index=7
codec_name=hevc
codec_long_name=H.265 / HEVC (High Efficiency Video Coding)
profile=unknown
codec_type=video
codec_time_base=0/1
codec_tag_string=hev1
codec_tag=0x31766568
width=1280
height=720
coded_width=1280
coded_height=720
has_b_frames=0
sample_aspect_ratio=N/A
display_aspect_ratio=N/A
pix_fmt=unknown
level=-99
color_range=unknown
color_space=unknown
color_transfer=unknown
color_primaries=unknown
chroma_location=unspecified
field_order=unknown
timecode=N/A
refs=1
id=N/A
r_frame_rate=30000/1
avg_frame_rate=0/0
time_base=1/30000
start_pts=60001
start_time=2.000033
duration_ts=26703690
duration=890.123000
bit_rate=693518
max_bit_rate=N/A
bits_per_raw_sample=N/A
nb_frames=N/A
nb_read_frames=N/A
nb_read_packets=N/A
DISPOSITION:default=0
DISPOSITION:dub=0
DISPOSITION:original=0
DISPOSITION:comment=0
DISPOSITION:lyrics=0
DISPOSITION:karaoke=0
DISPOSITION:forced=0
DISPOSITION:hearing_impaired=0
DISPOSITION:visual_impaired=0
DISPOSITION:clean_effects=0
DISPOSITION:attached_pic=0
DISPOSITION:timed_thumbnails=0
TAG:variant_bitrate=4473957
TAG:major_brand=iso5
TAG:minor_version=1
TAG:compatible_brands=isomiso5hlsf
TAG:creation_time=2019-06-17T18:32:52.000000Z
[/STREAM]
[STREAM]
index=12
codec_name=aac
codec_long_name=AAC (Advanced Audio Coding)
profile=LC
codec_type=audio
codec_time_base=1/48000
codec_tag_string=mp4a
codec_tag=0x6134706d
sample_fmt=fltp
sample_rate=48000
channels=2
channel_layout=stereo
bits_per_sample=0
id=N/A
r_frame_rate=0/0
avg_frame_rate=0/0
time_base=1/48000
start_pts=96002
start_time=2.000042
duration_ts=42725904
duration=890.123000
bit_rate=93102
max_bit_rate=N/A
bits_per_raw_sample=N/A
nb_frames=N/A
nb_read_frames=N/A
nb_read_packets=N/A
DISPOSITION:default=1
DISPOSITION:dub=0
DISPOSITION:original=0
DISPOSITION:comment=0
DISPOSITION:lyrics=0
DISPOSITION:karaoke=0
DISPOSITION:forced=0
DISPOSITION:hearing_impaired=0
DISPOSITION:visual_impaired=0
DISPOSITION:clean_effects=0
DISPOSITION:attached_pic=0
DISPOSITION:timed_thumbnails=0
TAG:major_brand=iso5
TAG:minor_version=1
TAG:compatible_brands=isomiso5hlsf
TAG:creation_time=2019-06-17T18:33:24.000000Z
TAG:language=eng
TAG:comment=Alternate Audio
[/STREAM]
[/PROGRAM]
[PROGRAM]
program_id=7
program_num=0
nb_streams=2
pmt_pid=0
pcr_pid=0
start_pts=2000033
start_time=2.000033
end_pts=892123042
end_time=892.123042
TAG:variant_bitrate=5822280
[STREAM]
index=8
codec_name=hevc
codec_long_name=H.265 / HEVC (High Efficiency Video Coding)
profile=unknown
codec_type=video
codec_time_base=0/1
codec_tag_string=hev1
codec_tag=0x31766568
width=1920
height=1080
coded_width=1920
coded_height=1080
has_b_frames=0
sample_aspect_ratio=N/A
display_aspect_ratio=N/A
pix_fmt=unknown
level=-99
color_range=unknown
color_space=unknown
color_transfer=unknown
color_primaries=unknown
chroma_location=unspecified
field_order=unknown
timecode=N/A
refs=1
id=N/A
r_frame_rate=30000/1
avg_frame_rate=0/0
time_base=1/30000
start_pts=60001
start_time=2.000033
duration_ts=26703690
duration=890.123000
bit_rate=882143
max_bit_rate=N/A
bits_per_raw_sample=N/A
nb_frames=N/A
nb_read_frames=N/A
nb_read_packets=N/A
DISPOSITION:default=0
DISPOSITION:dub=0
DISPOSITION:original=0
DISPOSITION:comment=0
DISPOSITION:lyrics=0
DISPOSITION:karaoke=0
DISPOSITION:forced=0
DISPOSITION:hearing_impaired=0
DISPOSITION:visual_impaired=0
DISPOSITION:clean_effects=0
DISPOSITION:attached_pic=0
DISPOSITION:timed_thumbnails=0
TAG:variant_bitrate=5822280
TAG:major_brand=iso5
TAG:minor_version=1
TAG:compatible_brands=isomiso5hlsf
TAG:creation_time=2019-06-17T18:32:58.000000Z
[/STREAM]
[STREAM]
index=12
codec_name=aac
codec_long_name=AAC (Advanced Audio Coding)
profile=LC
codec_type=audio
codec_time_base=1/48000
codec_tag_string=mp4a
codec_tag=0x6134706d
sample_fmt=fltp
sample_rate=48000
channels=2
channel_layout=stereo
bits_per_sample=0
id=N/A
r_frame_rate=0/0
avg_frame_rate=0/0
time_base=1/48000
start_pts=96002
start_time=2.000042
duration_ts=42725904
duration=890.123000
bit_rate=93102
max_bit_rate=N/A
bits_per_raw_sample=N/A
nb_frames=N/A
nb_read_frames=N/A
nb_read_packets=N/A
DISPOSITION:default=1
DISPOSITION:dub=0
DISPOSITION:original=0
DISPOSITION:comment=0
DISPOSITION:lyrics=0
DISPOSITION:karaoke=0
DISPOSITION:forced=0
DISPOSITION:hearing_impaired=0
DISPOSITION:visual_impaired=0
DISPOSITION:clean_effects=0
DISPOSITION:attached_pic=0
DISPOSITION:timed_thumbnails=0
TAG:major_brand=iso5
TAG:minor_version=1
TAG:compatible_brands=isomiso5hlsf
TAG:creation_time=2019-06-17T18:33:24.000000Z
TAG:language=eng
TAG:comment=Alternate Audio
[/STREAM]
[/PROGRAM]
[PROGRAM]
program_id=8
program_num=0
nb_streams=2
pmt_pid=0
pcr_pid=0
start_pts=2000033
start_time=2.000033
end_pts=892123042
end_time=892.123042
TAG:variant_bitrate=13996729
[STREAM]
index=9
codec_name=hevc
codec_long_name=H.265 / HEVC (High Efficiency Video Coding)
profile=unknown
codec_type=video
codec_time_base=0/1
codec_tag_string=hev1
codec_tag=0x31766568
width=3840
height=2160
coded_width=3840
coded_height=2160
has_b_frames=0
sample_aspect_ratio=N/A
display_aspect_ratio=N/A
pix_fmt=unknown
level=-99
color_range=unknown
color_space=unknown
color_transfer=unknown
color_primaries=unknown
chroma_location=unspecified
field_order=unknown
timecode=N/A
refs=1
id=N/A
r_frame_rate=30000/1
avg_frame_rate=0/0
time_base=1/30000
start_pts=60001
start_time=2.000033
duration_ts=26703690
duration=890.123000
bit_rate=2166380
max_bit_rate=N/A
bits_per_raw_sample=N/A
nb_frames=N/A
nb_read_frames=N/A
nb_read_packets=N/A
DISPOSITION:default=0
DISPOSITION:dub=0
DISPOSITION:original=0
DISPOSITION:comment=0
DISPOSITION:lyrics=0
DISPOSITION:karaoke=0
DISPOSITION:forced=0
DISPOSITION:hearing_impaired=0
DISPOSITION:visual_impaired=0
DISPOSITION:clean_effects=0
DISPOSITION:attached_pic=0
DISPOSITION:timed_thumbnails=0
TAG:variant_bitrate=13996729
TAG:major_brand=iso5
TAG:minor_version=1
TAG:compatible_brands=isomiso5hlsf
TAG:creation_time=2019-06-17T18:33:04.000000Z
[/STREAM]
[STREAM]
index=12
codec_name=aac
codec_long_name=AAC (Advanced Audio Coding)
profile=LC
codec_type=audio
codec_time_base=1/48000
codec_tag_string=mp4a
codec_tag=0x6134706d
sample_fmt=fltp
sample_rate=48000
channels=2
channel_layout=stereo
bits_per_sample=0
id=N/A
r_frame_rate=0/0
avg_frame_rate=0/0
time_base=1/48000
start_pts=96002
start_time=2.000042
duration_ts=42725904
duration=890.123000
bit_rate=93102
max_bit_rate=N/A
bits_per_raw_sample=N/A
nb_frames=N/A
nb_read_frames=N/A
nb_read_packets=N/A
DISPOSITION:default=1
DISPOSITION:dub=0
DISPOSITION:original=0
DISPOSITION:comment=0
DISPOSITION:lyrics=0
DISPOSITION:karaoke=0
DISPOSITION:forced=0
DISPOSITION:hearing_impaired=0
DISPOSITION:visual_impaired=0
DISPOSITION:clean_effects=0
DISPOSITION:attached_pic=0
DISPOSITION:timed_thumbnails=0
TAG:major_brand=iso5
TAG:minor_version=1
TAG:compatible_brands=isomiso5hlsf
TAG:creation_time=2019-06-17T18:33:24.000000Z
TAG:language=eng
TAG:comment=Alternate Audio
[/STREAM]
[/PROGRAM]
[PROGRAM]
program_id=9
program_num=0
nb_streams=2
pmt_pid=0
pcr_pid=0
start_pts=2000033
start_time=2.000033
end_pts=892123042
end_time=892.123042
TAG:variant_bitrate=18800220
[STREAM]
index=10
codec_name=hevc
codec_long_name=H.265 / HEVC (High Efficiency Video Coding)
profile=unknown
codec_type=video
codec_time_base=0/1
codec_tag_string=hev1
codec_tag=0x31766568
width=3840
height=2160
coded_width=3840
coded_height=2160
has_b_frames=0
sample_aspect_ratio=N/A
display_aspect_ratio=N/A
pix_fmt=unknown
level=-99
color_range=unknown
color_space=unknown
color_transfer=unknown
color_primaries=unknown
chroma_location=unspecified
field_order=unknown
timecode=N/A
refs=1
id=N/A
r_frame_rate=30000/1
avg_frame_rate=0/0
time_base=1/30000
start_pts=60001
start_time=2.000033
duration_ts=26703690
duration=890.123000
bit_rate=2312197
max_bit_rate=N/A
bits_per_raw_sample=N/A
nb_frames=N/A
nb_read_frames=N/A
nb_read_packets=N/A
DISPOSITION:default=0
DISPOSITION:dub=0
DISPOSITION:original=0
DISPOSITION:comment=0
DISPOSITION:lyrics=0
DISPOSITION:karaoke=0
DISPOSITION:forced=0
DISPOSITION:hearing_impaired=0
DISPOSITION:visual_impaired=0
DISPOSITION:clean_effects=0
DISPOSITION:attached_pic=0
DISPOSITION:timed_thumbnails=0
TAG:variant_bitrate=18800220
TAG:major_brand=iso5
TAG:minor_version=1
TAG:compatible_brands=isomiso5hlsf
TAG:creation_time=2019-06-17T18:33:12.000000Z
[/STREAM]
[STREAM]
index=12
codec_name=aac
codec_long_name=AAC (Advanced Audio Coding)
profile=LC
codec_type=audio
codec_time_base=1/48000
codec_tag_string=mp4a
codec_tag=0x6134706d
sample_fmt=fltp
sample_rate=48000
channels=2
channel_layout=stereo
bits_per_sample=0
id=N/A
r_frame_rate=0/0
avg_frame_rate=0/0
time_base=1/48000
start_pts=96002
start_time=2.000042
duration_ts=42725904
duration=890.123000
bit_rate=93102
max_bit_rate=N/A
bits_per_raw_sample=N/A
nb_frames=N/A
nb_read_frames=N/A
nb_read_packets=N/A
DISPOSITION:default=1
DISPOSITION:dub=0
DISPOSITION:original=0
DISPOSITION:comment=0
DISPOSITION:lyrics=0
DISPOSITION:karaoke=0
DISPOSITION:forced=0
DISPOSITION:hearing_impaired=0
DISPOSITION:visual_impaired=0
DISPOSITION:clean_effects=0
DISPOSITION:attached_pic=0
DISPOSITION:timed_thumbnails=0
TAG:major_brand=iso5
TAG:minor_version=1
TAG:compatible_brands=isomiso5hlsf
TAG:creation_time=2019-06-17T18:33:24.000000Z
TAG:language=eng
TAG:comment=Alternate Audio
[/STREAM]
[/PROGRAM]
[PROGRAM]
program_id=10
program_num=0
nb_streams=2
pmt_pid=0
pcr_pid=0
start_pts=2000033
start_time=2.000033
end_pts=892123042
end_time=892.123042
TAG:variant_bitrate=1922391
[STREAM]
index=11
codec_name=hevc
codec_long_name=H.265 / HEVC (High Efficiency Video Coding)
profile=unknown
codec_type=video
codec_time_base=0/1
codec_tag_string=hev1
codec_tag=0x31766568
width=640
height=360
coded_width=640
coded_height=360
has_b_frames=0
sample_aspect_ratio=N/A
display_aspect_ratio=N/A
pix_fmt=unknown
level=-99
color_range=unknown
color_space=unknown
color_transfer=unknown
color_primaries=unknown
chroma_location=unspecified
field_order=unknown
timecode=N/A
refs=1
id=N/A
r_frame_rate=30000/1
avg_frame_rate=0/0
time_base=1/30000
start_pts=60001
start_time=2.000033
duration_ts=26703690
duration=890.123000
bit_rate=295810
max_bit_rate=N/A
bits_per_raw_sample=N/A
nb_frames=N/A
nb_read_frames=N/A
nb_read_packets=N/A
DISPOSITION:default=0
DISPOSITION:dub=0
DISPOSITION:original=0
DISPOSITION:comment=0
DISPOSITION:lyrics=0
DISPOSITION:karaoke=0
DISPOSITION:forced=0
DISPOSITION:hearing_impaired=0
DISPOSITION:visual_impaired=0
DISPOSITION:clean_effects=0
DISPOSITION:attached_pic=0
DISPOSITION:timed_thumbnails=0
TAG:variant_bitrate=1922391
TAG:major_brand=iso5
TAG:minor_version=1
TAG:compatible_brands=isomiso5hlsf
TAG:creation_time=2019-06-17T18:32:41.000000Z
[/STREAM]
[STREAM]
index=12
codec_name=aac
codec_long_name=AAC (Advanced Audio Coding)
profile=LC
codec_type=audio
codec_time_base=1/48000
codec_tag_string=mp4a
codec_tag=0x6134706d
sample_fmt=fltp
sample_rate=48000
channels=2
channel_layout=stereo
bits_per_sample=0
id=N/A
r_frame_rate=0/0
avg_frame_rate=0/0
time_base=1/48000
start_pts=96002
start_time=2.000042
duration_ts=42725904
duration=890.123000
bit_rate=93102
max_bit_rate=N/A
bits_per_raw_sample=N/A
nb_frames=N/A
nb_read_frames=N/A
nb_read_packets=N/A
DISPOSITION:default=1
DISPOSITION:dub=0
DISPOSITION:original=0
DISPOSITION:comment=0
DISPOSITION:lyrics=0
DISPOSITION:karaoke=0
DISPOSITION:forced=0
DISPOSITION:hearing_impaired=0
DISPOSITION:visual_impaired=0
DISPOSITION:clean_effects=0
DISPOSITION:attached_pic=0
DISPOSITION:timed_thumbnails=0
TAG:major_brand=iso5
TAG:minor_version=1
TAG:compatible_brands=isomiso5hlsf
TAG:creation_time=2019-06-17T18:33:24.000000Z
TAG:language=eng
TAG:comment=Alternate Audio
[/STREAM]
[/PROGRAM]
Sign up for free to join this conversation on GitHub. Already have an account? Sign in to comment