Skip to content

Instantly share code, notes, and snippets.

Embed
What would you like to do?
// ------------------------------
// Sonatina Symphonic Orchestra
// ------------------------------
// Clarinets Staccato
// ------------------------------
// -------
// Sustain
// -------
<group>
ampeg_release=0.835
ampeg_hold=0.2
ampeg_decay=0.2
ampeg_sustain=0
<region>
sample=Samples\Clarinets\clarinets-sus-d3.wav
lokey=d3
hikey=d#3
pitch_keycenter=d3
<region>
sample=Samples\Clarinets\clarinets-sus-f3.wav
lokey=e3
hikey=f#3
pitch_keycenter=f3
<region>
sample=Samples\Clarinets\clarinets-sus-g#3.wav
lokey=g3
hikey=a3
pitch_keycenter=g#3
<region>
sample=Samples\Clarinets\clarinets-sus-b3.wav
lokey=a#3
hikey=c4
pitch_keycenter=b3
volume=1
<region>
sample=Samples\Clarinets\clarinets-sus-d4.wav
lokey=c#4
hikey=d#4
pitch_keycenter=d4
<region>
sample=Samples\Clarinets\clarinets-sus-f4.wav
lokey=e4
hikey=f#4
pitch_keycenter=f4
<region>
sample=Samples\Clarinets\clarinets-sus-g#4.wav
lokey=g4
hikey=a4
pitch_keycenter=g#4
volume=2
<region>
sample=Samples\Clarinets\clarinets-sus-b4.wav
lokey=a#4
hikey=c5
pitch_keycenter=b4
volume=-1
<region>
sample=Samples\Clarinets\clarinets-sus-d5.wav
lokey=c#5
hikey=d#5
pitch_keycenter=d5
volume=-1
<region>
sample=Samples\Clarinets\clarinets-sus-f5.wav
lokey=e5
hikey=f#5
pitch_keycenter=f5
<region>
sample=Samples\Clarinets\clarinets-sus-g#5.wav
lokey=g5
hikey=a5
pitch_keycenter=g#5
<region>
sample=Samples\Clarinets\clarinets-sus-b5.wav
lokey=a#5
hikey=c6
pitch_keycenter=b5
volume=3
<region>
sample=Samples\Clarinets\clarinets-sus-d6.wav
lokey=c#6
hikey=f6
pitch_keycenter=d6
// --------
// Staccato
// --------
<group>
loop_mode=one_shot
ampeg_sustain=0
ampeg_decay=1
ampeg_vel2decay=10
<region>
sample=Samples\Clarinets\clarinets-stc-rr1-d3.wav
lokey=d3
hikey=d#3
pitch_keycenter=d3
volume=0
<region>
sample=Samples\Clarinets\clarinets-stc-rr1-f3.wav
lokey=e3
hikey=g3
pitch_keycenter=f3
volume=0
<region>
sample=Samples\Clarinets\clarinets-stc-rr1-a#3.wav
lokey=g#3
hikey=c4
pitch_keycenter=a#3
volume=1
<region>
sample=Samples\Clarinets\clarinets-stc-rr1-d4.wav
lokey=c#4
hikey=d#4
pitch_keycenter=d4
volume=0
<region>
sample=Samples\Clarinets\clarinets-stc-rr1-f4.wav
lokey=e4
hikey=g4
pitch_keycenter=f4
volume=2
<region>
sample=Samples\Clarinets\clarinets-stc-rr1-a#4.wav
lokey=g#4
hikey=c5
pitch_keycenter=a#4
volume=1
<region>
sample=Samples\Clarinets\clarinets-stc-rr1-d5.wav
lokey=c#5
hikey=d#5
pitch_keycenter=d5
volume=0
<region>
sample=Samples\Clarinets\clarinets-stc-rr1-f5.wav
lokey=e5
hikey=g5
pitch_keycenter=f5
volume=0
<region>
sample=Samples\Clarinets\clarinets-stc-rr1-a#5.wav
lokey=g#5
hikey=c6
pitch_keycenter=a#5
volume=-3
<region>
sample=Samples\Clarinets\clarinets-stc-rr1-d6.wav
lokey=c#6
hikey=d#6
pitch_keycenter=d6
volume=0
<region>
sample=Samples\Clarinets\clarinets-stc-rr1-f6.wav
lokey=e6
hikey=f6
pitch_keycenter=f6
volume=-2
Sign up for free to join this conversation on GitHub. Already have an account? Sign in to comment