Skip to content

Instantly share code, notes, and snippets.

Embed
What would you like to do?
mp4 file info
ffprobe version 2.5.3 Copyright (c) 2007-2015 the FFmpeg developers
built on Jan 19 2015 13:08:24 with llvm-gcc 4.2.1 (LLVM build 2336.11.00)
configuration: --prefix=/Volumes/Ramdisk/sw --enable-gpl --enable-pthreads --enable-version3 --enable-libspeex --enable-libvpx --disable-decoder=libvpx --enable-libmp3lame --enable-libtheora --enable-libvorbis --enable-libx264 --enable-avfilter --enable-libopencore_amrwb --enable-libopencore_amrnb --enable-filters --enable-libgsm --enable-libvidstab --enable-libx265 --arch=x86_64 --enable-runtime-cpudetect
libavutil 54. 15.100 / 54. 15.100
libavcodec 56. 13.100 / 56. 13.100
libavformat 56. 15.102 / 56. 15.102
libavdevice 56. 3.100 / 56. 3.100
libavfilter 5. 2.103 / 5. 2.103
libswscale 3. 1.101 / 3. 1.101
libswresample 1. 1.100 / 1. 1.100
libpostproc 53. 3.100 / 53. 3.100
Input #0, mov,mp4,m4a,3gp,3g2,mj2, from '/Users/urshofer/Downloads/openFrameworks/apps/myApps/videoTest/bin/data/1.mp4':
Metadata:
major_brand : isom
minor_version : 512
compatible_brands: isomiso2avc1mp41
encoder : Lavf56.15.102
Duration: 00:00:03.13, start: 0.023220, bitrate: 527 kb/s
Stream #0:0(eng): Video: h264 (High) (avc1 / 0x31637661), yuv420p, 640x360, 386 kb/s, 23.98 fps, 23.98 tbr, 24k tbn, 47.95 tbc (default)
Metadata:
handler_name : VideoHandler
Stream #0:1(eng): Audio: aac (LC) (mp4a / 0x6134706D), 44100 Hz, stereo, fltp, 132 kb/s (default)
Metadata:
handler_name : SoundHandler
Sign up for free to join this conversation on GitHub. Already have an account? Sign in to comment
You can’t perform that action at this time.