Skip to content

Instantly share code, notes, and snippets.

Embed
What would you like to do?
Media Info output from PyAV multi track audio where tracks 2 and above are disabled by FFMPEG
General
Complete name : /Users/vade/Downloads/edit_3.mov
Format : MPEG-4
Format profile : QuickTime
Codec ID : qt 0000.02 (qt )
File size : 9.94 MiB
Duration : 2s 753ms
Overall bit rate mode : Variable
Overall bit rate : 30.3 Mbps
Writing application : Lavf58.29.100
Video
ID : 13
Format : ProRes
Format version : Version 0
Format profile : 422 HQ
Codec ID : apch
Duration : 2s 753ms
Bit rate mode : Variable
Bit rate : 25.7 Mbps
Width : 854 pixels
Height : 480 pixels
Display aspect ratio : 16:9
Frame rate mode : Constant
Frame rate : 23.976 (24000/1001) fps
Color space : YUV
Chroma subsampling : 4:2:2
Scan type : Progressive
Bits/(Pixel*Frame) : 2.620
Stream size : 8.45 MiB (85%)
Writing library : Apple
Color primaries : BT.709
Transfer characteristics : BT.709
Matrix coefficients : BT.709
Audio #1
ID : 1
Format : PCM
Format settings : Little / Signed
Codec ID : sowt
Duration : 1s 344ms
Bit rate mode : Constant
Bit rate : 768 Kbps
Channel(s) : 1 channel
Sampling rate : 48.0 KHz
Bit depth : 16 bits
Stream size : 126 KiB (1%)
Default : Yes
Alternate group : 1
Audio #2
ID : 2
Format : PCM
Format settings : Little / Signed
Codec ID : sowt
Duration : 1s 344ms
Bit rate mode : Constant
Bit rate : 768 Kbps
Channel(s) : 1 channel
Sampling rate : 48.0 KHz
Bit depth : 16 bits
Stream size : 126 KiB (1%)
Default : No
Alternate group : 1
Audio #3
ID : 3
Format : PCM
Format settings : Little / Signed
Codec ID : sowt
Duration : 1s 344ms
Bit rate mode : Constant
Bit rate : 768 Kbps
Channel(s) : 1 channel
Sampling rate : 48.0 KHz
Bit depth : 16 bits
Stream size : 126 KiB (1%)
Default : No
Alternate group : 1
Audio #4
ID : 4
Format : PCM
Format settings : Little / Signed
Codec ID : sowt
Duration : 1s 344ms
Bit rate mode : Constant
Bit rate : 768 Kbps
Channel(s) : 1 channel
Sampling rate : 48.0 KHz
Bit depth : 16 bits
Stream size : 126 KiB (1%)
Default : No
Alternate group : 1
Audio #5
ID : 5
Format : PCM
Format settings : Little / Signed
Codec ID : sowt
Duration : 1s 344ms
Bit rate mode : Constant
Bit rate : 768 Kbps
Channel(s) : 1 channel
Sampling rate : 48.0 KHz
Bit depth : 16 bits
Stream size : 126 KiB (1%)
Default : No
Alternate group : 1
Audio #6
ID : 6
Format : PCM
Format settings : Little / Signed
Codec ID : sowt
Duration : 1s 344ms
Bit rate mode : Constant
Bit rate : 768 Kbps
Channel(s) : 1 channel
Sampling rate : 48.0 KHz
Bit depth : 16 bits
Stream size : 126 KiB (1%)
Default : No
Alternate group : 1
Audio #7
ID : 7
Format : PCM
Format settings : Little / Signed
Codec ID : sowt
Duration : 1s 344ms
Bit rate mode : Constant
Bit rate : 768 Kbps
Channel(s) : 1 channel
Sampling rate : 48.0 KHz
Bit depth : 16 bits
Stream size : 126 KiB (1%)
Default : No
Alternate group : 1
Audio #8
ID : 8
Format : PCM
Format settings : Little / Signed
Codec ID : sowt
Duration : 1s 344ms
Bit rate mode : Constant
Bit rate : 768 Kbps
Channel(s) : 1 channel
Sampling rate : 48.0 KHz
Bit depth : 16 bits
Stream size : 126 KiB (1%)
Default : No
Alternate group : 1
Audio #9
ID : 9
Format : PCM
Format settings : Little / Signed
Codec ID : sowt
Duration : 1s 344ms
Bit rate mode : Constant
Bit rate : 768 Kbps
Channel(s) : 1 channel
Sampling rate : 48.0 KHz
Bit depth : 16 bits
Stream size : 126 KiB (1%)
Default : No
Alternate group : 1
Audio #10
ID : 10
Format : PCM
Format settings : Little / Signed
Codec ID : sowt
Duration : 1s 344ms
Bit rate mode : Constant
Bit rate : 768 Kbps
Channel(s) : 1 channel
Sampling rate : 48.0 KHz
Bit depth : 16 bits
Stream size : 126 KiB (1%)
Default : No
Alternate group : 1
Audio #11
ID : 11
Format : PCM
Format settings : Little / Signed
Codec ID : sowt
Duration : 1s 344ms
Bit rate mode : Constant
Bit rate : 768 Kbps
Channel(s) : 1 channel
Sampling rate : 48.0 KHz
Bit depth : 16 bits
Stream size : 126 KiB (1%)
Default : No
Alternate group : 1
Audio #12
ID : 12
Format : PCM
Format settings : Little / Signed
Codec ID : sowt
Duration : 1s 344ms
Bit rate mode : Constant
Bit rate : 768 Kbps
Channel(s) : 1 channel
Sampling rate : 48.0 KHz
Bit depth : 16 bits
Stream size : 126 KiB (1%)
Default : No
Alternate group : 1
Sign up for free to join this conversation on GitHub. Already have an account? Sign in to comment