Skip to content

Instantly share code, notes, and snippets.

Embed
What would you like to do?
Sonatina Symphonic Orchestra 1.0 - fix lowercase sample paths in .sfz files
From 4e7de246fa2db00112abca27c58922f2003af4c5 Mon Sep 17 00:00:00 2001
From: Przemyslaw Pawelczyk <przemoc@gmail.com>
Date: Tue, 11 Sep 2012 23:40:07 +0200
Subject: [PATCH] Fix lowercase sample paths in *.sfz.
---
Brass - Bass Trombone Solo.sfz | 28 ++++-----
Brass - Horn Solo.sfz | 26 ++++----
Brass - Tenor Trombone Solo.sfz | 22 +++----
Brass - Trumpet Solo.sfz | 26 ++++----
Chorus - Mixed.sfz | 84 +++++++++++++-------------
Keys - Grand Piano.sfz | 116 ++++++++++++++++++------------------
Strings - Cello Solo.sfz | 32 +++++-----
Strings - Violin Solo.sfz | 28 ++++-----
Woodwinds - Alto Flute Solo.sfz | 26 ++++----
Woodwinds - Bass Clarinet Solo.sfz | 26 ++++----
Woodwinds - Bassoon Solo.sfz | 28 ++++-----
Woodwinds - Clarinet Solo.sfz | 26 ++++----
Woodwinds - Contrabassoon Solo.sfz | 26 ++++----
Woodwinds - Cor Anglais Solo.sfz | 18 +++---
Woodwinds - Flute Solo.sfz | 26 ++++----
Woodwinds - Oboe Solo.sfz | 20 +++----
Woodwinds - Piccolo Solo.sfz | 22 +++----
17 files changed, 290 insertions(+), 290 deletions(-)
diff --git a/Brass - Bass Trombone Solo.sfz b/Brass - Bass Trombone Solo.sfz
index ecc4399..fc966f8 100644
--- a/Brass - Bass Trombone Solo.sfz
+++ b/Brass - Bass Trombone Solo.sfz
@@ -11,85 +11,85 @@ fil_type=lpf_2p
cutoff=120
<region>
-sample=samples\bass trombone\bass_trombone-e1.wav
+sample=Samples\Bass Trombone\bass_trombone-e1.wav
lokey=e1
hikey=f1
pitch_keycenter=e1
<region>
-sample=samples\bass trombone\bass_trombone-g1.wav
+sample=Samples\Bass Trombone\bass_trombone-g1.wav
lokey=f#1
hikey=g#1
pitch_keycenter=g1
<region>
-sample=samples\bass trombone\bass_trombone-a#1.wav
+sample=Samples\Bass Trombone\bass_trombone-a#1.wav
lokey=a1
hikey=b1
pitch_keycenter=a#1
<region>
-sample=samples\bass trombone\bass_trombone-c#2.wav
+sample=Samples\Bass Trombone\bass_trombone-c#2.wav
lokey=c2
hikey=d2
pitch_keycenter=c#2
<region>
-sample=samples\bass trombone\bass_trombone-e2.wav
+sample=Samples\Bass Trombone\bass_trombone-e2.wav
lokey=d#2
hikey=f2
pitch_keycenter=e2
<region>
-sample=samples\bass trombone\bass_trombone-g2.wav
+sample=Samples\Bass Trombone\bass_trombone-g2.wav
lokey=f#2
hikey=g#2
pitch_keycenter=g2
<region>
-sample=samples\bass trombone\bass_trombone-a#2.wav
+sample=Samples\Bass Trombone\bass_trombone-a#2.wav
lokey=a2
hikey=b2
pitch_keycenter=a#2
<region>
-sample=samples\bass trombone\bass_trombone-c#3.wav
+sample=Samples\Bass Trombone\bass_trombone-c#3.wav
lokey=c3
hikey=d3
pitch_keycenter=c#3
<region>
-sample=samples\bass trombone\bass_trombone-e3.wav
+sample=Samples\Bass Trombone\bass_trombone-e3.wav
lokey=d#3
hikey=f3
pitch_keycenter=e3
<region>
-sample=samples\bass trombone\bass_trombone-g3.wav
+sample=Samples\Bass Trombone\bass_trombone-g3.wav
lokey=f#3
hikey=g#3
pitch_keycenter=g3
<region>
-sample=samples\bass trombone\bass_trombone-a#3.wav
+sample=Samples\Bass Trombone\bass_trombone-a#3.wav
lokey=a3
hikey=b3
pitch_keycenter=a#3
<region>
-sample=samples\bass trombone\bass_trombone-c#4.wav
+sample=Samples\Bass Trombone\bass_trombone-c#4.wav
lokey=c4
hikey=d4
pitch_keycenter=c#4
<region>
-sample=samples\bass trombone\bass_trombone-e4.wav
+sample=Samples\Bass Trombone\bass_trombone-e4.wav
lokey=d#4
hikey=f4
pitch_keycenter=e4
<region>
-sample=samples\bass trombone\bass_trombone-g4.wav
+sample=Samples\Bass Trombone\bass_trombone-g4.wav
lokey=f#4
hikey=g4
pitch_keycenter=g4
diff --git a/Brass - Horn Solo.sfz b/Brass - Horn Solo.sfz
index e32848f..da96f82 100644
--- a/Brass - Horn Solo.sfz
+++ b/Brass - Horn Solo.sfz
@@ -14,85 +14,85 @@ fil_type=lpf_2p
cutoff=120
<region>
-sample=samples\horn\horn-e2.wav
+sample=Samples\Horn\horn-e2.wav
lokey=e2
hikey=f2
pitch_keycenter=e2
tune=30
<region>
-sample=samples\horn\horn-g2.wav
+sample=Samples\Horn\horn-g2.wav
lokey=f#2
hikey=g#2
pitch_keycenter=g2
tune=-11
<region>
-sample=samples\horn\horn-a#2.wav
+sample=Samples\Horn\horn-a#2.wav
lokey=a2
hikey=b2
pitch_keycenter=a#2
<region>
-sample=samples\horn\horn-c#3.wav
+sample=Samples\Horn\horn-c#3.wav
lokey=c3
hikey=d3
pitch_keycenter=c#3
<region>
-sample=samples\horn\horn-e3.wav
+sample=Samples\Horn\horn-e3.wav
lokey=d#3
hikey=f3
pitch_keycenter=e3
<region>
-sample=samples\horn\horn-g3.wav
+sample=Samples\Horn\horn-g3.wav
lokey=f#3
hikey=g#3
pitch_keycenter=g3
<region>
-sample=samples\horn\horn-a#3.wav
+sample=Samples\Horn\horn-a#3.wav
lokey=a3
hikey=b3
pitch_keycenter=a#3
<region>
-sample=samples\horn\horn-c#4.wav
+sample=Samples\Horn\horn-c#4.wav
lokey=c4
hikey=d4
pitch_keycenter=c#4
tune=-10
<region>
-sample=samples\horn\horn-e4.wav
+sample=Samples\Horn\horn-e4.wav
lokey=d#4
hikey=f4
pitch_keycenter=e4
<region>
-sample=samples\horn\horn-g4.wav
+sample=Samples\Horn\horn-g4.wav
lokey=f#4
hikey=g#4
pitch_keycenter=g4
tune=-8
<region>
-sample=samples\horn\horn-a#4.wav
+sample=Samples\Horn\horn-a#4.wav
lokey=a4
hikey=b4
pitch_keycenter=a#4
tune=-9
<region>
-sample=samples\horn\horn-c#5.wav
+sample=Samples\Horn\horn-c#5.wav
lokey=c5
hikey=d5
pitch_keycenter=c#5
tune=23
<region>
-sample=samples\horn\horn-e5.wav
+sample=Samples\Horn\horn-e5.wav
lokey=d#5
hikey=e5
pitch_keycenter=e5
diff --git a/Brass - Tenor Trombone Solo.sfz b/Brass - Tenor Trombone Solo.sfz
index fa7c2c1..f10546f 100644
--- a/Brass - Tenor Trombone Solo.sfz
+++ b/Brass - Tenor Trombone Solo.sfz
@@ -11,67 +11,67 @@ fil_type=lpf_2p
cutoff=120
<region>
-sample=samples\tenor trombone\tenor_trombone-e2.wav
+sample=Samples\Tenor Trombone\tenor_trombone-e2.wav
lokey=e2
hikey=f2
pitch_keycenter=e2
<region>
-sample=samples\tenor trombone\tenor_trombone-g2.wav
+sample=Samples\Tenor Trombone\tenor_trombone-g2.wav
lokey=f#2
hikey=g#2
pitch_keycenter=g2
<region>
-sample=samples\tenor trombone\tenor_trombone-a#2.wav
+sample=Samples\Tenor Trombone\tenor_trombone-a#2.wav
lokey=a2
hikey=b2
pitch_keycenter=a#2
<region>
-sample=samples\tenor trombone\tenor_trombone-c#3.wav
+sample=Samples\Tenor Trombone\tenor_trombone-c#3.wav
lokey=c3
hikey=d3
pitch_keycenter=c#3
<region>
-sample=samples\tenor trombone\tenor_trombone-e3.wav
+sample=Samples\Tenor Trombone\tenor_trombone-e3.wav
lokey=d#3
hikey=f3
pitch_keycenter=e3
<region>
-sample=samples\tenor trombone\tenor_trombone-g3.wav
+sample=Samples\Tenor Trombone\tenor_trombone-g3.wav
lokey=f#3
hikey=g#3
pitch_keycenter=g3
<region>
-sample=samples\tenor trombone\tenor_trombone-a#3.wav
+sample=Samples\Tenor Trombone\tenor_trombone-a#3.wav
lokey=a3
hikey=b3
pitch_keycenter=a#3
<region>
-sample=samples\tenor trombone\tenor_trombone-c#4.wav
+sample=Samples\Tenor Trombone\tenor_trombone-c#4.wav
lokey=c4
hikey=d4
pitch_keycenter=c#4
<region>
-sample=samples\tenor trombone\tenor_trombone-e4.wav
+sample=Samples\Tenor Trombone\tenor_trombone-e4.wav
lokey=d#4
hikey=f4
pitch_keycenter=e4
<region>
-sample=samples\tenor trombone\tenor_trombone-g4.wav
+sample=Samples\Tenor Trombone\tenor_trombone-g4.wav
lokey=f#4
hikey=g#4
pitch_keycenter=g4
<region>
-sample=samples\tenor trombone\tenor_trombone-a#4.wav
+sample=Samples\Tenor Trombone\tenor_trombone-a#4.wav
lokey=a4
hikey=b4
pitch_keycenter=a#4
diff --git a/Brass - Trumpet Solo.sfz b/Brass - Trumpet Solo.sfz
index 513fa9b..a33706a 100644
--- a/Brass - Trumpet Solo.sfz
+++ b/Brass - Trumpet Solo.sfz
@@ -11,87 +11,87 @@ fil_type=lpf_2p
cutoff=120
<region>
-sample=samples\trumpet\trumpet-e3.wav
+sample=Samples\Trumpet\trumpet-e3.wav
lokey=e3
hikey=f3
pitch_keycenter=e3
tune=-6
<region>
-sample=samples\trumpet\trumpet-g3.wav
+sample=Samples\Trumpet\trumpet-g3.wav
lokey=f#3
hikey=g#3
pitch_keycenter=g3
tune=8
<region>
-sample=samples\trumpet\trumpet-a#3.wav
+sample=Samples\Trumpet\trumpet-a#3.wav
lokey=a3
hikey=b3
pitch_keycenter=a#3
tune=12
<region>
-sample=samples\trumpet\trumpet-c#4.wav
+sample=Samples\Trumpet\trumpet-c#4.wav
lokey=c4
hikey=d4
pitch_keycenter=c#4
<region>
-sample=samples\trumpet\trumpet-e4.wav
+sample=Samples\Trumpet\trumpet-e4.wav
lokey=d#4
hikey=f4
pitch_keycenter=e4
<region>
-sample=samples\trumpet\trumpet-g4.wav
+sample=Samples\Trumpet\trumpet-g4.wav
lokey=f#4
hikey=g#4
pitch_keycenter=g4
tune=-8
<region>
-sample=samples\trumpet\trumpet-a#4.wav
+sample=Samples\Trumpet\trumpet-a#4.wav
lokey=a4
hikey=b4
pitch_keycenter=a#4
tune=-4
<region>
-sample=samples\trumpet\trumpet-c#5.wav
+sample=Samples\Trumpet\trumpet-c#5.wav
lokey=c5
hikey=d5
pitch_keycenter=c#5
<region>
-sample=samples\trumpet\trumpet-e5.wav
+sample=Samples\Trumpet\trumpet-e5.wav
lokey=d#5
hikey=f5
pitch_keycenter=e5
tune=-10
<region>
-sample=samples\trumpet\trumpet-g5.wav
+sample=Samples\Trumpet\trumpet-g5.wav
lokey=f#5
hikey=g#5
pitch_keycenter=g5
tune=-4
<region>
-sample=samples\trumpet\trumpet-a#5.wav
+sample=Samples\Trumpet\trumpet-a#5.wav
lokey=a5
hikey=b5
pitch_keycenter=a#5
<region>
-sample=samples\trumpet\trumpet-c#6.wav
+sample=Samples\Trumpet\trumpet-c#6.wav
lokey=c6
hikey=d6
pitch_keycenter=c#6
tune=5
<region>
-sample=samples\trumpet\trumpet-e6.wav
+sample=Samples\Trumpet\trumpet-e6.wav
lokey=d#6
hikey=e6
pitch_keycenter=e6
diff --git a/Chorus - Mixed.sfz b/Chorus - Mixed.sfz
index 6133c9e..05f6d5f 100644
--- a/Chorus - Mixed.sfz
+++ b/Chorus - Mixed.sfz
@@ -13,252 +13,252 @@ ampeg_sustain=70
ampeg_release=1.250
<region>
-sample=Samples\chorus\chorus-female-g4.wav
+sample=Samples\Chorus\chorus-female-g4.wav
lokey=g4
hikey=g4
pitch_keycenter=g4
<region>
-sample=Samples\chorus\chorus-female-g#4.wav
+sample=Samples\Chorus\chorus-female-g#4.wav
lokey=g#4
hikey=g#4
pitch_keycenter=g#4
<region>
-sample=Samples\chorus\chorus-female-a4.wav
+sample=Samples\Chorus\chorus-female-a4.wav
lokey=a4
hikey=a4
pitch_keycenter=a4
<region>
-sample=Samples\chorus\chorus-female-a#4.wav
+sample=Samples\Chorus\chorus-female-a#4.wav
lokey=a#4
hikey=a#4
pitch_keycenter=a#4
<region>
-sample=Samples\chorus\chorus-female-b4.wav
+sample=Samples\Chorus\chorus-female-b4.wav
lokey=b4
hikey=b4
pitch_keycenter=b4
<region>
-sample=Samples\chorus\chorus-female-c5.wav
+sample=Samples\Chorus\chorus-female-c5.wav
lokey=c5
hikey=c5
pitch_keycenter=c5
<region>
-sample=Samples\chorus\chorus-female-c#5.wav
+sample=Samples\Chorus\chorus-female-c#5.wav
lokey=c#5
hikey=c#5
pitch_keycenter=c#5
<region>
-sample=Samples\chorus\chorus-female-d5.wav
+sample=Samples\Chorus\chorus-female-d5.wav
lokey=d5
hikey=d5
pitch_keycenter=d5
<region>
-sample=Samples\chorus\chorus-female-d#5.wav
+sample=Samples\Chorus\chorus-female-d#5.wav
lokey=d#5
hikey=d#5
pitch_keycenter=d#5
<region>
-sample=Samples\chorus\chorus-female-e5.wav
+sample=Samples\Chorus\chorus-female-e5.wav
lokey=e5
hikey=e5
pitch_keycenter=e5
<region>
-sample=Samples\chorus\chorus-female-f5.wav
+sample=Samples\Chorus\chorus-female-f5.wav
lokey=f5
hikey=f5
pitch_keycenter=f5
<region>
-sample=Samples\chorus\chorus-female-f#5.wav
+sample=Samples\Chorus\chorus-female-f#5.wav
lokey=f#5
hikey=f#5
pitch_keycenter=f#5
<region>
-sample=Samples\chorus\chorus-female-g5.wav
+sample=Samples\Chorus\chorus-female-g5.wav
lokey=g5
hikey=g5
pitch_keycenter=g5
<region>
-sample=Samples\chorus\chorus-female-g#5.wav
+sample=Samples\Chorus\chorus-female-g#5.wav
lokey=g#5
hikey=g#5
pitch_keycenter=g#5
<region>
-sample=Samples\chorus\chorus-female-a5.wav
+sample=Samples\Chorus\chorus-female-a5.wav
lokey=a5
hikey=a5
pitch_keycenter=a5
<region>
-sample=Samples\chorus\chorus-female-a#5.wav
+sample=Samples\Chorus\chorus-female-a#5.wav
lokey=a#5
hikey=a#5
pitch_keycenter=a#5
<region>
-sample=Samples\chorus\chorus-female-b5.wav
+sample=Samples\Chorus\chorus-female-b5.wav
lokey=b5
hikey=b5
pitch_keycenter=b5
<region>
-sample=Samples\chorus\chorus-female-c6.wav
+sample=Samples\Chorus\chorus-female-c6.wav
lokey=c6
hikey=c6
pitch_keycenter=c6
<region>
-sample=Samples\chorus\chorus-male-g2.wav
+sample=Samples\Chorus\chorus-male-g2.wav
lokey=g2
hikey=g2
pitch_keycenter=g2
<region>
-sample=Samples\chorus\chorus-male-g#2.wav
+sample=Samples\Chorus\chorus-male-g#2.wav
lokey=g#2
hikey=g#2
pitch_keycenter=g#2
<region>
-sample=Samples\chorus\chorus-male-a2.wav
+sample=Samples\Chorus\chorus-male-a2.wav
lokey=a2
hikey=a2
pitch_keycenter=a2
<region>
-sample=Samples\chorus\chorus-male-a#2.wav
+sample=Samples\Chorus\chorus-male-a#2.wav
lokey=a#2
hikey=a#2
pitch_keycenter=a#2
<region>
-sample=Samples\chorus\chorus-male-b2.wav
+sample=Samples\Chorus\chorus-male-b2.wav
lokey=b2
hikey=b2
pitch_keycenter=b2
<region>
-sample=Samples\chorus\chorus-male-c3.wav
+sample=Samples\Chorus\chorus-male-c3.wav
lokey=c3
hikey=c3
pitch_keycenter=c3
<region>
-sample=Samples\chorus\chorus-male-c#3.wav
+sample=Samples\Chorus\chorus-male-c#3.wav
lokey=c#3
hikey=c#3
pitch_keycenter=c#3
<region>
-sample=Samples\chorus\chorus-male-d3.wav
+sample=Samples\Chorus\chorus-male-d3.wav
lokey=d3
hikey=d3
pitch_keycenter=d3
<region>
-sample=Samples\chorus\chorus-male-d#3.wav
+sample=Samples\Chorus\chorus-male-d#3.wav
lokey=d#3
hikey=d#3
pitch_keycenter=d#3
<region>
-sample=Samples\chorus\chorus-male-e3.wav
+sample=Samples\Chorus\chorus-male-e3.wav
lokey=e3
hikey=e3
pitch_keycenter=e3
<region>
-sample=Samples\chorus\chorus-male-f3.wav
+sample=Samples\Chorus\chorus-male-f3.wav
lokey=f3
hikey=f3
pitch_keycenter=f3
<region>
-sample=Samples\chorus\chorus-male-f#3.wav
+sample=Samples\Chorus\chorus-male-f#3.wav
lokey=f#3
hikey=f#3
pitch_keycenter=f#3
<region>
-sample=Samples\chorus\chorus-male-g3.wav
+sample=Samples\Chorus\chorus-male-g3.wav
lokey=g3
hikey=g3
pitch_keycenter=g3
<region>
-sample=Samples\chorus\chorus-male-g#3.wav
+sample=Samples\Chorus\chorus-male-g#3.wav
lokey=g#3
hikey=g#3
pitch_keycenter=g#3
<region>
-sample=Samples\chorus\chorus-male-a3.wav
+sample=Samples\Chorus\chorus-male-a3.wav
lokey=a3
hikey=a3
pitch_keycenter=a3
<region>
-sample=Samples\chorus\chorus-male-a#3.wav
+sample=Samples\Chorus\chorus-male-a#3.wav
lokey=a#3
hikey=a#3
pitch_keycenter=a#3
<region>
-sample=Samples\chorus\chorus-male-b3.wav
+sample=Samples\Chorus\chorus-male-b3.wav
lokey=b3
hikey=b3
pitch_keycenter=b3
<region>
-sample=Samples\chorus\chorus-male-c4.wav
+sample=Samples\Chorus\chorus-male-c4.wav
lokey=c4
hikey=c4
<region>
-sample=Samples\chorus\chorus-male-c#4.wav
+sample=Samples\Chorus\chorus-male-c#4.wav
lokey=c#4
hikey=c#4
pitch_keycenter=c#4
<region>
-sample=Samples\chorus\chorus-male-d4.wav
+sample=Samples\Chorus\chorus-male-d4.wav
lokey=d4
hikey=d4
pitch_keycenter=d4
<region>
-sample=Samples\chorus\chorus-male-d#4.wav
+sample=Samples\Chorus\chorus-male-d#4.wav
lokey=d#4
hikey=d#4
pitch_keycenter=d#4
<region>
-sample=Samples\chorus\chorus-male-e4.wav
+sample=Samples\Chorus\chorus-male-e4.wav
lokey=e4
hikey=e4
pitch_keycenter=e4
<region>
-sample=Samples\chorus\chorus-male-f4.wav
+sample=Samples\Chorus\chorus-male-f4.wav
lokey=f4
hikey=f4
pitch_keycenter=f4
<region>
-sample=Samples\chorus\chorus-male-f#4.wav
+sample=Samples\Chorus\chorus-male-f#4.wav
lokey=f#4
hikey=f#4
pitch_keycenter=f#4
diff --git a/Keys - Grand Piano.sfz b/Keys - Grand Piano.sfz
index 61097c8..c0c8e7e 100644
--- a/Keys - Grand Piano.sfz
+++ b/Keys - Grand Piano.sfz
@@ -10,174 +10,174 @@ hivel=127
lovel=80
<region>
-sample=samples\grand piano\piano-f-c1.wav
+sample=Samples\Grand Piano\piano-f-c1.wav
lokey=c1
hikey=c#1
pitch_keycenter=c1
<region>
-sample=samples\grand piano\piano-f-d#1.wav
+sample=Samples\Grand Piano\piano-f-d#1.wav
lokey=d1
hikey=e1
pitch_keycenter=d#1
<region>
-sample=samples\grand piano\piano-f-f#1.wav
+sample=Samples\Grand Piano\piano-f-f#1.wav
lokey=f1
hikey=g1
pitch_keycenter=f#1
<region>
-sample=samples\grand piano\piano-f-a1.wav
+sample=Samples\Grand Piano\piano-f-a1.wav
lokey=g#1
hikey=a#1
pitch_keycenter=a1
<region>
-sample=samples\grand piano\piano-f-c2.wav
+sample=Samples\Grand Piano\piano-f-c2.wav
lokey=b1
hikey=c#2
pitch_keycenter=c2
<region>
-sample=samples\grand piano\piano-f-d#2.wav
+sample=Samples\Grand Piano\piano-f-d#2.wav
lokey=d2
hikey=e2
pitch_keycenter=d#2
<region>
-sample=samples\grand piano\piano-f-f#2.wav
+sample=Samples\Grand Piano\piano-f-f#2.wav
lokey=f2
hikey=g2
pitch_keycenter=f#2
<region>
-sample=samples\grand piano\piano-f-a2.wav
+sample=Samples\Grand Piano\piano-f-a2.wav
lokey=g#2
hikey=a#2
pitch_keycenter=a2
<region>
-sample=samples\grand piano\piano-f-c3.wav
+sample=Samples\Grand Piano\piano-f-c3.wav
lokey=b2
hikey=c#3
pitch_keycenter=c3
<region>
-sample=samples\grand piano\piano-f-d#3.wav
+sample=Samples\Grand Piano\piano-f-d#3.wav
lokey=d3
hikey=e3
pitch_keycenter=d#3
<region>
-sample=samples\grand piano\piano-f-f#3.wav
+sample=Samples\Grand Piano\piano-f-f#3.wav
lokey=f3
hikey=g3
pitch_keycenter=f#3
<region>
-sample=samples\grand piano\piano-f-a3.wav
+sample=Samples\Grand Piano\piano-f-a3.wav
lokey=g#3
hikey=a#3
pitch_keycenter=a3
<region>
-sample=samples\grand piano\piano-f-c4.wav
+sample=Samples\Grand Piano\piano-f-c4.wav
lokey=b3
hikey=c#4
<region>
-sample=samples\grand piano\piano-f-d#4.wav
+sample=Samples\Grand Piano\piano-f-d#4.wav
lokey=d4
hikey=e4
pitch_keycenter=d#4
<region>
-sample=samples\grand piano\piano-f-f#4.wav
+sample=Samples\Grand Piano\piano-f-f#4.wav
lokey=f4
hikey=g4
pitch_keycenter=f#4
<region>
-sample=samples\grand piano\piano-f-a4.wav
+sample=Samples\Grand Piano\piano-f-a4.wav
lokey=g#4
hikey=a#4
pitch_keycenter=a4
<region>
-sample=samples\grand piano\piano-f-c5.wav
+sample=Samples\Grand Piano\piano-f-c5.wav
lokey=b4
hikey=c#5
pitch_keycenter=c5
<region>
-sample=samples\grand piano\piano-f-d#5.wav
+sample=Samples\Grand Piano\piano-f-d#5.wav
lokey=d5
hikey=e5
pitch_keycenter=d#5
<region>
-sample=samples\grand piano\piano-f-f#5.wav
+sample=Samples\Grand Piano\piano-f-f#5.wav
lokey=f5
hikey=g5
pitch_keycenter=f#5
<region>
-sample=samples\grand piano\piano-f-a5.wav
+sample=Samples\Grand Piano\piano-f-a5.wav
lokey=g#5
hikey=a#5
pitch_keycenter=a5
<region>
-sample=samples\grand piano\piano-f-c6.wav
+sample=Samples\Grand Piano\piano-f-c6.wav
lokey=b5
hikey=c#6
pitch_keycenter=c6
<region>
-sample=samples\grand piano\piano-f-d#6.wav
+sample=Samples\Grand Piano\piano-f-d#6.wav
lokey=d6
hikey=e6
pitch_keycenter=d#6
<region>
-sample=samples\grand piano\piano-f-f#6.wav
+sample=Samples\Grand Piano\piano-f-f#6.wav
lokey=f6
hikey=g6
pitch_keycenter=f#6
<region>
-sample=samples\grand piano\piano-f-a6.wav
+sample=Samples\Grand Piano\piano-f-a6.wav
lokey=g#6
hikey=a#6
pitch_keycenter=a6
<region>
-sample=samples\grand piano\piano-f-c7.wav
+sample=Samples\Grand Piano\piano-f-c7.wav
lokey=b6
hikey=c#7
pitch_keycenter=c7
<region>
-sample=samples\grand piano\piano-f-d#7.wav
+sample=Samples\Grand Piano\piano-f-d#7.wav
lokey=d7
hikey=e7
pitch_keycenter=d#7
<region>
-sample=samples\grand piano\piano-f-f#7.wav
+sample=Samples\Grand Piano\piano-f-f#7.wav
lokey=f7
hikey=g7
pitch_keycenter=f#7
<region>
-sample=samples\grand piano\piano-f-a7.wav
+sample=Samples\Grand Piano\piano-f-a7.wav
lokey=g#7
hikey=a#7
pitch_keycenter=a7
<region>
-sample=samples\grand piano\piano-f-c8.wav
+sample=Samples\Grand Piano\piano-f-c8.wav
lokey=b7
hikey=c8
pitch_keycenter=c8
@@ -191,174 +191,174 @@ hivel=79
lovel=0
<region>
-sample=samples\grand piano\piano-p-c1.wav
+sample=Samples\Grand Piano\piano-p-c1.wav
lokey=c1
hikey=c#1
pitch_keycenter=c1
<region>
-sample=samples\grand piano\piano-p-d#1.wav
+sample=Samples\Grand Piano\piano-p-d#1.wav
lokey=d1
hikey=e1
pitch_keycenter=d#1
<region>
-sample=samples\grand piano\piano-p-f#1.wav
+sample=Samples\Grand Piano\piano-p-f#1.wav
lokey=f1
hikey=g1
pitch_keycenter=f#1
<region>
-sample=samples\grand piano\piano-p-a1.wav
+sample=Samples\Grand Piano\piano-p-a1.wav
lokey=g#1
hikey=a#1
pitch_keycenter=a1
<region>
-sample=samples\grand piano\piano-p-c2.wav
+sample=Samples\Grand Piano\piano-p-c2.wav
lokey=b1
hikey=c#2
pitch_keycenter=c2
<region>
-sample=samples\grand piano\piano-p-d#2.wav
+sample=Samples\Grand Piano\piano-p-d#2.wav
lokey=d2
hikey=e2
pitch_keycenter=d#2
<region>
-sample=samples\grand piano\piano-p-f#2.wav
+sample=Samples\Grand Piano\piano-p-f#2.wav
lokey=f2
hikey=g2
pitch_keycenter=f#2
<region>
-sample=samples\grand piano\piano-p-a2.wav
+sample=Samples\Grand Piano\piano-p-a2.wav
lokey=g#2
hikey=a#2
pitch_keycenter=a2
<region>
-sample=samples\grand piano\piano-p-c3.wav
+sample=Samples\Grand Piano\piano-p-c3.wav
lokey=b2
hikey=c#3
pitch_keycenter=c3
<region>
-sample=samples\grand piano\piano-p-d#3.wav
+sample=Samples\Grand Piano\piano-p-d#3.wav
lokey=d3
hikey=e3
pitch_keycenter=d#3
<region>
-sample=samples\grand piano\piano-p-f#3.wav
+sample=Samples\Grand Piano\piano-p-f#3.wav
lokey=f3
hikey=g3
pitch_keycenter=f#3
<region>
-sample=samples\grand piano\piano-p-a3.wav
+sample=Samples\Grand Piano\piano-p-a3.wav
lokey=g#3
hikey=a#3
pitch_keycenter=a3
<region>
-sample=samples\grand piano\piano-p-c4.wav
+sample=Samples\Grand Piano\piano-p-c4.wav
lokey=b3
hikey=c#4
<region>
-sample=samples\grand piano\piano-p-d#4.wav
+sample=Samples\Grand Piano\piano-p-d#4.wav
lokey=d4
hikey=e4
pitch_keycenter=d#4
<region>
-sample=samples\grand piano\piano-p-f#4.wav
+sample=Samples\Grand Piano\piano-p-f#4.wav
lokey=f4
hikey=g4
pitch_keycenter=f#4
<region>
-sample=samples\grand piano\piano-p-a4.wav
+sample=Samples\Grand Piano\piano-p-a4.wav
lokey=g#4
hikey=a#4
pitch_keycenter=a4
<region>
-sample=samples\grand piano\piano-p-c5.wav
+sample=Samples\Grand Piano\piano-p-c5.wav
lokey=b4
hikey=c#5
pitch_keycenter=c5
<region>
-sample=samples\grand piano\piano-p-d#5.wav
+sample=Samples\Grand Piano\piano-p-d#5.wav
lokey=d5
hikey=e5
pitch_keycenter=d#5
<region>
-sample=samples\grand piano\piano-p-f#5.wav
+sample=Samples\Grand Piano\piano-p-f#5.wav
lokey=f5
hikey=g5
pitch_keycenter=f#5
<region>
-sample=samples\grand piano\piano-p-a5.wav
+sample=Samples\Grand Piano\piano-p-a5.wav
lokey=g#5
hikey=a#5
pitch_keycenter=a5
<region>
-sample=samples\grand piano\piano-p-c6.wav
+sample=Samples\Grand Piano\piano-p-c6.wav
lokey=b5
hikey=c#6
pitch_keycenter=c6
<region>
-sample=samples\grand piano\piano-p-d#6.wav
+sample=Samples\Grand Piano\piano-p-d#6.wav
lokey=d6
hikey=e6
pitch_keycenter=d#6
<region>
-sample=samples\grand piano\piano-p-f#6.wav
+sample=Samples\Grand Piano\piano-p-f#6.wav
lokey=f6
hikey=g6
pitch_keycenter=f#6
<region>
-sample=samples\grand piano\piano-p-a6.wav
+sample=Samples\Grand Piano\piano-p-a6.wav
lokey=g#6
hikey=a#6
pitch_keycenter=a6
<region>
-sample=samples\grand piano\piano-p-c7.wav
+sample=Samples\Grand Piano\piano-p-c7.wav
lokey=b6
hikey=c#7
pitch_keycenter=c7
<region>
-sample=samples\grand piano\piano-p-d#7.wav
+sample=Samples\Grand Piano\piano-p-d#7.wav
lokey=d7
hikey=e7
pitch_keycenter=d#7
<region>
-sample=samples\grand piano\piano-p-f#7.wav
+sample=Samples\Grand Piano\piano-p-f#7.wav
lokey=f7
hikey=g7
pitch_keycenter=f#7
<region>
-sample=samples\grand piano\piano-p-a7.wav
+sample=Samples\Grand Piano\piano-p-a7.wav
lokey=g#7
hikey=a#7
pitch_keycenter=a7
<region>
-sample=samples\grand piano\piano-p-c8.wav
+sample=Samples\Grand Piano\piano-p-c8.wav
lokey=b7
hikey=c8
pitch_keycenter=c8
diff --git a/Strings - Cello Solo.sfz b/Strings - Cello Solo.sfz
index 1ce8862..c98b0de 100644
--- a/Strings - Cello Solo.sfz
+++ b/Strings - Cello Solo.sfz
@@ -8,96 +8,96 @@
ampeg_release=0.960
<region>
-sample=samples\cello\cello-c2.wav
+sample=Samples\Cello\cello-c2.wav
lokey=c2
hikey=c#2
pitch_keycenter=c2
<region>
-sample=samples\cello\cello-d#2.wav
+sample=Samples\Cello\cello-d#2.wav
lokey=d2
hikey=e2
pitch_keycenter=d#2
<region>
-sample=samples\cello\cello-f#2.wav
+sample=Samples\Cello\cello-f#2.wav
lokey=f2
hikey=g2
pitch_keycenter=f#2
<region>
-sample=samples\cello\cello-a2.wav
+sample=Samples\Cello\cello-a2.wav
lokey=g#2
hikey=a#2
pitch_keycenter=a2
<region>
-sample=samples\cello\cello-c3.wav
+sample=Samples\Cello\cello-c3.wav
lokey=b2
hikey=c#3
pitch_keycenter=c3
<region>
-sample=samples\cello\cello-d#3.wav
+sample=Samples\Cello\cello-d#3.wav
lokey=d3
hikey=e3
pitch_keycenter=d#3
<region>
-sample=samples\cello\cello-f#3.wav
+sample=Samples\Cello\cello-f#3.wav
lokey=f3
hikey=g3
pitch_keycenter=f#3
<region>
-sample=samples\cello\cello-a3.wav
+sample=Samples\Cello\cello-a3.wav
lokey=g#3
hikey=a#3
pitch_keycenter=a3
<region>
-sample=samples\cello\cello-c4.wav
+sample=Samples\Cello\cello-c4.wav
lokey=b3
hikey=c#4
<region>
-sample=samples\cello\cello-d#4.wav
+sample=Samples\Cello\cello-d#4.wav
lokey=d4
hikey=e4
pitch_keycenter=d#4
<region>
-sample=samples\cello\cello-f#4.wav
+sample=Samples\Cello\cello-f#4.wav
lokey=f4
hikey=g4
pitch_keycenter=f#4
<region>
-sample=samples\cello\cello-a4.wav
+sample=Samples\Cello\cello-a4.wav
lokey=g#4
hikey=a#4
pitch_keycenter=a4
<region>
-sample=samples\cello\cello-c5.wav
+sample=Samples\Cello\cello-c5.wav
lokey=b4
hikey=c#5
pitch_keycenter=c5
<region>
-sample=samples\cello\cello-d#5.wav
+sample=Samples\Cello\cello-d#5.wav
lokey=d5
hikey=e5
pitch_keycenter=d#5
<region>
-sample=samples\cello\cello-f#5.wav
+sample=Samples\Cello\cello-f#5.wav
lokey=f5
hikey=g5
pitch_keycenter=f#5
<region>
-sample=samples\cello\cello-a5.wav
+sample=Samples\Cello\cello-a5.wav
lokey=g#5
hikey=c6
pitch_keycenter=a5
diff --git a/Strings - Violin Solo.sfz b/Strings - Violin Solo.sfz
index ce10b5b..e30d204 100644
--- a/Strings - Violin Solo.sfz
+++ b/Strings - Violin Solo.sfz
@@ -8,94 +8,94 @@
ampeg_release=0.500
<region>
-sample=samples\violin\violin-g3.wav
+sample=Samples\Violin\violin-g3.wav
lokey=g3
hikey=g#3
pitch_keycenter=g3
<region>
-sample=samples\violin\violin-a#3.wav
+sample=Samples\Violin\violin-a#3.wav
lokey=a3
hikey=b3
pitch_keycenter=a#3
tune=8
<region>
-sample=samples\violin\violin-c#4.wav
+sample=Samples\Violin\violin-c#4.wav
lokey=c4
hikey=d4
pitch_keycenter=c#4
tune=-2
<region>
-sample=samples\violin\violin-e4.wav
+sample=Samples\Violin\violin-e4.wav
lokey=d#4
hikey=f4
pitch_keycenter=e4
tune=6
<region>
-sample=samples\violin\violin-g4.wav
+sample=Samples\Violin\violin-g4.wav
lokey=f#4
hikey=g#4
pitch_keycenter=g4
<region>
-sample=samples\violin\violin-a#4.wav
+sample=Samples\Violin\violin-a#4.wav
lokey=a4
hikey=b4
pitch_keycenter=a#4
<region>
-sample=samples\violin\violin-c#5.wav
+sample=Samples\Violin\violin-c#5.wav
lokey=c5
hikey=d5
pitch_keycenter=c#5
<region>
-sample=samples\violin\violin-e5.wav
+sample=Samples\Violin\violin-e5.wav
lokey=d#5
hikey=f5
pitch_keycenter=e5
tune=3
<region>
-sample=samples\violin\violin-g5.wav
+sample=Samples\Violin\violin-g5.wav
lokey=f#5
hikey=g#5
pitch_keycenter=g5
tune=-2
<region>
-sample=samples\violin\violin-a#5.wav
+sample=Samples\Violin\violin-a#5.wav
lokey=a5
hikey=b5
pitch_keycenter=a#5
tune=-8
<region>
-sample=samples\violin\violin-c#6.wav
+sample=Samples\Violin\violin-c#6.wav
lokey=c6
hikey=d6
pitch_keycenter=c#6
tune=-8
<region>
-sample=samples\violin\violin-e6.wav
+sample=Samples\Violin\violin-e6.wav
lokey=d#6
hikey=f6
pitch_keycenter=e6
tune=-9
<region>
-sample=samples\violin\violin-g6.wav
+sample=Samples\Violin\violin-g6.wav
lokey=f#6
hikey=g#6
pitch_keycenter=g6
tune=-40
<region>
-sample=samples\violin\violin-a#6.wav
+sample=Samples\Violin\violin-a#6.wav
lokey=a6
hikey=c7
pitch_keycenter=a#6
diff --git a/Woodwinds - Alto Flute Solo.sfz b/Woodwinds - Alto Flute Solo.sfz
index 6b2f067..89575b6 100644
--- a/Woodwinds - Alto Flute Solo.sfz
+++ b/Woodwinds - Alto Flute Solo.sfz
@@ -8,89 +8,89 @@
ampeg_release=0.450
<region>
-sample=samples\alto flute\alto_flute-g3.wav
+sample=Samples\Alto Flute\alto_flute-g3.wav
lokey=g3
hikey=g#3
pitch_keycenter=g3
<region>
-sample=samples\alto flute\alto_flute-a#3.wav
+sample=Samples\Alto Flute\alto_flute-a#3.wav
lokey=a3
hikey=b3
pitch_keycenter=a#3
tune=8
<region>
-sample=samples\alto flute\alto_flute-c#4.wav
+sample=Samples\Alto Flute\alto_flute-c#4.wav
lokey=c4
hikey=d4
pitch_keycenter=c#4
tune=11
<region>
-sample=samples\alto flute\alto_flute-e4.wav
+sample=Samples\Alto Flute\alto_flute-e4.wav
lokey=d#4
hikey=f4
pitch_keycenter=e4
tune=-13
<region>
-sample=samples\alto flute\alto_flute-g4.wav
+sample=Samples\Alto Flute\alto_flute-g4.wav
lokey=f#4
hikey=g#4
pitch_keycenter=g4
tune=-22
<region>
-sample=samples\alto flute\alto_flute-a#4.wav
+sample=Samples\Alto Flute\alto_flute-a#4.wav
lokey=a4
hikey=b4
pitch_keycenter=a#4
<region>
-sample=samples\alto flute\alto_flute-c#5.wav
+sample=Samples\Alto Flute\alto_flute-c#5.wav
lokey=c5
hikey=d5
pitch_keycenter=c#5
tune=-6
<region>
-sample=samples\alto flute\alto_flute-e5.wav
+sample=Samples\Alto Flute\alto_flute-e5.wav
lokey=d#5
hikey=f5
pitch_keycenter=e5
tune=-23
<region>
-sample=samples\alto flute\alto_flute-g5.wav
+sample=Samples\Alto Flute\alto_flute-g5.wav
lokey=f#5
hikey=g#5
pitch_keycenter=g5
tune=-32
<region>
-sample=samples\alto flute\alto_flute-a#5.wav
+sample=Samples\Alto Flute\alto_flute-a#5.wav
lokey=a5
hikey=b5
pitch_keycenter=a#5
tune=-30
<region>
-sample=samples\alto flute\alto_flute-c#6.wav
+sample=Samples\Alto Flute\alto_flute-c#6.wav
lokey=c6
hikey=d6
pitch_keycenter=c#6
tune=-28
<region>
-sample=samples\alto flute\alto_flute-e6.wav
+sample=Samples\Alto Flute\alto_flute-e6.wav
lokey=d#6
hikey=f6
pitch_keycenter=e6
tune=-26
<region>
-sample=samples\alto flute\alto_flute-g6.wav
+sample=Samples\Alto Flute\alto_flute-g6.wav
lokey=f#6
hikey=g6
pitch_keycenter=g6
diff --git a/Woodwinds - Bass Clarinet Solo.sfz b/Woodwinds - Bass Clarinet Solo.sfz
index 67c9024..fd36258 100644
--- a/Woodwinds - Bass Clarinet Solo.sfz
+++ b/Woodwinds - Bass Clarinet Solo.sfz
@@ -8,89 +8,89 @@
ampeg_release=0.460
<region>
-sample=samples\bass clarinet\bass_clarinet-d2.wav
+sample=Samples\Bass Clarinet\bass_clarinet-d2.wav
lokey=d2
hikey=d#2
pitch_keycenter=d2
tune=25
<region>
-sample=samples\bass clarinet\bass_clarinet-f2.wav
+sample=Samples\Bass Clarinet\bass_clarinet-f2.wav
lokey=e2
hikey=f#2
pitch_keycenter=f2
tune=6
<region>
-sample=samples\bass clarinet\bass_clarinet-g#2.wav
+sample=Samples\Bass Clarinet\bass_clarinet-g#2.wav
lokey=g2
hikey=a2
pitch_keycenter=g#2
<region>
-sample=samples\bass clarinet\bass_clarinet-b2.wav
+sample=Samples\Bass Clarinet\bass_clarinet-b2.wav
lokey=a#2
hikey=c3
pitch_keycenter=b2
tune=10
<region>
-sample=samples\bass clarinet\bass_clarinet-d3.wav
+sample=Samples\Bass Clarinet\bass_clarinet-d3.wav
lokey=c#3
hikey=d#3
pitch_keycenter=d3
tune=5
<region>
-sample=samples\bass clarinet\bass_clarinet-f3.wav
+sample=Samples\Bass Clarinet\bass_clarinet-f3.wav
lokey=e3
hikey=f#3
pitch_keycenter=f3
tune=8
<region>
-sample=samples\bass clarinet\bass_clarinet-g#3.wav
+sample=Samples\Bass Clarinet\bass_clarinet-g#3.wav
lokey=g3
hikey=a3
pitch_keycenter=g#3
tune=23
<region>
-sample=samples\bass clarinet\bass_clarinet-b3.wav
+sample=Samples\Bass Clarinet\bass_clarinet-b3.wav
lokey=a#3
hikey=c4
pitch_keycenter=b3
tune=7
<region>
-sample=samples\bass clarinet\bass_clarinet-d4.wav
+sample=Samples\Bass Clarinet\bass_clarinet-d4.wav
lokey=c#4
hikey=d#4
pitch_keycenter=d4
tune=4
<region>
-sample=samples\bass clarinet\bass_clarinet-f4.wav
+sample=Samples\Bass Clarinet\bass_clarinet-f4.wav
lokey=e4
hikey=f#4
pitch_keycenter=f4
tune=15
<region>
-sample=samples\bass clarinet\bass_clarinet-g#4.wav
+sample=Samples\Bass Clarinet\bass_clarinet-g#4.wav
lokey=g4
hikey=a4
pitch_keycenter=g#4
<region>
-sample=samples\bass clarinet\bass_clarinet-b4.wav
+sample=Samples\Bass Clarinet\bass_clarinet-b4.wav
lokey=a#4
hikey=c5
pitch_keycenter=b4
tune=3
<region>
-sample=samples\bass clarinet\bass_clarinet-d5.wav
+sample=Samples\Bass Clarinet\bass_clarinet-d5.wav
lokey=c#5
hikey=d5
pitch_keycenter=d5
diff --git a/Woodwinds - Bassoon Solo.sfz b/Woodwinds - Bassoon Solo.sfz
index ff558ae..571845a 100644
--- a/Woodwinds - Bassoon Solo.sfz
+++ b/Woodwinds - Bassoon Solo.sfz
@@ -11,95 +11,95 @@ fil_type=lpf_2p
cutoff=120
<region>
-sample=samples\bassoon\bassoon-a#1.wav
+sample=Samples\Bassoon\bassoon-a#1.wav
lokey=a#1
hikey=b1
pitch_keycenter=a#1
tune=-13
<region>
-sample=samples\bassoon\bassoon-c#2.wav
+sample=Samples\Bassoon\bassoon-c#2.wav
lokey=c2
hikey=d2
pitch_keycenter=c#2
tune=-17
<region>
-sample=samples\bassoon\bassoon-e2.wav
+sample=Samples\Bassoon\bassoon-e2.wav
lokey=d#2
hikey=f2
pitch_keycenter=e2
tune=-12
<region>
-sample=samples\bassoon\bassoon-g2.wav
+sample=Samples\Bassoon\bassoon-g2.wav
lokey=f#2
hikey=g#2
pitch_keycenter=g2
<region>
-sample=samples\bassoon\bassoon-a#2.wav
+sample=Samples\Bassoon\bassoon-a#2.wav
lokey=a2
hikey=b2
pitch_keycenter=a#2
<region>
-sample=samples\bassoon\bassoon-c#3.wav
+sample=Samples\Bassoon\bassoon-c#3.wav
lokey=c3
hikey=d3
pitch_keycenter=c#3
tune=-12
<region>
-sample=samples\bassoon\bassoon-e3.wav
+sample=Samples\Bassoon\bassoon-e3.wav
lokey=d#3
hikey=f3
pitch_keycenter=e3
tune=-11
<region>
-sample=samples\bassoon\bassoon-g3.wav
+sample=Samples\Bassoon\bassoon-g3.wav
lokey=f#3
hikey=g#3
pitch_keycenter=g3
tune=-5
<region>
-sample=samples\bassoon\bassoon-a#3.wav
+sample=Samples\Bassoon\bassoon-a#3.wav
lokey=a3
hikey=b3
pitch_keycenter=a#3
tune=-4
<region>
-sample=samples\bassoon\bassoon-c#4.wav
+sample=Samples\Bassoon\bassoon-c#4.wav
lokey=c4
hikey=d4
pitch_keycenter=c#4
tune=5
<region>
-sample=samples\bassoon\bassoon-e4.wav
+sample=Samples\Bassoon\bassoon-e4.wav
lokey=d#4
hikey=f4
pitch_keycenter=e4
<region>
-sample=samples\bassoon\bassoon-g4.wav
+sample=Samples\Bassoon\bassoon-g4.wav
lokey=f#4
hikey=g#4
pitch_keycenter=g4
tune=-13
<region>
-sample=samples\bassoon\bassoon-a#4.wav
+sample=Samples\Bassoon\bassoon-a#4.wav
lokey=a4
hikey=a#4
pitch_keycenter=a#4
tune=-9
<region>
-sample=samples\bassoon\bassoon-c#5.wav
+sample=Samples\Bassoon\bassoon-c#5.wav
lokey=c5
hikey=d5
pitch_keycenter=c#5
diff --git a/Woodwinds - Clarinet Solo.sfz b/Woodwinds - Clarinet Solo.sfz
index e8ff8cd..485ca3f 100644
--- a/Woodwinds - Clarinet Solo.sfz
+++ b/Woodwinds - Clarinet Solo.sfz
@@ -8,83 +8,83 @@
ampeg_release=0.540
<region>
-sample=samples\clarinet\clarinet-d3.wav
+sample=Samples\Clarinet\clarinet-d3.wav
lokey=d3
hikey=d#3
pitch_keycenter=d3
tune=3
<region>
-sample=samples\clarinet\clarinet-f3.wav
+sample=Samples\Clarinet\clarinet-f3.wav
lokey=e3
hikey=f#3
pitch_keycenter=f3
<region>
-sample=samples\clarinet\clarinet-g#3.wav
+sample=Samples\Clarinet\clarinet-g#3.wav
lokey=g3
hikey=a3
pitch_keycenter=g#3
<region>
-sample=samples\clarinet\clarinet-b3.wav
+sample=Samples\Clarinet\clarinet-b3.wav
lokey=a#3
hikey=c4
pitch_keycenter=b3
tune=5
<region>
-sample=samples\clarinet\clarinet-d4.wav
+sample=Samples\Clarinet\clarinet-d4.wav
lokey=c#4
hikey=d#4
pitch_keycenter=d4
tune=6
<region>
-sample=samples\clarinet\clarinet-f4.wav
+sample=Samples\Clarinet\clarinet-f4.wav
lokey=e4
hikey=f#4
pitch_keycenter=f4
<region>
-sample=samples\clarinet\clarinet-g#4.wav
+sample=Samples\Clarinet\clarinet-g#4.wav
lokey=g4
hikey=a4
pitch_keycenter=g#4
tune=8
<region>
-sample=samples\clarinet\clarinet-b4.wav
+sample=Samples\Clarinet\clarinet-b4.wav
lokey=a#4
hikey=c5
pitch_keycenter=b4
<region>
-sample=samples\clarinet\clarinet-d5.wav
+sample=Samples\Clarinet\clarinet-d5.wav
lokey=c#5
hikey=d#5
pitch_keycenter=d5
<region>
-sample=samples\clarinet\clarinet-f5.wav
+sample=Samples\Clarinet\clarinet-f5.wav
lokey=e5
hikey=f#5
pitch_keycenter=f5
<region>
-sample=samples\clarinet\clarinet-g#5.wav
+sample=Samples\Clarinet\clarinet-g#5.wav
lokey=g5
hikey=a5
pitch_keycenter=g#5
<region>
-sample=samples\clarinet\clarinet-b5.wav
+sample=Samples\Clarinet\clarinet-b5.wav
lokey=a#5
hikey=c6
pitch_keycenter=b5
<region>
-sample=samples\clarinet\clarinet-d6.wav
+sample=Samples\Clarinet\clarinet-d6.wav
lokey=c#6
hikey=d6
pitch_keycenter=d6
diff --git a/Woodwinds - Contrabassoon Solo.sfz b/Woodwinds - Contrabassoon Solo.sfz
index a605b25..f070e78 100644
--- a/Woodwinds - Contrabassoon Solo.sfz
+++ b/Woodwinds - Contrabassoon Solo.sfz
@@ -8,87 +8,87 @@
ampeg_release=0.500
<region>
-sample=samples\contrabassoon\contrabassoon-a#0.wav
+sample=Samples\Contrabassoon\contrabassoon-a#0.wav
lokey=a#0
hikey=b0
pitch_keycenter=a#0
tune=-20
<region>
-sample=samples\contrabassoon\contrabassoon-c#1.wav
+sample=Samples\Contrabassoon\contrabassoon-c#1.wav
lokey=c1
hikey=d1
pitch_keycenter=c#1
tune=-16
<region>
-sample=samples\contrabassoon\contrabassoon-e1.wav
+sample=Samples\Contrabassoon\contrabassoon-e1.wav
lokey=d#1
hikey=f1
pitch_keycenter=e1
<region>
-sample=samples\contrabassoon\contrabassoon-g1.wav
+sample=Samples\Contrabassoon\contrabassoon-g1.wav
lokey=f#1
hikey=g#1
pitch_keycenter=g1
tune=-11
<region>
-sample=samples\contrabassoon\contrabassoon-a#1.wav
+sample=Samples\Contrabassoon\contrabassoon-a#1.wav
lokey=a1
hikey=b1
pitch_keycenter=a#1
tune=-18
<region>
-sample=samples\contrabassoon\contrabassoon-c#2.wav
+sample=Samples\Contrabassoon\contrabassoon-c#2.wav
lokey=c2
hikey=d2
pitch_keycenter=c#2
<region>
-sample=samples\contrabassoon\contrabassoon-e2.wav
+sample=Samples\Contrabassoon\contrabassoon-e2.wav
lokey=d#2
hikey=f2
pitch_keycenter=e2
<region>
-sample=samples\contrabassoon\contrabassoon-g2.wav
+sample=Samples\Contrabassoon\contrabassoon-g2.wav
lokey=f#2
hikey=g#2
pitch_keycenter=g2
tune=-16
<region>
-sample=samples\contrabassoon\contrabassoon-a#2.wav
+sample=Samples\Contrabassoon\contrabassoon-a#2.wav
lokey=a2
hikey=b2
pitch_keycenter=a#2
<region>
-sample=samples\contrabassoon\contrabassoon-c#3.wav
+sample=Samples\Contrabassoon\contrabassoon-c#3.wav
lokey=c3
hikey=d3
pitch_keycenter=c#3
tune=-13
<region>
-sample=samples\contrabassoon\contrabassoon-e3.wav
+sample=Samples\Contrabassoon\contrabassoon-e3.wav
lokey=d#3
hikey=f3
pitch_keycenter=e3
tune=-16
<region>
-sample=samples\contrabassoon\contrabassoon-g3.wav
+sample=Samples\Contrabassoon\contrabassoon-g3.wav
lokey=f#3
hikey=g#3
pitch_keycenter=g3
tune=-7
<region>
-sample=samples\contrabassoon\contrabassoon-a#3.wav
+sample=Samples\Contrabassoon\contrabassoon-a#3.wav
lokey=a3
hikey=a#3
pitch_keycenter=a#3
diff --git a/Woodwinds - Cor Anglais Solo.sfz b/Woodwinds - Cor Anglais Solo.sfz
index 776c155..472222e 100644
--- a/Woodwinds - Cor Anglais Solo.sfz
+++ b/Woodwinds - Cor Anglais Solo.sfz
@@ -8,58 +8,58 @@
ampeg_release=0.442
<region>
-sample=samples\cor anglais\cor_anglais-f3.wav
+sample=Samples\Cor Anglais\cor_anglais-f3.wav
lokey=f3
hikey=f#3
pitch_keycenter=f3
<region>
-sample=samples\cor anglais\cor_anglais-g#3.wav
+sample=Samples\Cor Anglais\cor_anglais-g#3.wav
lokey=g3
hikey=a3
pitch_keycenter=g#3
<region>
-sample=samples\cor anglais\cor_anglais-b3.wav
+sample=Samples\Cor Anglais\cor_anglais-b3.wav
lokey=a#3
hikey=c4
pitch_keycenter=b3
tune=-6
<region>
-sample=samples\cor anglais\cor_anglais-d4.wav
+sample=Samples\Cor Anglais\cor_anglais-d4.wav
lokey=c#4
hikey=d#4
pitch_keycenter=d4
tune=-9
<region>
-sample=samples\cor anglais\cor_anglais-f4.wav
+sample=Samples\Cor Anglais\cor_anglais-f4.wav
lokey=e4
hikey=f#4
pitch_keycenter=f4
tune=-12
<region>
-sample=samples\cor anglais\cor_anglais-g#4.wav
+sample=Samples\Cor Anglais\cor_anglais-g#4.wav
lokey=g4
hikey=a4
pitch_keycenter=g#4
<region>
-sample=samples\cor anglais\cor_anglais-b4.wav
+sample=Samples\Cor Anglais\cor_anglais-b4.wav
lokey=a#4
hikey=c5
pitch_keycenter=b4
<region>
-sample=samples\cor anglais\cor_anglais-d5.wav
+sample=Samples\Cor Anglais\cor_anglais-d5.wav
lokey=c#5
hikey=d#5
pitch_keycenter=d5
<region>
-sample=samples\cor anglais\cor_anglais-f5.wav
+sample=Samples\Cor Anglais\cor_anglais-f5.wav
lokey=e5
hikey=f5
pitch_keycenter=f5
diff --git a/Woodwinds - Flute Solo.sfz b/Woodwinds - Flute Solo.sfz
index 0d6c569..cc1ea47 100644
--- a/Woodwinds - Flute Solo.sfz
+++ b/Woodwinds - Flute Solo.sfz
@@ -8,86 +8,86 @@
ampeg_release=0.425
<region>
-sample=samples\flute\flute-c3.wav
+sample=Samples\Flute\flute-c3.wav
lokey=c3
hikey=c#3
pitch_keycenter=c3
<region>
-sample=samples\flute\flute-d#3.wav
+sample=Samples\Flute\flute-d#3.wav
lokey=d3
hikey=e3
pitch_keycenter=d#3
<region>
-sample=samples\flute\flute-f#3.wav
+sample=Samples\Flute\flute-f#3.wav
lokey=f3
hikey=g3
pitch_keycenter=f#3
<region>
-sample=samples\flute\flute-a3.wav
+sample=Samples\Flute\flute-a3.wav
lokey=g#3
hikey=a#3
pitch_keycenter=a3
<region>
-sample=samples\flute\flute-c4.wav
+sample=Samples\Flute\flute-c4.wav
lokey=b3
hikey=c#4
tune=-16
<region>
-sample=samples\flute\flute-d#4.wav
+sample=Samples\Flute\flute-d#4.wav
lokey=d4
hikey=e4
pitch_keycenter=d#4
tune=-7
<region>
-sample=samples\flute\flute-f#4.wav
+sample=Samples\Flute\flute-f#4.wav
lokey=f4
hikey=g4
pitch_keycenter=f#4
tune=-4
<region>
-sample=samples\flute\flute-a4.wav
+sample=Samples\Flute\flute-a4.wav
lokey=g#4
hikey=a#4
pitch_keycenter=a4
tune=-17
<region>
-sample=samples\flute\flute-c5.wav
+sample=Samples\Flute\flute-c5.wav
lokey=b4
hikey=c#5
pitch_keycenter=c5
tune=-4
<region>
-sample=samples\flute\flute-d#5.wav
+sample=Samples\Flute\flute-d#5.wav
lokey=d5
hikey=e5
pitch_keycenter=d#5
tune=-8
<region>
-sample=samples\flute\flute-f#5.wav
+sample=Samples\Flute\flute-f#5.wav
lokey=f5
hikey=g5
pitch_keycenter=f#5
tune=-16
<region>
-sample=samples\flute\flute-a5.wav
+sample=Samples\Flute\flute-a5.wav
lokey=g#5
hikey=a#5
pitch_keycenter=a5
tune=-17
<region>
-sample=samples\flute\flute-c6.wav
+sample=Samples\Flute\flute-c6.wav
lokey=b5
hikey=c6
pitch_keycenter=c6
diff --git a/Woodwinds - Oboe Solo.sfz b/Woodwinds - Oboe Solo.sfz
index 3ce6fb2..f1d9fcf 100644
--- a/Woodwinds - Oboe Solo.sfz
+++ b/Woodwinds - Oboe Solo.sfz
@@ -10,69 +10,69 @@ fil_type=lpf_2p
cutoff=5000
<region>
-sample=samples\oboe\oboe-a#3.wav
+sample=Samples\Oboe\oboe-a#3.wav
lokey=a#3
hikey=b3
pitch_keycenter=a#3
tune=-8
<region>
-sample=samples\oboe\oboe-c#4.wav
+sample=Samples\Oboe\oboe-c#4.wav
lokey=c4
hikey=d4
pitch_keycenter=c#4
tune=-9
<region>
-sample=samples\oboe\oboe-e4.wav
+sample=Samples\Oboe\oboe-e4.wav
lokey=d#4
hikey=f4
pitch_keycenter=e4
tune=-14
<region>
-sample=samples\oboe\oboe-g4.wav
+sample=Samples\Oboe\oboe-g4.wav
lokey=f#4
hikey=g#4
pitch_keycenter=g4
tune=-10
<region>
-sample=samples\oboe\oboe-a#4.wav
+sample=Samples\Oboe\oboe-a#4.wav
lokey=a4
hikey=b4
pitch_keycenter=a#4
tune=-5
<region>
-sample=samples\oboe\oboe-c#5.wav
+sample=Samples\Oboe\oboe-c#5.wav
lokey=c5
hikey=d5
pitch_keycenter=c#5
<region>
-sample=samples\oboe\oboe-e5.wav
+sample=Samples\Oboe\oboe-e5.wav
lokey=d#5
hikey=f5
pitch_keycenter=e5
tune=-15
<region>
-sample=samples\oboe\oboe-g5.wav
+sample=Samples\Oboe\oboe-g5.wav
lokey=f#5
hikey=g#5
pitch_keycenter=g5
tune=-20
<region>
-sample=samples\oboe\oboe-a#5.wav
+sample=Samples\Oboe\oboe-a#5.wav
lokey=a5
hikey=b5
pitch_keycenter=a#5
tune=-22
<region>
-sample=samples\oboe\oboe-c6.wav
+sample=Samples\Oboe\oboe-c6.wav
lokey=c6
hikey=c6
pitch_keycenter=c6
diff --git a/Woodwinds - Piccolo Solo.sfz b/Woodwinds - Piccolo Solo.sfz
index 44e30cf..cf94437 100644
--- a/Woodwinds - Piccolo Solo.sfz
+++ b/Woodwinds - Piccolo Solo.sfz
@@ -8,66 +8,66 @@
ampeg_release=0.550
<region>
-sample=samples\piccolo\piccolo-c4.wav
+sample=Samples\Piccolo\piccolo-c4.wav
lokey=c4
hikey=c#4
<region>
-sample=samples\piccolo\piccolo-d#4.wav
+sample=Samples\Piccolo\piccolo-d#4.wav
lokey=d4
hikey=e4
pitch_keycenter=d#4
<region>
-sample=samples\piccolo\piccolo-f#4.wav
+sample=Samples\Piccolo\piccolo-f#4.wav
lokey=f4
hikey=g4
pitch_keycenter=f#4
<region>
-sample=samples\piccolo\piccolo-a4.wav
+sample=Samples\Piccolo\piccolo-a4.wav
lokey=g#4
hikey=a#4
pitch_keycenter=a4
<region>
-sample=samples\piccolo\piccolo-c5.wav
+sample=Samples\Piccolo\piccolo-c5.wav
lokey=b4
hikey=c#5
pitch_keycenter=c5
<region>
-sample=samples\piccolo\piccolo-d#5.wav
+sample=Samples\Piccolo\piccolo-d#5.wav
lokey=d5
hikey=e5
pitch_keycenter=d#5
<region>
-sample=samples\piccolo\piccolo-f#5.wav
+sample=Samples\Piccolo\piccolo-f#5.wav
lokey=f5
hikey=g5
pitch_keycenter=f#5
<region>
-sample=samples\piccolo\piccolo-a5.wav
+sample=Samples\Piccolo\piccolo-a5.wav
lokey=g#5
hikey=a#5
pitch_keycenter=a5
<region>
-sample=samples\piccolo\piccolo-c6.wav
+sample=Samples\Piccolo\piccolo-c6.wav
lokey=b5
hikey=c#6
pitch_keycenter=c6
<region>
-sample=samples\piccolo\piccolo-d#6.wav
+sample=Samples\Piccolo\piccolo-d#6.wav
lokey=d6
hikey=e6
pitch_keycenter=d#6
<region>
-sample=samples\piccolo\piccolo-f#6.wav
+sample=Samples\Piccolo\piccolo-f#6.wav
lokey=f6
hikey=g6
pitch_keycenter=f#6
--
1.7.10.4
@przemoc

This comment has been minimized.

Copy link
Owner Author

@przemoc przemoc commented Oct 6, 2012

Above is useful only for operating systems having case-sensitive file paths.

If you're unfamiliar with patching workflow, this is how you can apply it:

$ cd '/path/to/Sonatina Symphonic Orchestra/'
$ wget --trust-server-names http://git.io/sso-1.0-patch
$ patch -p1 <Fix-lowercase-sample-paths-in-.sfz.patch
Sign up for free to join this conversation on GitHub. Already have an account? Sign in to comment